Subcategories

Nicolas Jaar - Sirens (2016)

Posted By: gribovar
Nicolas Jaar - Sirens (2016)

Nicolas Jaar - Sirens (2016)
EAC Rip | FLAC (tracks+.cue+log) - 278 MB | MP3 CBR 320 kbps (LAME 3.93) - 111 MB | Covers - 89 MB
Genre: Downtempo, Ambient, Experimental | RAR 3% Rec. | Label: Beat Records (BRC-532)

Sirens, the third album from Nicolas Jaar, falls somewhere between the contemplative microhouse of first album Space Is Only Noise (2011) and the glossier follow-up Pomegranates (2015). Introduced with the haunting 11-minute track "Killing Time," Jaar integrates new elements into his sound, from the synth pop of "Three Sides of Nazareth" to the jungle of "The Governor." The continuous presence of vocals makes it Jaar's most emotional work yet, opening the door to a wider audience.
Tracklist:
01. Killing Time
02. Wildflowers
03. The Governor
04. Leaves
05. No
06. Three Sides Of Nazareth
07. History Lesson

Total time: 55:05

Exact Audio Copy V1.1 from 23. June 2015

EAC extraction logfile from 17. October 2016, 19:29

Nicolas Jaar / Sirens

Used drive : PLEXTOR DVDR PX-891SAW Adapter: 1 ID: 0

Read mode : Secure
Utilize accurate stream : Yes
Defeat audio cache : Yes
Make use of C2 pointers : No

Read offset correction : 48
Overread into Lead-In and Lead-Out : No
Fill up missing offset samples with silence : Yes
Delete leading and trailing silent blocks : No
Null samples used in CRC calculations : Yes
Used interface : Native Win32 interface for Win NT & 2000
Gap handling : Appended to previous track

Used output format : User Defined Encoder
Selected bitrate : 1024 kBit/s
Quality : High
Add ID3 tag : No
Command line compressor : C:\Program Files (x86)\Exact Audio Copy\Flac\flac.exe
Additional command line options : -8 -V -T "ARTIST=%artist%" -T "TITLE=%title%" -T "ALBUM=%albumtitle%" -T "DATE=%year%" -T "TRACKNUMBER=%tracknr%" -T "GENRE=%genre%" -T "PERFORMER=%albuminterpret%" -T "COMPOSER=%composer%" %haslyrics%–tag-from-file=LYRICS="%lyricsfile%"%haslyrics% -T "ALBUMARTIST=%albumartist%" -T "DISCNUMBER=%cdnumber%" -T "TOTALDISCS=%totalcds%" -T "TOTALTRACKS=%numtracks%" -T "COMMENT=%comment%" %source% -o %dest%


TOC of the extracted CD

Track | Start | Length | Start sector | End sector
––––––––––––––––––––––––––––-
1 | 0:00.00 | 11:14.04 | 0 | 50553
2 | 11:14.04 | 5:33.66 | 50554 | 75594
3 | 16:47.70 | 6:50.00 | 75595 | 106344
4 | 23:37.70 | 3:29.61 | 106345 | 122080
5 | 27:07.56 | 6:34.09 | 122081 | 151639
6 | 33:41.65 | 9:54.44 | 151640 | 196233
7 | 43:36.34 | 3:43.51 | 196234 | 213009


Track 1

Filename C:\Rips\01 - Killing Time.wav

Pre-gap length 0:00:02.00

Peak level 95.4 %
Extraction speed 5.3 X
Track quality 100.0 %
Test CRC CA920660
Copy CRC CA920660
Track not present in AccurateRip database
Copy OK

Track 2

Filename C:\Rips\02 - Wildflowers.wav

Peak level 100.0 %
Extraction speed 6.0 X
Track quality 100.0 %
Test CRC 7460539F
Copy CRC 7460539F
Track not present in AccurateRip database
Copy OK

Track 3

Filename C:\Rips\03 - The Governor.wav

Peak level 98.8 %
Extraction speed 5.3 X
Track quality 99.9 %
Test CRC E3193FFF
Copy CRC E3193FFF
Track not present in AccurateRip database
Copy OK

Track 4

Filename C:\Rips\04 - Leaves.wav

Peak level 98.8 %
Extraction speed 4.4 X
Track quality 99.9 %
Test CRC 4EE07BD6
Copy CRC 4EE07BD6
Track not present in AccurateRip database
Copy OK

Track 5

Filename C:\Rips\05 - No.wav

Peak level 97.7 %
Extraction speed 7.5 X
Track quality 100.0 %
Test CRC 3FC2BDEA
Copy CRC 3FC2BDEA
Track not present in AccurateRip database
Copy OK

Track 6

Filename C:\Rips\06 - Three Sides Of Nazareth.wav

Peak level 97.7 %
Extraction speed 7.0 X
Track quality 99.9 %
Test CRC E6FF9AA3
Copy CRC E6FF9AA3
Track not present in AccurateRip database
Copy OK

Track 7

Filename C:\Rips\07 - History Lesson.wav

Peak level 97.7 %
Extraction speed 8.0 X
Track quality 100.0 %
Test CRC D44346B2
Copy CRC D44346B2
Track not present in AccurateRip database
Copy OK


None of the tracks are present in the AccurateRip database

No errors occurred

End of status report

–– CUETools DB Plugin V2.1.6

[CTDB TOCID: MJg2h70Ja_c0VKzMuidpxP2wIEs-] disk not present in database
Submit result: MJg2h70Ja_c0VKzMuidpxP2wIEs- has been uploaded


==== Log checksum A1468391000DFADC27FBFE063817ECB3601F022DA17D7E9E9FB17B11DD870FF0 ====

[CUETools log; Date: 13.06.2018 19:39:43; Version: 2.1.4]
[CTDB TOCID: MJg2h70Ja_c0VKzMuidpxP2wIEs-] found.
Track | CTDB Status
1 | (2/2) Accurately ripped
2 | (2/2) Accurately ripped
3 | (2/2) Accurately ripped
4 | (2/2) Accurately ripped
5 | (2/2) Accurately ripped
6 | (2/2) Accurately ripped
7 | (2/2) Accurately ripped
[AccurateRip ID: 000df803-0051a745-580b1807] found.
Track [ CRC | V2 ] Status
01 [c0c1b7b1|63c20a0d] (0+2/2) Accurately ripped
02 [df195ba4|cf295299] (0+2/2) Accurately ripped
03 [a1941046|3133d25c] (0+2/2) Accurately ripped
04 [07fd5280|f8f33c27] (0+2/2) Accurately ripped
05 [185d105f|98239d6e] (0+2/2) Accurately ripped
06 [ab506e63|7cb6c1b0] (0+2/2) Accurately ripped
07 [bac87272|94d181c6] (0+2/2) Accurately ripped

Track Peak [ CRC32 ] [W/O NULL] [ LOG ]
– 100,0 [9A0E895E] [2512DECC]
01 95,4 [CA920660] [53838028] CRC32
02 100,0 [7460539F] [2E0F022E] CRC32
03 98,8 [E3193FFF] [81635874] CRC32
04 98,8 [4EE07BD6] [9B9E95C5] CRC32
05 97,7 [3FC2BDEA] [DF7C508B] CRC32
06 97,7 [E6FF9AA3] [C0F302DF] CRC32
07 97,7 [D44346B2] [9CBFE2B3] CRC32

Thanks to the original releaser