Subcategories

Parks - Umber (2000) [Reissue 2007]

Posted By: gribovar
Parks - Umber (2000) [Reissue 2007]

Parks - Umber (2000) [Reissue 2007]
EAC Rip | FLAC (image+.cue+log) - 236 MB | MP3 CBR 320 kbps (LAME 3.93) - 131 MB | Covers - 30 MB
Genre: Ambient | RAR 3% Rec. | Label: Infraction (INFX 031)

Superb ambient with environmental interludes, cinematic minor key passages. Think early Vangelis at his strongest, Tarkovsky films, a hidden gem from the FAX sublabel catalog. The sound of distant trains create hypnotic rhythms while heavenly strings and ambient sounds and shimmering drones just grab the heart and wont let go. Reworked and re-arranged in 2007 with a new tracklisting.
Tracklist:
01. The Breath Of Autumn
02. Topaz
03. The Blanket
04. Trains
05. The Plain
06. The Twilight
07. Spheres

Total time: 55:50

Exact Audio Copy V0.99 prebeta 5 from 4. May 2009

EAC extraction logfile from 31. January 2010, 13:19

Parks / Umber

Used drive : PIONEER DVD-RW DVR-111 Adapter: 3 ID: 0

Read mode : Secure
Utilize accurate stream : Yes
Defeat audio cache : Yes
Make use of C2 pointers : No

Read offset correction : 48
Overread into Lead-In and Lead-Out : No
Fill up missing offset samples with silence : Yes
Delete leading and trailing silent blocks : No
Null samples used in CRC calculations : Yes
Used interface : Installed external ASPI interface

Used output format : User Defined Encoder
Selected bitrate : 1024 kBit/s
Quality : High
Add ID3 tag : No
Command line compressor : C:\Program Files\Exact Audio Copy\Flac\flac.exe
Additional command line options : -8 -V -T "ARTIST=%a" -T "ALBUM=%g" -T "DATE=%y" -T "GENRE=%m" %s -o %d


TOC of the extracted CD

Track | Start | Length | Start sector | End sector
––––––––––––––––––––––––––––-
1 | 0:00.00 | 9:41.14 | 0 | 43588
2 | 9:41.14 | 6:40.61 | 43589 | 73649
3 | 16:22.00 | 10:16.10 | 73650 | 119859
4 | 26:38.10 | 6:46.72 | 119860 | 150381
5 | 33:25.07 | 3:23.72 | 150382 | 165678
6 | 36:49.04 | 7:30.44 | 165679 | 199472
7 | 44:19.48 | 11:30.61 | 199473 | 251283


Range status and errors

Selected range

Filename F:\temp\nnm\Parks - Umber.wav

Peak level 89.1 %
Range quality 100.0 %
Test CRC 0E9BED00
Copy CRC 0E9BED00
Copy OK

No errors occurred


AccurateRip summary

Track 1 accurately ripped (confidence 5) [8A98278A]
Track 2 accurately ripped (confidence 5) [8BE94177]
Track 3 accurately ripped (confidence 5) [DFC58901]
Track 4 accurately ripped (confidence 5) [5B683CC4]
Track 5 accurately ripped (confidence 5) [A994043D]
Track 6 accurately ripped (confidence 5) [B53B6EF5]
Track 7 accurately ripped (confidence 5) [804BAAB4]

All tracks accurately ripped

End of status report

[CUETools log; Date: 16.05.2018 22:20:28; Version: 2.1.4]
[CTDB TOCID: TgF0CXb.HpoPk7GZhCXPcpRv0Kg-] found.
Track | CTDB Status
1 | (5/5) Accurately ripped
2 | (5/5) Accurately ripped
3 | (5/5) Accurately ripped
4 | (5/5) Accurately ripped
5 | (5/5) Accurately ripped
6 | (5/5) Accurately ripped
7 | (5/5) Accurately ripped
[AccurateRip ID: 000f518d-005aa3a8-4c0d1607] found.
Track [ CRC | V2 ] Status
01 [8a98278a|f5768f85] (06+00/10) Accurately ripped
02 [8be94177|41055ef9] (06+00/10) Accurately ripped
03 [dfc58901|b01d9f2a] (06+00/10) Accurately ripped
04 [5b683cc4|8787f713] (06+00/10) Accurately ripped
05 [a994043d|da734442] (06+00/10) Accurately ripped
06 [b53b6ef5|5188328f] (06+00/10) Accurately ripped
07 [804baab4|f5c2edae] (06+00/10) Accurately ripped
Offsetted by -36:
01 [d0ab4ff4] (00/10) No match (V2 was not tested)
02 [10a16075] (00/10) No match (V2 was not tested)
03 [7f9b5bc2] (00/10) No match (V2 was not tested)
04 [4c1e2eac] (00/10) No match (V2 was not tested)
05 [6c44698b] (00/10) No match (V2 was not tested)
06 [2ec3d4e2] (00/10) No match (V2 was not tested)
07 [8af65fdb] (00/10) No match (V2 was not tested)

Track Peak [ CRC32 ] [W/O NULL] [ LOG ]
– 89,1 [0E9BED00] [98F40EEE] CRC32
01 87,9 [DF707AA8] [0DFCAC52]
02 89,1 [E13A431B] [9132EFC4]
03 87,9 [927D07DB] [B5890466]
04 87,9 [E1249744] [8C8A0EA6]
05 89,1 [E72C02A8] [437285EE]
06 87,9 [2797A496] [EDAE5B03]
07 85,6 [F64820A0] [D079C667]

Thanks to _ok