Subcategories

Patty Ryan - Top Of The Line (1989) [Polydor K.K. P00P 20272, Japan]

Posted By: v3122
Patty Ryan - Top Of The Line (1989) [Polydor K.K. P00P 20272, Japan]

Patty Ryan - Top Of The Line (1989)
EAC | Flac(Image) + Cue + Log & MP3 CBR 320Kbps
Polydor K.K. P00P 20272 | ~ 320 or 107 Mb | Scans(jpg) -> 18 Mb
Italo-Disco, Eurodisco

Patty Ryan is a German singer best known for her Europop song "You're My Love, You're My Life" from 1986. She also sang the hits "Stay With Me Tonight", "Love is the Name of the Game", and "I Don't Wanna Lose You Tonight" (all from her debut album Love is the Name of the Game). Her style is similar to that of bands like Modern Talking, London Boys, and Bad Boys Blue (she has also on occasion collaborated with Modern Talking's Dieter Bohlen). Some of the songs from her debut album resemble Modern Talking songs considerably, You're My Love, You're My Life (You're My Heart, You're My Soul), I'm Feeling So Blue (There's Too Much Blue In Missing You), and the song Chinese Eyes even is based around melodies from "You're My Heart, You're My Soul". She also sang Danuta Lato's hit "Touch My Heart".

Ryan had her start in music business with the rockabilly formation Susi & die Rockets, which also participated in the ZDF-Hitparade in 1981 with the song Dieses Haus ist kein Bahnhof (German version of Sweet Lolita from the british rockabilly band Matchbox).

Patty Ryan's newest releases are the 2005 CD single "I Gave You All My Love", the 2006 compilation All The Best (Otre-Media), the hits "Ohne Zweifel" (2004), and "Lass mir doch mal meinen Spass" (2005) in Germany…

~ wiki
Patty Ryan - Top Of The Line (1989):

Patty Ryan - Top Of The Line (1989) [Polydor K.K. P00P 20272, Japan]

Tracklist:

01. Since You Came Into My Life [0:04:43.37]
02. Top Of The Line [0:03:51.25]
03. When You Look At Me (Duet With Chapter One) [0:03:13.25]
04. Moonlight [0:05:12.53]
05. I Wanna Hold You [0:02:32.72]
06. Lady's Mix [0:18:01.05]
07. Since You Came Into My Life (Long Version) [0:06:46.68]

Exact Audio Copy V0.99 prebeta 5 from 4. May 2009

Отчёт EAC об извлечении, выполненном 27. сентября 2009, 20:53

Patty Ryan / Top Of The Line

Дисковод: HL-DT-STDVD-RAM GH22NS30 Adapter: 2 ID: 0

Режим чтения : Достоверность
Использование точного потока : Да
Отключение кэша аудио : Да
Использование указателей C2 : Нет

Коррекция смещения при чтении : 102
Способность читать области Lead-in и Lead-out : Нет
Заполнение пропущенных сэмплов тишиной : Да
Удаление блоков с тишиной в начале и конце : Нет
При вычислениях CRC использовались нулевые сэмплы : Да
Интерфейс : Установленный внешний ASPI-интерфейс

Выходной формат : Внутренние WAV-операции
Формат сэмплов : 44.100 Гц; 16 бит; стерео


TOC извлечённого CD

Трек | Старт | Длительность | Начальный сектор | Конечный сектор
––––––––––––––––––––––––––––––––––-
1 | 0:00.00 | 4:43.37 | 0 | 21261
2 | 4:43.37 | 3:51.25 | 21262 | 38611
3 | 8:34.62 | 3:13.25 | 38612 | 53111
4 | 11:48.12 | 5:12.53 | 53112 | 76564
5 | 17:00.65 | 2:32.72 | 76565 | 88036
6 | 19:33.62 | 18:01.05 | 88037 | 169116
7 | 37:34.67 | 6:46.68 | 169117 | 199634


Характеристики диапазона извлечения и сообщения об ошибках

Выбранный диапазон

Имя файла C:\Downloads\Patty Ryan\Patty Ryan - 1989 - Top Of The Line\Patty Ryan - Top Of The Line.wav

Пиковый уровень 100.0 %
Качество диапазона 100.0 %
CRC копии F604B1D2
Копирование… OK

Ошибок не произошло


AccurateRip: сводка

Трек 1 нет в базе данных
Трек 2 нет в базе данных
Трек 3 нет в базе данных
Трек 4 нет в базе данных
Трек 5 нет в базе данных
Трек 6 нет в базе данных
Трек 7 нет в базе данных

Ни одного трека нет в базе AccurateRip

Конец отчёта


[CUETools log; Date: 12.07.2018 20:34:20; Version: 2.1.5]
[AccurateRip ID: 0009dcc4-003dfe23-470a6507] found.
Track [ CRC | V2 ] Status
01 [715ae118|bc68a8a8] (1+0/2) Accurately ripped
02 [655aa3e8|c116b5bf] (1+0/2) Accurately ripped
03 [d6209bd8|430e6d13] (1+0/2) Accurately ripped
04 [9590d289|11948f00] (1+0/2) Accurately ripped
05 [e4db28be|c33d0cc4] (1+0/2) Accurately ripped
06 [511f8561|4c0c3ad1] (1+0/2) Accurately ripped
07 [e56cd96e|4c720c7d] (1+0/2) Accurately ripped
Offsetted by 6:
01 [f8e592ec] (1/2) Accurately ripped
02 [b2211614] (1/2) Accurately ripped
03 [ef4e4fe0] (1/2) Accurately ripped
04 [8a806b01] (1/2) Accurately ripped
05 [9e9e3d14] (1/2) Accurately ripped
06 [111b23f9] (1/2) Accurately ripped
07 [c68ea5a6] (1/2) Accurately ripped

Track Peak [ CRC32 ] [W/O NULL] [ LOG ]
– 100,0 [F604B1D2] [27FAD9E0] CRC32
01 99,2 [7588D3C0] [3FEEFB58]
02 99,7 [C7E86C1B] [B935941D]
03 97,8 [F72BDBBC] [E717FCB3]
04 98,9 [622269E5] [E85154BD]
05 97,8 [D4191F9F] [3C5A68CA]
06 98,0 [887994FF] [EB65C678]
07 100,0 [DD43F58E] [08F9AF56]


Patty Ryan - Top Of The Line (1989) [Polydor K.K. P00P 20272, Japan]

All thanks go to the original releaser

Patty Ryan or Patty Ryan in my Blog

Download Patty Ryan - Top Of The Line (1989):