Subcategories

Phil Keaggy - Music To Paint By (1999) 4-CD Set

Posted By: Andi_Deris
Phil Keaggy - Music To Paint By (1999) 4-CD Set

Phil Keaggy - Music To Paint By (1999) 4-CD Set
EAC Rip | FLAC: Tracks+Cue+Log | MP3 CBR 320 kbps | Scans | 03:10:55
Unison Music
Rock, Contemporary Christian, Guitar Virtuoso

1999 saw a flurry of Keaggy instrumental releases. The double album Premium Jams is a stunning collection of previously unreleased electric instrumentals dating back to the recording sessions for Crimson and Blue and 220. Majesty and Wonder, a Christmas album featuring the London Festival Orchestra, includes Keaggy's take on standards such as "Oh Holy Night" as well as a three-part original, "Nativity Suite". Majesty and Wonder would also win Keaggy a Dove Award. Phil later released the four-disc collection Music to Paint By. The project was composed of Still Life, Electric Blue, Splash, and Brushstrokes. Absoultely amazing!

Phil Keaggy - Music To Paint By (1999) 4-CD Set




Phil Keaggy - Music To Paint By (1999) 4-CD Set


Brushstrokes
EAC Rip | FLAC: Tracks+Cue+Log | 213 Mb | MP3 CBR 320 kbps | 108 Mb | Scans | 88 Mb | 42:01
Unison Music | V82652


01. A Painter's Dream (03:27)
02. The Muse (02:40)
03. Arioso (03:26)
04. Finger Painting (00:41)
05. Southern Landscape (07:41)
06. The Baltic (01:25)
07. The Black Forest (02:42)
08. Small Village (01:02)
09. Little Big Mountain (01:12)
10. Sketchings (00:21)
11. Watercolours (04:44)
12. Orange Yellow And Red (08:06)
13. Kobenhaven (04:33)

Phil Keaggy - Music To Paint By (1999) 4-CD Set


Splash
EAC Rip | FLAC: Tracks+Cue+Log | 260 Mb | MP3 CBR 320 kbps | 122 Mb | Scans | 93 Mb | 47:23
Unison Music | V82632


01. Foreshadow (01:02)
02. Phantasy (04:42)
03. Grand Old Man (03:04)
04. The Apprentice (06:32)
05. Abstract (03:54)
06. Floating On Ice (04:41)
07. Miles Away (07:08)
08. A Mother's Son (02:34)
09. Memory (00:46)
10. Shades Of Green (03:46)
11. Hungarian Sweet (04:41)
12. In The Quiet Hours (04:33)

Phil Keaggy - Music To Paint By (1999) 4-CD Set


Electric Blue
EAC Rip | FLAC: Tracks+Cue+Log | 302 Mb | MP3 CBR 320 kbps | 121 Mb | Scans | 42 Mb | 47:58
Unison Music | V82622


01. The Night Cafe (04:09)
02. A Promise Kept (04:43)
03. Paintin' The Town (06:20)
04. East Meets West (05:01)
05. Vermillion Strands (04:20)
06. Acadania (04:25)
07. The Tigris (04:45)
08. Big Ben On The Nile (04:43)
09. Blue Room (04:51)
10. The Dawn Is Near (04:39)

Phil Keaggy - Music To Paint By (1999) 4-CD Set


Still Life
EAC Rip | FLAC: Tracks+Cue+Log | 278 Mb | MP3 CBR 320 kbps | 136 Mb | Scans | 83 Mb | 53:37
Unison Music | V82642


01. Recollections (00:34)
02. Alegria (03:36)
03. Old Friends (03:41)
04. Anniversary Waltz (03:13)
05. Waterfall (03:03)
06. Growing Grass (00:56)
07. Way Of A Painter A (03:20)
08. Way Of A Painter B (03:57)
09. Way Of A Painter C (06:47)
10. Inspiration (05:02)
11. Sunflowers (04:01)
12. Markings (01:38)
13. Alegria Reprise (04:15)
14. The Blue Planet (09:35)

Produced by Phil Keaggy and Judith Volz

Exact Audio Copy V1.0 beta 2 from 29. April 2011

EAC extraction logfile from 6. July 2011, 11:52

Phil Keaggy / Music To Paint By - Brushstrokes (US Unison V82652)

Used drive : ATAPI DVD D DH16D2S Adapter: 3 ID: 0

Read mode : Secure
Utilize accurate stream : Yes
Defeat audio cache : Yes
Make use of C2 pointers : No

Read offset correction : 6
Overread into Lead-In and Lead-Out : No
Fill up missing offset samples with silence : Yes
Delete leading and trailing silent blocks : No
Null samples used in CRC calculations : Yes
Used interface : Native Win32 interface for Win NT & 2000
Gap handling : Appended to previous track

Used output format : User Defined Encoder
Selected bitrate : 768 kBit/s
Quality : High
Add ID3 tag : No
Command line compressor : C:\Program Files\Exact Audio Copy\FLAC\FLAC.EXE
Additional command line options : -8 -V -T "ARTIST=%artist%" -T "TITLE=%title%" -T "ALBUM=%albumtitle%" -T "DATE=%year%" -T "TRACKNUMBER=%tracknr%" -T "GENRE=%genre%" -T "COMMENT=%comment%" -T "BAND=%albuminterpret%" -T "COMPOSER=%composer%" %haslyrics%–ta


TOC of the extracted CD

Track | Start | Length | Start sector | End sector
––––––––––––––––––––––––––––-
1 | 0:00.00 | 3:27.12 | 0 | 15536
2 | 3:27.12 | 2:40.30 | 15537 | 27566
3 | 6:07.42 | 3:26.30 | 27567 | 43046
4 | 9:33.72 | 0:40.40 | 43047 | 46086
5 | 10:14.37 | 7:40.33 | 46087 | 80619
6 | 17:54.70 | 1:24.60 | 80620 | 86979
7 | 19:19.55 | 2:42.27 | 86980 | 99156
8 | 22:02.07 | 1:02.05 | 99157 | 103811
9 | 23:04.12 | 1:12.18 | 103812 | 109229
10 | 24:16.30 | 0:21.02 | 109230 | 110806
11 | 24:37.32 | 4:43.48 | 110807 | 132079
12 | 29:21.05 | 8:06.17 | 132080 | 168546
13 | 37:27.22 | 4:32.40 | 168547 | 188986


Track 1

Filename C:\mp3\01 A Painter's Dream.wav

Pre-gap length 0:00:02.00

Peak level 80.6 %
Extraction speed 4.1 X
Track quality 99.9 %
Test CRC 7E0E180E
Copy CRC 7E0E180E
Copy OK

Track 2

Filename C:\mp3\02 The Muse.wav

Peak level 55.7 %
Extraction speed 5.0 X
Track quality 100.0 %
Test CRC A813E253
Copy CRC A813E253
Copy OK

Track 3

Filename C:\mp3\03 Arioso.wav

Peak level 34.7 %
Extraction speed 5.7 X
Track quality 100.0 %
Test CRC D99AF520
Copy CRC D99AF520
Copy OK

Track 4

Filename C:\mp3\04 Finger Painting.wav

Pre-gap length 0:00:01.07

Peak level 34.3 %
Extraction speed 3.5 X
Track quality 100.0 %
Test CRC 3D570E76
Copy CRC 3D570E76
Copy OK

Track 5

Filename C:\mp3\05 Southern Landscape.wav

Pre-gap length 0:00:01.57

Peak level 94.4 %
Extraction speed 6.3 X
Track quality 99.9 %
Test CRC A365FDE8
Copy CRC A365FDE8
Copy OK

Track 6

Filename C:\mp3\06 The Baltic.wav

Peak level 80.5 %
Extraction speed 5.6 X
Track quality 100.0 %
Test CRC C8D99DFA
Copy CRC C8D99DFA
Copy OK

Track 7

Filename C:\mp3\07 The Black Forest.wav

Pre-gap length 0:00:02.10

Peak level 55.4 %
Extraction speed 5.4 X
Track quality 99.9 %
Test CRC EE917D46
Copy CRC EE917D46
Copy OK

Track 8

Filename C:\mp3\08 Small Village.wav

Peak level 50.0 %
Extraction speed 3.4 X
Track quality 99.8 %
Test CRC 5B5B86CC
Copy CRC 5B5B86CC
Copy OK

Track 9

Filename C:\mp3\09 Little Big Mountain.wav

Peak level 63.9 %
Extraction speed 5.7 X
Track quality 100.0 %
Test CRC 61C45328
Copy CRC 61C45328
Copy OK

Track 10

Filename C:\mp3\10 Sketchings.wav

Peak level 16.8 %
Extraction speed 3.0 X
Track quality 100.0 %
Test CRC 1E0F5C22
Copy CRC 1E0F5C22
Copy OK

Track 11

Filename C:\mp3\11 Watercolours.wav

Peak level 77.9 %
Extraction speed 8.0 X
Track quality 100.0 %
Test CRC D32B29BA
Copy CRC D32B29BA
Copy OK

Track 12

Filename C:\mp3\12 Orange Yellow And Red.wav

Peak level 89.2 %
Extraction speed 9.0 X
Track quality 100.0 %
Test CRC FB17F3CF
Copy CRC FB17F3CF
Copy OK

Track 13

Filename C:\mp3\13 Kobenhaven.wav

Peak level 82.4 %
Extraction speed 9.0 X
Track quality 100.0 %
Test CRC 46A18385
Copy CRC 46A18385
Copy OK

No errors occurred

End of status report

==== Log checksum 1BB212FE172BCBF4F3A89D0CCFD30B82A232834F469C0A5B905F7A7858A625B9 ====

Exact Audio Copy V0.99 prebeta 5 from 4. May 2009

EAC extraction logfile from 1. March 2011, 11:27

Phil Keaggy / Music To Paint By - Splash (US Unison VB2632)

Used drive : ATAPI DVD D DH16D2S Adapter: 3 ID: 0

Read mode : Secure
Utilize accurate stream : Yes
Defeat audio cache : Yes
Make use of C2 pointers : No

Read offset correction : 6
Overread into Lead-In and Lead-Out : No
Fill up missing offset samples with silence : Yes
Delete leading and trailing silent blocks : No
Null samples used in CRC calculations : Yes
Used interface : Native Win32 interface for Win NT & 2000
Gap handling : Appended to previous track

Used output format : User Defined Encoder
Selected bitrate : 1024 kBit/s
Quality : High
Add ID3 tag : No
Command line compressor : C:\Program Files\Exact Audio Copy\FLAC\FLAC.EXE
Additional command line options : -8 -V -T "ARTIST=%a" -T "TITLE=%t" -T "ALBUM=%g" -T "DATE=%y" -T "TRACKNUMBER=%n" -T "GENRE=%m" -T "COMMENT=%e" %s -o %d


TOC of the extracted CD

Track | Start | Length | Start sector | End sector
––––––––––––––––––––––––––––-
1 | 0:00.00 | 1:02.05 | 0 | 4654
2 | 1:02.05 | 4:41.37 | 4655 | 25766
3 | 5:43.42 | 3:04.08 | 25767 | 39574
4 | 8:47.50 | 6:31.40 | 39575 | 68939
5 | 15:19.15 | 3:54.12 | 68940 | 86501
6 | 19:13.27 | 4:41.25 | 86502 | 107601
7 | 23:54.52 | 7:07.45 | 107602 | 139671
8 | 31:02.22 | 2:34.25 | 139672 | 151246
9 | 33:36.47 | 0:45.33 | 151247 | 154654
10 | 34:22.05 | 3:46.20 | 154655 | 171624
11 | 38:08.25 | 4:41.00 | 171625 | 192699
12 | 42:49.25 | 4:33.17 | 192700 | 213191


Track 1

Filename D:\Y\y\01 Foreshadow.wav

Pre-gap length 0:00:02.00

Peak level 89.1 %
Track quality 100.0 %
Test CRC 1E71A8AF
Copy CRC 1E71A8AF
Copy OK

Track 2

Filename D:\Y\y\02 Phantasy.wav

Peak level 99.0 %
Track quality 100.0 %
Test CRC CFAFA9E0
Copy CRC CFAFA9E0
Copy OK

Track 3

Filename D:\Y\y\03 Grand Old Man.wav

Peak level 98.9 %
Track quality 100.0 %
Test CRC E685115B
Copy CRC E685115B
Copy OK

Track 4

Filename D:\Y\y\04 The Apprentice.wav

Pre-gap length 0:00:01.33

Peak level 79.4 %
Track quality 100.0 %
Test CRC E9BD7ACD
Copy CRC E9BD7ACD
Copy OK

Track 5

Filename D:\Y\y\05 Abstract.wav

Pre-gap length 0:00:02.00

Peak level 100.0 %
Track quality 100.0 %
Test CRC 2B63EAEE
Copy CRC 2B63EAEE
Copy OK

Track 6

Filename D:\Y\y\06 Floating On Ice.wav

Peak level 89.1 %
Track quality 100.0 %
Test CRC 6F920C07
Copy CRC 6F920C07
Copy OK

Track 7

Filename D:\Y\y\07 Miles Away.wav

Pre-gap length 0:00:04.20

Peak level 95.3 %
Track quality 100.0 %
Test CRC 0EBEC04B
Copy CRC 0EBEC04B
Copy OK

Track 8

Filename D:\Y\y\08 A Mother's Son.wav

Peak level 98.9 %
Track quality 100.0 %
Test CRC 934AC9D9
Copy CRC 934AC9D9
Copy OK

Track 9

Filename D:\Y\y\09 Memory.wav

Peak level 72.9 %
Track quality 100.0 %
Test CRC 50804C7C
Copy CRC 50804C7C
Copy OK

Track 10

Filename D:\Y\y\10 Shades Of Green.wav

Peak level 100.0 %
Track quality 100.0 %
Test CRC FF36DCF6
Copy CRC FF36DCF6
Copy OK

Track 11

Filename D:\Y\y\11 Hungarian Sweet.wav

Pre-gap length 0:00:02.08

Peak level 89.7 %
Track quality 100.0 %
Test CRC 74221A3A
Copy CRC 74221A3A
Copy OK

Track 12

Filename D:\Y\y\12 In The Quiet Hours.wav

Pre-gap length 0:00:01.35

Peak level 99.9 %
Track quality 100.0 %
Test CRC 748927AF
Copy CRC 748927AF
Copy OK

No errors occurred

End of status report

Exact Audio Copy V0.99 prebeta 5 from 4. May 2009

EAC extraction logfile from 22. February 2011, 13:30

Phil Keaggy / Music To Paint By - Electric Blue (US Unison VB2622)

Used drive : ATAPI DVD D DH16D2S Adapter: 3 ID: 0

Read mode : Secure
Utilize accurate stream : Yes
Defeat audio cache : Yes
Make use of C2 pointers : No

Read offset correction : 6
Overread into Lead-In and Lead-Out : No
Fill up missing offset samples with silence : Yes
Delete leading and trailing silent blocks : No
Null samples used in CRC calculations : Yes
Used interface : Native Win32 interface for Win NT & 2000
Gap handling : Appended to previous track

Used output format : User Defined Encoder
Selected bitrate : 1024 kBit/s
Quality : High
Add ID3 tag : No
Command line compressor : C:\Program Files\Exact Audio Copy\FLAC\FLAC.EXE
Additional command line options : -8 -V -T "ARTIST=%a" -T "TITLE=%t" -T "ALBUM=%g" -T "DATE=%y" -T "TRACKNUMBER=%n" -T "GENRE=%m" -T "COMMENT=%e" %s -o %d


TOC of the extracted CD

Track | Start | Length | Start sector | End sector
––––––––––––––––––––––––––––-
1 | 0:00.00 | 4:09.00 | 0 | 18674
2 | 4:09.00 | 4:43.25 | 18675 | 39924
3 | 8:52.25 | 6:20.05 | 39925 | 68429
4 | 15:12.30 | 5:01.02 | 68430 | 91006
5 | 20:13.32 | 4:19.73 | 91007 | 110504
6 | 24:33.30 | 4:24.60 | 110505 | 130364
7 | 28:58.15 | 4:45.30 | 130365 | 151769
8 | 33:43.45 | 4:42.70 | 151770 | 172989
9 | 38:26.40 | 4:51.25 | 172990 | 194839
10 | 43:17.65 | 4:39.27 | 194840 | 215791


Track 1

Filename D:\Y\y\01 The Night Cafe.wav

Pre-gap length 0:00:02.00

Peak level 99.9 %
Track quality 100.0 %
Test CRC 4CE9083D
Copy CRC 4CE9083D
Copy OK

Track 2

Filename D:\Y\y\02 A Promise Kept.wav

Peak level 99.1 %
Track quality 100.0 %
Test CRC 0661CB48
Copy CRC 0661CB48
Copy OK

Track 3

Filename D:\Y\y\03 Paintin' The Town.wav

Peak level 100.0 %
Track quality 100.0 %
Test CRC A0BED44F
Copy CRC A0BED44F
Copy OK

Track 4

Filename D:\Y\y\04 East Meets West.wav

Pre-gap length 0:00:02.10

Peak level 100.0 %
Track quality 100.0 %
Test CRC EAB594C8
Copy CRC EAB594C8
Copy OK

Track 5

Filename D:\Y\y\05 Vermillion Strands.wav

Pre-gap length 0:00:01.50

Peak level 100.0 %
Track quality 99.9 %
Test CRC 942EA2C0
Copy CRC 942EA2C0
Copy OK

Track 6

Filename D:\Y\y\06 Acadania.wav

Peak level 100.0 %
Track quality 100.0 %
Test CRC 73FCC4DE
Copy CRC 73FCC4DE
Copy OK

Track 7

Filename D:\Y\y\07 The Tigris.wav

Peak level 99.9 %
Track quality 100.0 %
Test CRC FB3A477D
Copy CRC FB3A477D
Copy OK

Track 8

Filename D:\Y\y\08 Big Ben On The Nile.wav

Peak level 100.0 %
Track quality 99.9 %
Test CRC DF66A16D
Copy CRC DF66A16D
Copy OK

Track 9

Filename D:\Y\y\09 Blue Room.wav

Peak level 99.9 %
Track quality 100.0 %
Test CRC B2E3ADE1
Copy CRC B2E3ADE1
Copy OK

Track 10

Filename D:\Y\y\10 The Dawn Is Near.wav

Peak level 99.9 %
Track quality 100.0 %
Test CRC C230850F
Copy CRC C230850F
Copy OK

No errors occurred

End of status report

Exact Audio Copy V0.99 prebeta 5 from 4. May 2009

EAC extraction logfile from 1. March 2011, 12:25

Phil Keaggy / Music To Paint By - Still Life (US Unison VB2642)

Used drive : ATAPI DVD D DH16D2S Adapter: 3 ID: 0

Read mode : Secure
Utilize accurate stream : Yes
Defeat audio cache : Yes
Make use of C2 pointers : No

Read offset correction : 6
Overread into Lead-In and Lead-Out : No
Fill up missing offset samples with silence : Yes
Delete leading and trailing silent blocks : No
Null samples used in CRC calculations : Yes
Used interface : Native Win32 interface for Win NT & 2000
Gap handling : Appended to previous track

Used output format : User Defined Encoder
Selected bitrate : 1024 kBit/s
Quality : High
Add ID3 tag : No
Command line compressor : C:\Program Files\Exact Audio Copy\FLAC\FLAC.EXE
Additional command line options : -8 -V -T "ARTIST=%a" -T "TITLE=%t" -T "ALBUM=%g" -T "DATE=%y" -T "TRACKNUMBER=%n" -T "GENRE=%m" -T "COMMENT=%e" %s -o %d


TOC of the extracted CD

Track | Start | Length | Start sector | End sector
––––––––––––––––––––––––––––-
1 | 0:00.00 | 0:33.45 | 0 | 2519
2 | 0:33.45 | 3:35.55 | 2520 | 18699
3 | 4:09.25 | 3:41.12 | 18700 | 35286
4 | 7:50.37 | 3:13.08 | 35287 | 49769
5 | 11:03.45 | 3:02.55 | 49770 | 63474
6 | 14:06.25 | 0:55.45 | 63475 | 67644
7 | 15:01.70 | 3:19.67 | 67645 | 82636
8 | 18:21.62 | 3:56.73 | 82637 | 100409
9 | 22:18.60 | 6:47.00 | 100410 | 130934
10 | 29:05.60 | 5:01.60 | 130935 | 153569
11 | 34:07.45 | 4:00.65 | 153570 | 171634
12 | 38:08.35 | 1:37.47 | 171635 | 178956
13 | 39:46.07 | 4:14.68 | 178957 | 198074
14 | 44:01.00 | 9:34.40 | 198075 | 241164


Track 1

Filename D:\Y\y\01 Recollections.wav

Pre-gap length 0:00:02.00

Peak level 35.8 %
Track quality 100.0 %
Test CRC 289803CB
Copy CRC 289803CB
Copy OK

Track 2

Filename D:\Y\y\02 Alegria.wav

Peak level 98.9 %
Track quality 100.0 %
Test CRC 916914A8
Copy CRC 916914A8
Copy OK

Track 3

Filename D:\Y\y\03 Old Friends.wav

Pre-gap length 0:00:01.15

Peak level 100.0 %
Track quality 99.9 %
Test CRC 7E7A287E
Copy CRC 7E7A287E
Copy OK

Track 4

Filename D:\Y\y\04 Anniversary Waltz.wav

Pre-gap length 0:00:01.00

Peak level 81.8 %
Track quality 100.0 %
Test CRC 6FC3CC9F
Copy CRC 6FC3CC9F
Copy OK

Track 5

Filename D:\Y\y\05 Waterfall.wav

Peak level 92.3 %
Track quality 100.0 %
Test CRC 514DFE92
Copy CRC 514DFE92
Copy OK

Track 6

Filename D:\Y\y\06 Growing Grass.wav

Pre-gap length 0:00:01.03

Peak level 86.3 %
Track quality 100.0 %
Test CRC 7D63CB5C
Copy CRC 7D63CB5C
Copy OK

Track 7

Filename D:\Y\y\07 Way Of A Painter A.wav

Pre-gap length 0:00:02.73

Peak level 99.9 %
Track quality 99.9 %
Test CRC 78A1E69C
Copy CRC 78A1E69C
Copy OK

Track 8

Filename D:\Y\y\08 Way Of A Painter B.wav

Peak level 95.5 %
Track quality 100.0 %
Test CRC 10586DA3
Copy CRC 10586DA3
Copy OK

Track 9

Filename D:\Y\y\09 Way Of A Painter C.wav

Peak level 99.9 %
Track quality 100.0 %
Test CRC 6F9973E4
Copy CRC 6F9973E4
Copy OK

Track 10

Filename D:\Y\y\10 Inspiration.wav

Peak level 81.0 %
Track quality 100.0 %
Test CRC 2E767737
Copy CRC 2E767737
Copy OK

Track 11

Filename D:\Y\y\11 Sunflowers.wav

Peak level 98.9 %
Track quality 100.0 %
Test CRC 4E18B1BD
Copy CRC 4E18B1BD
Copy OK

Track 12

Filename D:\Y\y\12 Markings.wav

Peak level 72.7 %
Track quality 99.8 %
Test CRC 8C5D4ECE
Copy CRC 8C5D4ECE
Copy OK

Track 13

Filename D:\Y\y\13 Alegria Reprise.wav

Peak level 100.0 %
Track quality 100.0 %
Test CRC B41C2816
Copy CRC B41C2816
Copy OK

Track 14

Filename D:\Y\y\14 The Blue Planet.wav

Pre-gap length 0:00:29.33

Peak level 99.9 %
Track quality 100.0 %
Test CRC 709B2C71
Copy CRC 709B2C71
Copy OK

No errors occurred

End of status report


Many thanks to the original uploader: neytiri_navi



Glass Harp 1970 Glass Harp [Remastered, 2005]
Glass Harp 1971 Synergy [Remastered, 2005]
Glass Harp 1972 It Makes Me Glad [Remastered, 2005]
Glass Harp 1997 Live! At Carnegie Hall
Glass Harp 2001 Strings Attached [Live] 2CD
Glass Harp 2003 Hourglass
Glass Harp 2004 Stark Raving Jams [Live] 3CD
Glass Harp 2010 Live At The Beachland Ballroom 11.01.08

Greg X. Volz 1986 The River Is Rising
Greg X. Volz 1988 Come Out Fighting
Greg X. Volz 1989 No Room In The Middle
Greg X. Volz 1991 The Exodus

Halo 1990 Halo / 1991 Heaven Calling

John Elefante - Discography (1995-2013)

John Schlitt 1995 Shake
John Schlitt 2012 The Greater Cause

Mastedon - Discography (1989-2009)

Petra 1974 Petra [Reissue 1992]
Petra 1977 Come And Join Us [Reissue 1995]
Petra 1979 Washes Whiter Than / 1981 Never Say Die [Reissue 1988]
Petra 1982 More Power To Ya
Petra 1983 Not Of This World
Petra 1984 Beat The System
Petra 1986 Captured In Time And Space (Live)
Petra 1986 Captured In Time And Space (Live) [DVD]
Petra 1986 Back To The Street
Petra 1987 This Means War!
Petra 1988 On Fire!
Petra 1989 Petra Means Rock [Compilation]
Petra 1989 Petra Praise… The Rock Cries Out
Petra 1990 Beyond Belief
Petra 1990 Beyond Belief [DVD]
Petra 1991 Unseen Power
Petra 1993 Wake-Up Call
Petra 1995 No Doubt
Petra 1997 Petra Praise 2: We Need Jesus
Petra 1998 God Fixation
Petra 2000 Double Take
Petra 2001 Revival
Petra 2003 Jekyll & Hyde
Petra 2003 The Power Of Praise [Compilation]
Petra 2006 Farewell [DVD]
II Guys From Petra 2007 Vertical Expressions
Classic Petra 2010 Back To The Rock

V.A. 1996 Never Say Dinosaur - Tribute To Petra




Password: pass