Subcategories

Pholhas - Hojas (1975) [Reissue 2000]

Posted By: gribovar
Pholhas - Hojas (1975) [Reissue 2000]

Pholhas - Hojas (1975) [Reissue 2000]
EAC Rip | FLAC (image+.cue+log) - 268 MB | MP3 CBR 320 kbps (LAME 3.93) - 96 MB | Covers (4 MB) included
Genre: Psychedelic Rock, Classic Rock | RAR 3% Rec. | Label: BMG Music Spain (74321779612)

Formed in 1969 in São Paulo, SP, Brazil, the Pholhas was named as a suggestion from a friend of the members Paulo Fernandes, Oswaldo Malagutti, Helio Santisteban and Wagner Benatti during their first rehearsal. The band used to play at dancing clubs in the city in order to achieve popularity. And it happened quickly. The first album was recorded in 1972 by RCA Records, all sung in English in a time when this was not common in Brazil, where the language spoken is Portuguese. The album Dead Faces reached the # 1 position on the charts just 3 months after its launching, with 450,000 copies sold. This album won Pholhas' first gold album. Then, the singles "She Made Me Cry", "I Never Did Before" and "Forever" sold over 300,000 copies and consecrated the band as a phenomenon on the national scene. Due to all this impact, RCA decided to release Dead Faces also in Spain and South America in 1975, with the title Hojas. It was the second gold album of the band.
Tracklist:
01. The Other One
02. She Made Me Cry
03. The World's Truth
04. The Beauty of Your Soul
05. My Mistake
06. Dead Faces
07. In My Way
08. I Never Did Before
09. It's Gonna Be Hard
10. Your Mother Doesn't Really Appreciate our Friendship but I Don't Mind
11. Angel's Spring
12. The King's Walk

Total time: 39:11

Exact Audio Copy V0.99 prebeta 4 from 23. January 2008

Отчёт EAC об извлечении, выполненном 16. июля 2010, 17:52

PHOLHAS / Hojas

Дисковод: ASUS DRW-24B1ST Adapter: 3 ID: 0

Режим чтения : Достоверность
Использование точного потока : Да
Отключение кэша аудио : Да
Использование указателей C2 : Нет

Коррекция смещения при чтении : 6
Способность читать области Lead-in и Lead-out : Нет
Заполнение пропущенных сэмплов тишиной : Да
Удаление блоков с тишиной в начале и конце : Нет
При вычислениях CRC использовались нулевые сэмплы : Да
Интерфейс : Установленный внешний ASPI-интерфейс

Выходной формат : Пользовательский кодировщик
Выбранный битрейт : 768 kBit/s
Качество : Высокий
Добавление ID3-тэга : Нет
Утилита сжатия : C:\Program Files\Exact Audio Copy\FLAC\FLAC.EXE
Дополнительные параметры : -6 -V -T "ARTIST=%a" -T "TITLE=%t" -T "ALBUM=%g" -T "DATE=%y" -T "TRACKNUMBER=%n" -T "GENRE=%m" -T "COMMENT=%e" %s -o %d


TOC извлечённого CD

Трек | Старт | Длительность | Начальный сектор | Конечный сектор
––––––––––––––––––––––––––––––––––-
1 | 0:00.00 | 3:15.32 | 0 | 14656
2 | 3:15.32 | 3:21.60 | 14657 | 29791
3 | 6:37.17 | 3:08.15 | 29792 | 43906
4 | 9:45.32 | 4:08.32 | 43907 | 62538
5 | 13:53.64 | 3:12.28 | 62539 | 76966
6 | 17:06.17 | 2:05.53 | 76967 | 86394
7 | 19:11.70 | 3:31.12 | 86395 | 102231
8 | 22:43.07 | 2:56.63 | 102232 | 115494
9 | 25:39.70 | 2:58.37 | 115495 | 128881
10 | 28:38.32 | 2:46.70 | 128882 | 141401
11 | 31:25.27 | 3:00.40 | 141402 | 154941
12 | 34:25.67 | 4:45.28 | 154942 | 176344


Характеристики диапазона извлечения и сообщения об ошибках

Выбранный диапазон

Имя файла C:\Torrent\purple\PHOLHAS - Hojas.wav

Пиковый уровень 99.9 %
Качество диапазона 100.0 %
CRC копии 40A09938
Копирование… OK

Ошибок не произошло


AccurateRip: сводка

Трек 1 нет в базе данных
Трек 2 нет в базе данных
Трек 3 нет в базе данных
Трек 4 нет в базе данных
Трек 5 нет в базе данных
Трек 6 нет в базе данных
Трек 7 нет в базе данных
Трек 8 нет в базе данных
Трек 9 нет в базе данных
Трек 10 нет в базе данных
Трек 11 нет в базе данных
Трек 12 нет в базе данных

Ни одного трека нет в базе AccurateRip

Конец отчёта

[CUETools log; Date: 14.06.2018 13:13:23; Version: 2.1.4]
[CTDB TOCID: qklp_tPA_bi9ynmtJQKJyjBKDuM-] disk not present in database.
[AccurateRip ID: 00114bf3-00a0a0cb-ac092f0c] disk not present in database.

Track Peak [ CRC32 ] [W/O NULL] [ LOG ]
– 99,9 [40A09938] [20D89608] CRC32
01 99,9 [A047755B] [6B0D5706]
02 99,9 [7957DEFF] [2AD27D71]
03 99,9 [2AAB995C] [284F7580]
04 99,9 [1EBCC957] [F24C1D71]
05 99,9 [B52650CC] [A7FD324C]
06 99,9 [BAF8455B] [47EAAF40]
07 99,9 [D65039E1] [D58DF0AF]
08 99,9 [3D1158A1] [0E04B659]
09 99,9 [1EB2A025] [8F865287]
10 99,9 [FEE37337] [42AC1541]
11 95,5 [5BEB5254] [10A44F81]
12 99,9 [FC69AFB1] [366369A2]

Thanks to pppurple