VA - Physical Graffiti Redrawn (2015)

Posted By: v3122
VA - Physical Graffiti Redrawn (2015)

VA - Physical Graffiti Redrawn (2015)
EAC | Flac(Image) + Cue + Log & MP3 CBR 320Kbps
Mojo | ~ 445 or 177 Mb | Scans Included
Classic Rock / Hard Rock

The latest free CD from the April 2015 issue of MOJO Magazine is a reboot of Led Zeppelin’s Physical Graffiti, featuring a slew of lesser known artists tackling the 1975 2LP behemoth. Almost all the interpretations are somewhat faithful to Zep’s arrangements, but some personality does manage to float to the surface. Son Little’s “Trampled Underfoot” is pretty good, sounding more ‘natural’ than the original, while Max Jury’s pleasing reading of “Down By The Seaside” is a winner, too. Sun Kil Moon is always worth your time, but “Kashmir,” despite its conceptual ingenuity, falls flat.

~ willardswormholes
VA - Physical Graffiti Redrawn (2015):

VA - Physical Graffiti Redrawn (2015)

Tracklist:

01. Custard Pie (White Denim) 04:08
02. The Rover (Blackberry Smoke) 06:14
03. In My Time Of Dying (Miraculousmule) 04:24
04. Houses Of The Holy (The Temperance Movement) 03:49
05. Trampled Under Foot (Son Little) 03:53
06. Kashmir (Songhoy Blues) 05:06
07. In The Light (Syd Arthur) 08:26
08. Bron-Yr-Aur (Laura Marling) 01:25
09. Down By The Seaside (Max Jury) 04:38
10. Ten Years Gone (Michael Kiwanuka) 04:44
11. Night Flight (Duke Garwood) 04:41
12. The Wanton Song (Rose Windows) 05:08
13. Boogie With Stu (Kitty, Daisy & Lewis) 02:57
14. Black Country Woman (Hiss Golden Messenger) 03:31
15. Sick Again (Sun Kil Moon) 05:22

Exact Audio Copy V0.99 prebeta 5 from 4. May 2009

EAC extraction logfile from 25. February 2015, 20:03

Various / Physical Graffiti Redrawn

Used drive : hp CDDVDW SH-216BB Adapter: 0 ID: 0

Read mode : Secure
Utilize accurate stream : Yes
Defeat audio cache : Yes
Make use of C2 pointers : No

Read offset correction : 6
Overread into Lead-In and Lead-Out : No
Fill up missing offset samples with silence : Yes
Delete leading and trailing silent blocks : No
Null samples used in CRC calculations : Yes
Used interface : Native Win32 interface for Win NT & 2000

Used output format : Monkey's Audio Lossless Encoder
Selected bitrate : High Lossless Compression
Quality : High
Add ID3 tag : No
Command line compressor : C:\Program Files (x86)\Monkey's Audio\MAC.exe
Additional command line options : -v


TOC of the extracted CD

Track | Start | Length | Start sector | End sector
––––––––––––––––––––––––––––-
1 | 0:00.00 | 4:08.29 | 0 | 18628
2 | 4:08.29 | 6:14.63 | 18629 | 46741
3 | 10:23.17 | 4:24.65 | 46742 | 66606
4 | 14:48.07 | 3:49.05 | 66607 | 83786
5 | 18:37.12 | 3:53.12 | 83787 | 101273
6 | 22:30.24 | 5:06.07 | 101274 | 124230
7 | 27:36.31 | 8:26.00 | 124231 | 162180
8 | 36:02.31 | 1:25.31 | 162181 | 168586
9 | 37:27.62 | 4:38.42 | 168587 | 189478
10 | 42:06.29 | 4:44.05 | 189479 | 210783
11 | 46:50.34 | 4:41.21 | 210784 | 231879
12 | 51:31.55 | 5:08.61 | 231880 | 255040
13 | 56:40.41 | 2:57.08 | 255041 | 268323
14 | 59:37.49 | 3:31.05 | 268324 | 284153
15 | 63:08.54 | 5:22.29 | 284154 | 308332


Range status and errors

Selected range

Filename C:\Users\Arthur\Desktop\Various - Physical Graffiti Redrawn.wav

Peak level 99.0 %
Range quality 100.0 %
Test CRC A168C715
Copy CRC A168C715
Copy OK

No errors occurred


AccurateRip summary

Track 1 not present in database
Track 2 not present in database
Track 3 not present in database
Track 4 not present in database
Track 5 not present in database
Track 6 not present in database
Track 7 not present in database
Track 8 not present in database
Track 9 not present in database
Track 10 not present in database
Track 11 not present in database
Track 12 not present in database
Track 13 not present in database
Track 14 not present in database
Track 15 not present in database

None of the tracks are present in the AccurateRip database

End of status report

foobar2000 1.2.9 / Dynamic Range Meter 1.1.1
log date: 2015-03-04 07:08:00

––––––––––––––––––––––––––––––––––––––––
Analyzed: BLACKBERRY SMOKE / Physical Graffiti Redrawn (1)
DUKE GARWOOD / Physical Graffiti Redrawn (2)
HISS GOLDEN MESSENGER / Physical Graffiti Redrawn (3)
––––––––––––––––––––––––––––––––––––––––

DR Peak RMS Duration Track
––––––––––––––––––––––––––––––––––––––––
DR8 -0.15 dB -9.17 dB 6:15 02-The Rover
DR9 -0.15 dB -10.85 dB 4:41 11-Night Flight
DR10 -0.14 dB -12.97 dB 3:31 14-Black Country Woman
––––––––––––––––––––––––––––––––––––––––

Number of tracks: 3
Official DR value: DR9

Samplerate: 44100 Hz
Channels: 2
Bits per sample: 16
Bitrate: 850 kbps
Codec: FLAC
================================================================================

––––––––––––––––––––––––––––––––––––––––
Statistics for: 13-Boogie With Stu
Number of samples: 7810404
Duration: 2:57
––––––––––––––––––––––––––––––––––––––––

Left Right

Peak Value: -0.13 dB –- -0.14 dB
Avg RMS: -8.24 dB –- -9.50 dB
DR channel: 6.57 dB –- 7.57 dB
––––––––––––––––––––––––––––––––––––––––

Official DR Value: DR7

Samplerate: 44100 Hz
Channels: 2
Bits per sample: 16
Bitrate: 850 kbps
Codec: FLAC
================================================================================
––––––––––––––––––––––––––––––––––––––––
Analyzed: LAURA MARLING / Physical Graffiti Redrawn (1)
MAX JURY / Physical Graffiti Redrawn (2)
MICHAEL KIWANUKA / Physical Graffiti Redrawn (3)
––––––––––––––––––––––––––––––––––––––––

DR Peak RMS Duration Track
––––––––––––––––––––––––––––––––––––––––
DR7 -0.15 dB -8.64 dB 1:25 08-Bron-Yr-Aur
DR7 -0.08 dB -9.09 dB 4:39 09-Down By The Seaside
DR6 -0.14 dB -8.99 dB 4:44 10-Ten Years Gone
––––––––––––––––––––––––––––––––––––––––

Number of tracks: 3
Official DR value: DR7

Samplerate: 44100 Hz
Channels: 2
Bits per sample: 16
Bitrate: 850 kbps
Codec: FLAC
================================================================================

––––––––––––––––––––––––––––––––––––––––
Analyzed: MIRACULOUSMULE / Physical Graffiti Redrawn (1)
ROSE WINDOWS / Physical Graffiti Redrawn (2)
––––––––––––––––––––––––––––––––––––––––

DR Peak RMS Duration Track
––––––––––––––––––––––––––––––––––––––––
DR7 -0.13 dB -10.25 dB 4:25 03-In My Time Of Dying
DR7 -0.14 dB -8.70 dB 5:09 12-The Wanton Song
––––––––––––––––––––––––––––––––––––––––

Number of tracks: 2
Official DR value: DR7

Samplerate: 44100 Hz
Channels: 2
Bits per sample: 16
Bitrate: 850 kbps
Codec: FLAC
================================================================================

––––––––––––––––––––––––––––––––––––––––
Analyzed: SON LITTLE / Physical Graffiti Redrawn (1)
SONGHOY BLUES / Physical Graffiti Redrawn (2)
SUN KIL MOON / Physical Graffiti Redrawn (3)
––––––––––––––––––––––––––––––––––––––––

DR Peak RMS Duration Track
––––––––––––––––––––––––––––––––––––––––
DR8 -0.14 dB -9.77 dB 3:53 05-Trampled Under Foot
DR8 -0.15 dB -9.21 dB 5:06 06-Kashmir
DR8 -0.14 dB -11.52 dB 5:22 15-Sick Again
––––––––––––––––––––––––––––––––––––––––

Number of tracks: 3
Official DR value: DR8

Samplerate: 44100 Hz
Channels: 2
Bits per sample: 16
Bitrate: 850 kbps
Codec: FLAC
================================================================================

––––––––––––––––––––––––––––––––––––––––
Statistics for: 07-In The Light
Number of samples: 22314600
Duration: 8:26
––––––––––––––––––––––––––––––––––––––––

Left Right

Peak Value: -0.14 dB –- -0.14 dB
Avg RMS: -11.56 dB –- -11.71 dB
DR channel: 8.45 dB –- 8.33 dB
––––––––––––––––––––––––––––––––––––––––

Official DR Value: DR8

Samplerate: 44100 Hz
Channels: 2
Bits per sample: 16
Bitrate: 850 kbps
Codec: FLAC
================================================================================
––––––––––––––––––––––––––––––––––––––––
Statistics for: 04-Houses Of The Holy
Number of samples: 10101840
Duration: 3:49
––––––––––––––––––––––––––––––––––––––––

Left Right

Peak Value: -0.14 dB –- -0.13 dB
Avg RMS: -8.63 dB –- -8.06 dB
DR channel: 7.41 dB –- 6.74 dB
––––––––––––––––––––––––––––––––––––––––

Official DR Value: DR7

Samplerate: 44100 Hz
Channels: 2
Bits per sample: 16
Bitrate: 850 kbps
Codec: FLAC
================================================================================
––––––––––––––––––––––––––––––––––––––––
Statistics for: 01-Custard Pie
Number of samples: 10953852
Duration: 4:08
––––––––––––––––––––––––––––––––––––––––

Left Right

Peak Value: -0.13 dB –- -0.14 dB
Avg RMS: -9.90 dB –- -9.31 dB
DR channel: 8.64 dB –- 8.00 dB
––––––––––––––––––––––––––––––––––––––––

Official DR Value: DR8

Samplerate: 44100 Hz
Channels: 2
Bits per sample: 16
Bitrate: 850 kbps
Codec: FLAC

[CUETools log; Date: 03.03.2015 19:13:49; Version: 2.1.4]
[CTDB TOCID: kS1H.qOEuU_5AgJlZ2n07DqdQcY-] found.
Track | CTDB Status
1 | (3/3) Accurately ripped
2 | (3/3) Accurately ripped
3 | (3/3) Accurately ripped
4 | (3/3) Accurately ripped
5 | (3/3) Accurately ripped
6 | (3/3) Accurately ripped
7 | (3/3) Accurately ripped
8 | (3/3) Accurately ripped
9 | (3/3) Accurately ripped
10 | (3/3) Accurately ripped
11 | (3/3) Accurately ripped
12 | (3/3) Accurately ripped
13 | (3/3) Accurately ripped
14 | (3/3) Accurately ripped
15 | (3/3) Accurately ripped
[AccurateRip ID: 002673e1-01b1a1d9-d1100f0f] disk not present in database.

Track Peak [ CRC32 ] [W/O NULL] [ LOG ]
– 99,0 [A168C715] [0200EE88] CRC32
01 98,5 [7EFD8706] [B0DC1EB4]
02 98,3 [00EB6308] [D68DE8B5]
03 98,5 [155E9209] [23E0E070]
04 98,5 [9553BCBD] [5B2532CC]
05 98,4 [81A12FAC] [27B653F0]
06 98,3 [AF2C49A9] [BDF79B91]
07 98,4 [0BA13C3D] [EEF6FE94]
08 98,3 [1EF6C4EB] [11F28083]
09 99,0 [C6A696DD] [A4327B2D]
10 98,3 [8C241987] [2431F982]
11 98,3 [4CF58DAF] [01041E0D]
12 98,4 [EBA05203] [63A5C74E]
13 98,5 [2BA505DF] [03EEFB5C]
14 98,3 [6039DA63] [B5DD0BAC]
15 98,3 [0468BA17] [16BEF26A]

VA - Physical Graffiti Redrawn (2015)

All thanks go to London

Download VA - Physical Graffiti Redrawn (2015):