Pieter Wispelwey, Budapest Festival Orchestra, Iván Fischer - Dvorak: Cello Concerto, Symphonic Variations (2007)

Posted By: tirexiss
Pieter Wispelwey, Budapest Festival Orchestra, Iván Fischer - Dvorak: Cello Concerto, Symphonic Variations (2007)

Pieter Wispelwey, Budapest Festival Orchestra, Iván Fischer - Dvorak: Cello Concerto, Symphonic Variations (2007)
EAC | FLAC (image+.cue, log) | Covers Included | 63:01 | 252 MB
Genre: Classical | Label: Channel Classics | Catalog: 25807

This fine recording of Dvorák's Cello Concerto by Dutch cellist Pieter Wispelwey with Hungarian conductor Iván Fischer leading the Budapest Festival Orchestra is as generous, honest, and compelling as the music itself. Wispelwey has a rich, ringing tone that can ride over orchestral tutti fortes yet still sound fully present in intimate pianissimos. He also has an elegant technique that can accomplish anything the work asks without calling undue attention to itself. These qualities allow him to lean into the work's powerful drama and aching lyricism without dividing his attention. The commanding Fischer leads the rich-toned Budapest Festival Orchestra in an accompaniment as musically interesting and dramatically significant as the solo part. As a coupling, Fischer and the Budapest Festival Orchestra turn in a performance of Dvorák's infrequently programmed Symphonic Variations; it is as shapely as the venerable István Kertész account with the London Symphony. Recorded at a concert in Budapest's Palace of Arts in 2006, Channel Classics' super audio digital sound is extremely vivid and immediate. Though one might reasonably argue the considerable merits of the Casals/Szell or Rostropovich/Karajan recordings, for combination of performance and sound, this Wispelwey/Fischer recording could be the only one anyone would ever need.

Pieter Wispelwey, Budapest Festival Orchestra, Iván Fischer - Dvorak: Cello Concerto, Symphonic Variations (2007)

Track List:

[01]-[03] Cello Concerto in B minor, Op. 104
[04]-[32] Symphonic Variations, Op. 78

Performers:
Pieter Wispelwey (cello)
Budapest Festival Orchestra
Iván Fischer, conductor

EAC extraction logfile from 16. September 2007, 17:01 for CD
Unknown Artist / Unknown Title

Used drive : LITE-ON LTR-48246S Adapter: 2 ID: 1
Read mode : Secure with NO C2, accurate stream, disable cache
Combined read/write offset correction : 0
Overread into Lead-In and Lead-Out : No

Used output format : Internal WAV Routines
44.100 Hz; 16 Bit; Stereo

Other options :
Fill up missing offset samples with silence : Yes
Delete leading and trailing silent blocks : No
Installed external ASPI interface


Range status and errors
Selected range
Filename G:\NewRip\Dvorak-Concerto&Variations-Wispelwey,BFO,Ivan Fischer\CDImage.wav

Peak level 95.3 %
Range quality 100.0 %
CRC D8998B2F
Copy OK

No errors occured

End of status report

[CUETools log; Date: 10.11.2016 10:33:17; Version: 2.1.5]
[CTDB TOCID: 2N4oan9cNQmdSo3F6ti7TOILqE4-] found.
Track | CTDB Status
1 | (16/17) Accurately ripped
2 | (15/17) Accurately ripped
3 | (17/17) Accurately ripped
4 | (17/17) Accurately ripped
5 | (17/17) Accurately ripped
6 | (17/17) Accurately ripped
7 | (17/17) Accurately ripped
8 | (17/17) Accurately ripped
9 | (17/17) Accurately ripped
10 | (17/17) Accurately ripped
11 | (17/17) Accurately ripped
12 | (17/17) Accurately ripped
13 | (17/17) Accurately ripped
14 | (17/17) Accurately ripped
15 | (17/17) Accurately ripped
16 | (17/17) Accurately ripped
17 | (17/17) Accurately ripped
18 | (17/17) Accurately ripped
19 | (17/17) Accurately ripped
20 | (17/17) Accurately ripped
21 | (17/17) Accurately ripped
22 | (17/17) Accurately ripped
23 | (17/17) Accurately ripped
24 | (17/17) Accurately ripped
25 | (17/17) Accurately ripped
26 | (17/17) Accurately ripped
27 | (17/17) Accurately ripped
28 | (17/17) Accurately ripped
29 | (17/17) Accurately ripped
30 | (17/17) Accurately ripped
31 | (17/17) Accurately ripped
32 | (17/17) Accurately ripped

[AccurateRip ID: 006889e6-07c6b7c3-de0ec220] found.
Track [ CRC | V2 ] Status
01 [fb0b88a0|5b6e574c] (00+00/46) No match
02 [25bf145b|3935284f] (00+00/45) No match
03 [5edffda1|8374ee38] (00+00/45) No match
04 [4a7f7b58|e5819250] (00+00/44) No match
05 [b3c795c3|ceda59a7] (00+00/44) No match
06 [39bfb4b4|cfa46364] (00+00/44) No match
07 [2f98b577|6c9f8992] (00+00/44) No match
08 [063b254a|964fcc24] (00+00/44) No match
09 [bab3e6c5|3082da21] (00+00/44) No match
10 [1d1ceb4f|1fbca528] (00+00/44) No match
11 [e35e86a5|e835a929] (00+00/44) No match
12 [bef837da|55c79c7b] (00+00/44) No match
13 [a0338b90|a91b7cf9] (00+00/44) No match
14 [4566e234|bd9a137f] (00+00/44) No match
15 [f3e7395f|93963744] (00+00/44) No match
16 [bd2c7659|07e336ef] (00+00/44) No match
17 [5fc61484|b92c5beb] (00+00/44) No match
18 [c3eb810e|74bd89d7] (00+00/44) No match
19 [28d114f8|df3d0da5] (00+00/44) No match
20 [d2c39001|b593bac9] (00+00/44) No match
21 [2244df38|d2af5a80] (00+00/44) No match
22 [f3bd6a1a|31c5ea9c] (00+00/44) No match
23 [4c51e9c9|80f24bb6] (00+00/44) No match
24 [9e1df107|f4b24f38] (00+00/44) No match
25 [ac2d7fc7|68bf59b2] (00+00/44) No match
26 [d8d8912e|be99f3f2] (00+00/44) No match
27 [0330a5c9|1f8cbc22] (00+00/44) No match
28 [ae9df49e|1217bb6b] (00+00/44) No match
29 [4852f150|3d12184c] (00+00/44) No match
30 [f889dd46|89741401] (00+00/44) No match
31 [c206ae1f|8e1be089] (00+00/44) No match
32 [15ee9c3e|c492b57b] (00+00/44) No match

Offsetted by 6:
01 [73262a33] (19/46) Accurately ripped
02 [6243dc6f] (18/45) Accurately ripped
03 [0c8535c9] (18/45) Accurately ripped
04 [977cfa49] (18/44) Accurately ripped
05 [0672c5f8] (18/44) Accurately ripped
06 [caaf359d] (18/44) Accurately ripped
07 [bd74b27e] (18/44) Accurately ripped
08 [e450940b] (18/44) Accurately ripped
09 [dfc88682] (18/44) Accurately ripped
10 [32e1dca3] (18/44) Accurately ripped
11 [657e7f84] (18/44) Accurately ripped
12 [62e3863a] (18/44) Accurately ripped
13 [219b5bc5] (18/44) Accurately ripped
14 [be79426b] (18/44) Accurately ripped
15 [bbee571d] (18/44) Accurately ripped
16 [e420af4c] (18/44) Accurately ripped
17 [3aee3a66] (18/44) Accurately ripped
18 [e8da81c1] (18/44) Accurately ripped
19 [2a76d0ec] (18/44) Accurately ripped
20 [b93de99e] (18/44) Accurately ripped
21 [6d804e96] (18/44) Accurately ripped
22 [a89eceee] (18/44) Accurately ripped
23 [36188680] (18/44) Accurately ripped
24 [696bc91b] (18/44) Accurately ripped
25 [e8adc807] (18/44) Accurately ripped
26 [358a776c] (18/44) Accurately ripped
27 [54b415ae] (18/44) Accurately ripped
28 [a8871a3f] (18/44) Accurately ripped
29 [7afbb31c] (18/44) Accurately ripped
30 [1a5a6c28] (18/44) Accurately ripped
31 [ece74436] (18/44) Accurately ripped
32 [d136686b] (18/44) Accurately ripped

Track Peak [ CRC32 ] [W/O NULL] [ LOG ]
– 95,3 [070BF656] [D8998B2F] W/O NULL
01 94,1 [9EAE5649] [BECA2C17]
02 91,4 [CF48789B] [9C9B8C8A]
03 94,8 [D0435123] [61B42375]
04 72,2 [A2DB1BDF] [13DD536F]
05 27,3 [C9EE27CB] [BDE5C436]
06 22,3 [E6894FEA] [28B708B7]
07 68,2 [F89D8686] [4FD88EBA]
08 45,8 [9124D8ED] [1D9EF1A1]
09 48,9 [F4261B9D] [A82E00C2]
10 44,5 [8E8DD64E] [9E151447]
11 40,4 [84ABD3AF] [376F3E07]
12 41,7 [B24D6B30] [948A7B79]
13 80,1 [F583908A] [2AD7AB0B]
14 54,8 [CF21E0E8] [BE539945]
15 83,7 [6AC72613] [A458B5AC]
16 39,9 [B55DFBF2] [625C95B9]
17 75,8 [AADB1AD0] [121E24B3]
18 8,8 [ACC3910A] [3965AA64]
19 92,3 [EEB764DC] [CD382E49]
20 89,8 [0BDD3CE3] [D50221C9]
21 68,7 [AA9434EA] [0DC66CB7]
22 34,6 [0DBBCEFB] [6E78CECD]
23 44,9 [E30D9C03] [637D78D0]
24 53,8 [81D95DDE] [0F4B9711]
25 44,4 [ED48A3F4] [01679D06]
26 90,1 [12709279] [AFBD3337]
27 45,4 [C759968A] [6F56EF17]
28 67,6 [77C37693] [D2C9FA86]
29 32,2 [94443707] [A4385068]
30 67,4 [974F8379] [FDB8F26B]
31 20,6 [1B0D7856] [DD0BBD3E]
32 95,3 [EAECB32C] [266D029D]

AUDIOCHECKER v2.0 beta (build 457) - by Dester - opdester@freemail.hu
~~~~~~~~~~~~~~~~~~~~~~~~~~~~~~~~~~
-=== DO NOT EDIT THIS FILE! ===-

Path: …\Dvorak - Cello Concerto - Wispelwey, Fischer

1 -=- CDImage.ape -=- CDDA (100%)

2629300


Thanks to the Original ripper (unknown)!

Download: