Subcategories

Pink Floyd - Echoes: The Best Of Pink Floyd (2001) [Vinyl Rip 16/44]

Posted By: v3122
Pink Floyd - Echoes: The Best Of Pink Floyd (2001) [Vinyl Rip 16/44]

Pink Floyd - Echoes: The Best Of Pink Floyd (2001)
Vinyl Rip 16/44 | Flac(Image + Cue) > 868 Mb | Artwork(jpg) > 301 Mb
EMI, 7243 5 361111 8 / EMI, 536 111 1 | 4LP Box Set
Psychedelic Rock / Progressive Rock

Being the quintessential album rock band, Pink Floyd hasn't had much luck with "best-of" and "greatest-hits" compilations, like A Collection of Great Dance Songs and the bizarro follow-up, Works. Since both of those were released in the early '80s (and time travel being unavailable even to Pink Floyd), they obviously left out any tracks from the post-Roger Waters era albums. While countless hours in dorm rooms have been spent laboring over whether or not the post-Waters recordings should even be considered the "real Floyd," the later albums nonetheless stand as a further progression in the band's evolution and warrant recognition. The 2001 release Echoes: The Best of Pink Floyd does just that, sequencing the tracks non-chronologically in an effort to place more emphasis on the individual songs as opposed to the era they're from. Unfortunately, the effect is rather jarring when the songs transition from the clinical mid-'90s sound of "High Hopes" directly into the psychedelic groove of the much earlier "Bike." Interestingly, as is the case with most of their albums (but a rarity in "hits" compilations), most of the tracks fade into one another; the hum of "Keep Talking" segueing into the bleating of "Sheep," making for an intriguing listen from one song to the next.

There are many highlights on this collection: the inclusion of the Floyd holy grail "When the Tigers Broke Free," a sweeping Waters military dirge that has only appeared in the film The Wall, and the fascinating "Shine on You Crazy Diamond, Pts. 1-7," which has never before been released without the break in the middle (but conspicuously missing parts eight and nine). The confusing inclusion of "The Fletcher Memorial Home" (possibly just to cover something from The Final Cut) and three songs from the decidedly mediocre Division Bell stand out as obvious head-scratchers, making the die-hard Pink Floyd fan wonder if compiler James Guthrie was really clear on what this album should represent. Guthrie's job was unfortunately doomed from the start; since Pink Floyd's strength has always been in the band's rich, sprawling albums, listening to selections cut and chopped from here and there makes it almost like watching three-minute segments from Citizen Kane, Gone With the Wind, and Apocalypse Now, knowing full well that they hold together much better as whole works. Still, Echoes is nearly the best possible assembly of the band's individual songs one could hope for, and collectors and completists should be overjoyed. That being said, anyone just getting into this group's fascinating sound would be much better off starting with Dark Side of the Moon, then working forward, then backward from there: the time honored system of hungrily consuming the Pink Floyd catalog that has stood for generations.

by Zac Johnson, allmusic
Pink Floyd - Echoes: The Best Of Pink Floyd (2001):

Tracklist:

RECORD 1 – Side A

A1 - Astronomy Domine - 4:10
A2 - See Emily Play - 2:47
A3 - The Happiest Days Of Our Lives - 1:38
A4 - Another Brick In The Wall (Part 2) - 4:01
A5 - Marooned (edited version) - 2:02
A6 - The Great Gig In The Sky - 4:40

RECORD 1 – Side B

B1 - Echoes (edited version) - 16:30
B2 - Hey You - 4:39

RECORD 2 – Side C

C1 - Set The Controls For The Heart Of The Sun - 5:20
C2 - Money - 6:29
C3 - Keep Talking (early fade-out) - 5:57

RECORD 2 – Side D

D1 - Sheep (early fade-out) - 9:46
D2 - Sorrow - 8:45

RECORD 3 – Side E

E - Shine On You Crazy Diamond (Parts 1-7) (edited version) - 17:32

RECORD 3 – Side F

F1 - Time (includes “Breathe” (reprise)) - 6:48
F2 - The Fletcher Memorial Home - 4:07
F3 - Comfortably Numb (includes the coda of “Bring The Boys Back Home”)- 6:53
F4 - When The Tigers Broke Free - 3:42

RECORD 4 – Side G

G1 - One Of These Days (edited version) - 5:14
G2 - Us And Them - 7:51
G3 - Learning To Fly - 4:50
G4 - Arnold Layne - 2:52

RECORD 4 – Side H

H1 - Wish You Were Here (early fade-out) - 5:21
H2 - Jugband Blues - 2:56
H3 - High Hopes (edited version) - 6:59
H4 - Bike (edited version) - 3:24

foobar2000 1.2.9 / Dynamic Range Meter 1.1.1
log date: 2017-11-05 06:22:10

––––––––––––––––––––––––––––––––––––––––
Analyzed: Pink Floyd / Echoes: The Best Of Pink Floyd [EMI Records 2001 180g 4LP Box Set]
––––––––––––––––––––––––––––––––––––––––

DR Peak RMS Duration Track
––––––––––––––––––––––––––––––––––––––––
DR9 -5.21 dB -17.33 dB 4:06 01-Astronomy Domine
DR10 -5.41 dB -17.44 dB 2:46 02-See Emily Play
DR11 -0.91 dB -16.95 dB 1:38 03-The Happiest Days Of Our Lives
DR14 -1.90 dB -18.52 dB 3:56 04-Another Brick In The Wall (Part 2)
DR11 -13.21 dB -28.97 dB 2:04 05-Marooned (Edited Version)
DR10 -3.54 dB -18.97 dB 4:37 06-The Great Gig In The Sky
DR14 -3.03 dB -20.75 dB 16:20 07-Echoes (Edited Version)
DR12 -0.96 dB -18.27 dB 4:42 08-Hey You
DR10 -3.36 dB -17.02 dB 5:17 09-Set The Controls For The Heart Of The Sun
DR11 -1.63 dB -16.38 dB 6:28 10-Money
DR11 -4.52 dB -18.28 dB 5:56 11-Keep Talking (Early Fade-Out)
DR13 -0.93 dB -17.85 dB 9:46 12-Sheep (Early Fade-Out)
DR10 -1.27 dB -13.81 dB 8:37 13-Sorrow
DR12 -2.14 dB -18.37 dB 17:25 14-Shine On You Crazy Diamond (Parts 1-7, Edited Version)
DR11 -5.72 dB -19.31 dB 6:43 15-Time (Includes 'Breathe' (reprise))
DR11 0.00 dB -18.90 dB 4:05 16-The Fletcher Memorial Home
DR12 -2.52 dB -17.75 dB 6:47 17-Comfortably Numb (included the coda 'Bring The Boys Back Home')
DR12 -4.38 dB -20.42 dB 4:00 18-When The Tigers Broke Free
DR12 -2.20 dB -18.15 dB 5:18 19-One Of These Days (Edited Version)
DR10 -5.22 dB -19.39 dB 7:45 20-Us And Them
DR11 -3.16 dB -17.13 dB 4:48 21-Learning To Fly
DR9 -6.63 dB -18.34 dB 2:51 22-Arnold Layne
DR13 -0.86 dB -18.34 dB 5:23 23-Wish You Were Here (Early Fade-Out)
DR10 -5.97 dB -20.51 dB 2:56 24-Jugband Blues
DR13 -1.66 dB -18.05 dB 6:54 25-High Hopes (Edited Version)
DR11 -5.02 dB -19.24 dB 3:21 26-Bike (Edited Version)
––––––––––––––––––––––––––––––––––––––––

Number of tracks: 26
Official DR value: DR11

Samplerate: 44100 Hz
Channels: 2
Bits per sample: 16
Bitrate: 749 kbps
Codec: FLAC
================================================================================




Original ripper: GuruPete
Original format: 32/192
Vinyl Condition: NM
Cleaning:
Direct Drive Turntable: Rega RP3
Cartridge: Ortofon 2M Bronze
Amplifier: Rega Fono MM
ADC: Tascam US-366
Postprocessing: Manual declicking using Adobe Audition v. 1.5

Downsampled to 16/44

Pink Floyd - Echoes: The Best Of Pink Floyd (2001) [Vinyl Rip 16/44]

All thanks go to the original releaser



Pink Floyd or Pink Floyd in my Blog

Download Pink Floyd - Echoes: The Best Of Pink Floyd (2001):