Subcategories

Rainbow - Stranger in Us All 1995 & Finyl Vinyl Part II 1986 (2000)

Posted By: v3122
Rainbow - Stranger in Us All 1995 & Finyl Vinyl Part II 1986 (2000)

Rainbow - Stranger in Us All 1995 & Finyl Vinyl Part II 1986 (2000)
EAC | Flac(Image) + Cue + Log & MP3 CBR 320Kbps
CD-Maximum, CDM 0699-287 | ~ 556 or 192 Mb | Scans(jpg) -> 30 Mb
Hard Rock

Guitarist Ritchie Blackmore resurrected the beloved hard rock band Rainbow in 1995 for the album Stranger in Us All. The new lineup – technically named Ritchie Blackmore's Rainbow – was not an all-star who's who of hard rock like the groundbreaking original version with vocalist Ronnie James Dio or the radio-targeted AOR version with vocalist Joe Lynn Turner. All incarnations of Rainbow, even the mid-period lineup fronted by bellower Graham Bonnet, are generally revered in hard rock circles. In its own way, Rainbow's music was just as influential as the music Blackmore made during his years in Deep Purple. Stranger in Us All feels like Blackmore's shot-in-the-dark, semi-inspired effort to reconnect with his hard rock fan base. Around this same time, he was gearing up his Renaissance-flavored new age project, Blackmore's Night. For Stranger in Us All, Blackmore recruited vocalist Doogie White, keyboardist Paul Morris, bass guitarist Greg Smith, and drummer John O'Reilly. Many songs, such as "Wolf to the Moon," "Cold Hearted Woman," and "Stand and Fight," are decent enough. The two standout tracks, "Hunting Humans (Insatiable)" and "Black Masquerade," are the best at recapturing classic Rainbow's energy, drama, and dynamics. Blackmore also proffers another cover of the Yardbirds' "Still I'm Sad." He clearly loves this song since it has appeared in studio and live versions on previous Rainbow albums. Does Stranger in Us All live up to the Rainbow name and reputation? Not really. White is a decent, fully capable hard rock vocalist, but he is not as distinctive as Dio, Bonnet, or Turner. Then again, few vocalists are. (On tour, White did do a fine job of singing all of the old Deep Purple and Rainbow favorites in the set.) Rainbow soon fell by the wayside as Blackmore concentrated on Blackmore's Night. Perhaps some variation of the classic lineup will reunite eventually; even without the late, great Cozy Powell on drums; something like Yes' 1991 Union tour, which gathered multiple members to celebrate its overall legacy, would be a hard rock fan's dream.

by Bret Adams, allmusic
Rainbow - Stranger in Us All 1995 & Finyl Vinyl Part II 1986 (2000):

Rainbow - Stranger in Us All 1995 & Finyl Vinyl Part II 1986 (2000)

Tracklist:

Stranger In Us All 1995:

01. Wolf To The Moon /4:16
02. Cold Hearted Woman /4:23
03. Hunting Humans (Insatiable) /5:39
04. Stand And Fight /5:15
05. Ariel /5:39
06. Too Late For Tears /4:43
07. Black Masquerade /5:27
08. Silence /4:02
09. Hall Of The Mountain King /5:30
10. Still I'm Sad /5:19

Finyl Vinyl Part II 1986:

11. Stone Cold /4:24
12. Power /4:26
13. Man On The Silver Mountain /8:15
14. Long Live Rock'n'Roll /7:05
15. Weiss Heim /5:13

Exact Audio Copy V1.3 from 2. September 2016

Отчёт EAC об извлечении, выполненном 7. ноября 2017, 7:52

Rainbow / Stranger in Us All - Final Vinyl 2

Дисковод: LITE-ON CD-RW SOHR-5239V Adapter: 7 ID: 3

Режим чтения : Достоверность
Использование точного потока : Да
Отключение кэша аудио : Да
Использование указателей C2 : Нет

Коррекция смещения при чтении : 6
Способность читать области Lead-in и Lead-out : Нет
Заполнение пропущенных сэмплов тишиной : Да
Удаление блоков с тишиной в начале и конце : Нет
При вычислениях CRC использовались нулевые сэмплы : Да
Интерфейс : Установленный внешний ASPI-интерфейс

Выходной формат : Пользовательский кодировщик
Выбранный битрейт : 128 kBit/s
Качество : Высокий
Добавление ID3-тега : Нет
Утилита сжатия : C:\Program Files\Exact Audio Copy\FLAC\FLAC.EXE
Дополнительные параметры : -V -8 -T "Genre=%genre%" -T "Artist=%artist%" -T "Title=%title%" -T "Album=%albumtitle%" -T "Date=%year%" -T "Tracknumber=%tracknr%" -T "Comment=%comment%" %source%


TOC извлечённого CD

Трек | Старт | Длительность | Начальный сектор | Конечный сектор
––––––––––––––––––––––––––––––––––-
1 | 0:00.00 | 4:16.02 | 0 | 19201
2 | 4:16.02 | 4:23.57 | 19202 | 38983
3 | 8:39.59 | 5:39.59 | 38984 | 64467
4 | 14:19.43 | 5:15.04 | 64468 | 88096
5 | 19:34.47 | 5:39.57 | 88097 | 113578
6 | 25:14.29 | 4:43.10 | 113579 | 134813
7 | 29:57.39 | 5:27.15 | 134814 | 159353
8 | 35:24.54 | 4:02.37 | 159354 | 177540
9 | 39:27.16 | 5:30.05 | 177541 | 202295
10 | 44:57.21 | 5:19.38 | 202296 | 226258
11 | 50:16.59 | 4:24.26 | 226259 | 246084
12 | 54:41.10 | 4:26.05 | 246085 | 266039
13 | 59:07.15 | 8:15.52 | 266040 | 303216
14 | 67:22.67 | 7:05.31 | 303217 | 335122
15 | 74:28.23 | 5:13.18 | 335123 | 358615


Характеристики диапазона извлечения и сообщения об ошибках

Выбранный диапазон

Имя файла I:\MOI_RAZDACI\Rainbow_2CD_2000\Rainbow_Rising.Finyl.Vinyl.Part.1_1CD_Stranger.In.Us.All_Finyl.Vinyl.Part.2_2000\CD2_Stranger.In.Us.All_Finyl.Vinyl.Part.2\Rainbow - Stranger in Us All - Final Vinyl 2.wav

Пиковый уровень 98.8 %
Скорость извлечения 10.2 X
Качество диапазона 100.0 %
CRC теста 430EE8FF
CRC копии 430EE8FF
Копирование… OK

Ошибок не произошло


AccurateRip: сводка

Трек 1 : извлечено точно (доверие 5) [27773E27] (AR v2)
Трек 2 : извлечено точно (доверие 5) [C71D424F] (AR v2)
Трек 3 : извлечено точно (доверие 5) [82270963] (AR v2)
Трек 4 : извлечено точно (доверие 5) [D59ED306] (AR v2)
Трек 5 : извлечено точно (доверие 5) [E3E786E0] (AR v2)
Трек 6 : извлечено точно (доверие 5) [93F21AF2] (AR v2)
Трек 7 : извлечено точно (доверие 5) [249484D3] (AR v2)
Трек 8 : извлечено точно (доверие 5) [2E88507A] (AR v2)
Трек 9 : извлечено точно (доверие 5) [5A3C9DFC] (AR v2)
Трек 10 : извлечено точно (доверие 5) [E58F687F] (AR v2)
Трек 11 : извлечено точно (доверие 5) [6387F85E] (AR v2)
Трек 12 : извлечено точно (доверие 5) [4563F4AD] (AR v2)
Трек 13 : извлечено точно (доверие 5) [31B7C469] (AR v2)
Трек 14 : извлечено точно (доверие 4) [2DB29852] (AR v2)
Трек 15 : извлечено точно (доверие 4) [2EE9C261] (AR v2)

Все треки извлечены точно

Конец отчёта

–– CUETools DB Plugin V2.1.6

[CTDB TOCID: PlGFszbyt79XgIicFCskyDkBEbI-] found
Submit result: PlGFszbyt79XgIicFCskyDkBEbI- has been confirmed
Track | CTDB Status
1 | (7/8) Accurately ripped
2 | (7/8) Accurately ripped
3 | (7/8) Accurately ripped
4 | (7/8) Accurately ripped
5 | (7/8) Accurately ripped
6 | (7/8) Accurately ripped
7 | (7/8) Accurately ripped
8 | (7/8) Accurately ripped
9 | (7/8) Accurately ripped
10 | (7/8) Accurately ripped
11 | (7/8) Accurately ripped
12 | (7/8) Accurately ripped
13 | (7/8) Accurately ripped
14 | (7/8) Accurately ripped
15 | (7/8) Accurately ripped


==== Контрольная сумма отчёта 30ED3603831302379314EB2EC883D92D04926FEC17C5FF86C2BCA81AD07A6B02 ====


[CUETools log; Date: 14.06.2018 12:41:21; Version: 2.1.5]
[AccurateRip ID: 0029b66b-01dd5dc3-e312ad0f] found.
Track [ CRC | V2 ] Status
01 [155c0d90|27773e27] (3+5/8) Accurately ripped
02 [74c81e29|c71d424f] (3+5/8) Accurately ripped
03 [c3a87ceb|82270963] (3+5/8) Accurately ripped
04 [4b122951|d59ed306] (3+5/8) Accurately ripped
05 [f0a6b042|e3e786e0] (3+5/8) Accurately ripped
06 [bcd767ea|93f21af2] (3+5/8) Accurately ripped
07 [664162d4|249484d3] (3+5/8) Accurately ripped
08 [35f08f47|2e88507a] (3+5/8) Accurately ripped
09 [71d276eb|5a3c9dfc] (3+5/8) Accurately ripped
10 [2138d0d2|e58f687f] (3+5/8) Accurately ripped
11 [6b607f73|6387f85e] (2+5/7) Accurately ripped
12 [148d1427|4563f4ad] (2+5/7) Accurately ripped
13 [5199d9ae|31b7c469] (2+5/7) Accurately ripped
14 [99428beb|2db29852] (2+4/6) Accurately ripped
15 [7ceb8b5b|2ee9c261] (2+4/6) Accurately ripped

Track Peak [ CRC32 ] [W/O NULL] [ LOG ]
– 98,8 [430EE8FF] [E4047C89] CRC32
01 98,8 [EDF4E60A] [C49F88F6]
02 78,5 [85AC8670] [041FDC4A]
03 78,5 [6C476A0D] [303A11D5]
04 78,5 [8C2F0E1E] [60DC09BA]
05 78,5 [AE84091C] [D16B5035]
06 74,9 [EE47D540] [1E0F57DC]
07 90,9 [7A6189F6] [6DC5EC22]
08 74,7 [1FB6C516] [A1E98305]
09 74,9 [36285FC2] [D5496B54]
10 74,9 [166DAA55] [C7170C3B]
11 94,4 [4510F457] [195410DD]
12 94,4 [1C347290] [3CD8815E]
13 94,4 [1BE3480A] [CF9171D5]
14 94,4 [3696F4E3] [A0F58BC4]
15 67,4 [FC6E5671] [A0B9EE4C]


Rainbow - Stranger in Us All 1995 & Finyl Vinyl Part II 1986 (2000)

All thanks go to the original releaser

Rainbow or Rainbow in my Blog

Download Rainbow - Stranger in Us All 1995 & Finyl Vinyl Part II 1986 (2000):