Subcategories

Richard Holmes & Gene Ammons - Groovin' with Jug (1961) (Repost)

Posted By: gribovar
Richard Holmes & Gene Ammons - Groovin' with Jug (1961) (Repost)

Richard Holmes & Gene Ammons - Groovin' with Jug (1961)
EAC Rip | FLAC (tracks+.cue+log) - 334 MB | MP3 CBR 320 kbps (LAME 3.93) - 134 MB | Covers (5 MB) included
Genre: Jazz | RAR 3% Rec. | Label: Pacific Jazz (CDP 7 92930 2)

Ironically, Gene "Jug" Ammons tended to be critical of organists; he was quoted as saying that "organ players don't know any changes." However, as critical the Chicago tenor saxman might have been of organists - most of them, anyway - he did some of his best work in their presence. When you united Ammons with Jack McDuff, Johnny "Hammond" Smith and other B-3 masters in the '60s, the sparks would fly. They certainly fly on this excellent album, which finds Ammons and Richard "Groove" Holmes co-leading a soul-jazz/hard bop organ combo that also includes guitarist Gene Edwards and drummer Leroy Henderson. The quartet is heard in two settings on August 15, 1961 - three of the eight selections were produced by Richard Bock in a Los Angeles studio in the afternoon, while the other five were recorded several hours later an L.A. club called the Black Orchid. Ammons and Holmes prove to be a strong combination in both settings, although their playing is somewhat looser at the Orchid, where the delights include some slow blues (Ammons' "Hittin' the Jug"), a smoky ballad ("Willow Weep for Me") and a lightning-fast barnburner (Ammons' "Juggin' Around"). However critical Ammons might have been of most organists, it's obvious that he and Holmes share a lot of common ground on Groovin' With Jug.
Tracklist:
01. Happy Blues (Good Vibrations)
02. Willow Weep for Me
03. Juggin' Around
04. Hittin' the Jug
05. Exactly Like You
06. Groovin' with Jug
07. Morris the Minor
08. Hey You, What's That?

Total time: 54:30

Exact Audio Copy V0.99 prebeta 4 from 23. January 2008

EAC extraction logfile from 25. January 2009, 10:47

Richard Holmes & Gene Ammons / Groovin' with Jug

Used drive : TSSTcorpCDDVDW SH-S223Q Adapter: 2 ID: 1

Read mode : Secure
Utilize accurate stream : Yes
Defeat audio cache : Yes
Make use of C2 pointers : No

Read offset correction : 6
Overread into Lead-In and Lead-Out : No
Fill up missing offset samples with silence : Yes
Delete leading and trailing silent blocks : No
Null samples used in CRC calculations : Yes
Used interface : Installed external ASPI interface
Gap handling : Appended to previous track

Used output format : User Defined Encoder
Selected bitrate : 320 kBit/s
Quality : High
Add ID3 tag : No
Command line compressor : C:\Program Files (x86)\Exact Audio Copy\flac.exe
Additional command line options : -8 -V -T "ARTIST=%a" -T "TITLE=%t" -T "ALBUM=%g" -T "DATE=%y" -T "TRACKNUMBER=%n" -T "GENRE=%m" -T "COMMENT=EAC FLAC -8" %s


TOC of the extracted CD

Track | Start | Length | Start sector | End sector
––––––––––––––––––––––––––––-
1 | 0:00.00 | 8:44.00 | 0 | 39299
2 | 8:44.00 | 7:12.67 | 39300 | 71766
3 | 15:56.67 | 3:26.13 | 71767 | 87229
4 | 19:23.05 | 7:26.30 | 87230 | 120709
5 | 26:49.35 | 9:10.32 | 120710 | 161991
6 | 35:59.67 | 4:20.23 | 161992 | 181514
7 | 40:20.15 | 7:57.00 | 181515 | 217289
8 | 48:17.15 | 6:15.52 | 217290 | 245466


Track 1

Filename C:\Audio\Richard Holmes & Gene Ammons - Groovin' With Jug {1961} (1989) [FLAC]\01 - Happy Blues (Good Vibrations).wav

Pre-gap length 0:00:02.00

Peak level 76.0 %
Track quality 99.9 %
Test CRC 4AFB00AB
Copy CRC 4AFB00AB
Cannot be verified as accurate (confidence 1) [5E2A1CF3], AccurateRip returned [366FD92B]
Copy OK

Track 2

Filename C:\Audio\Richard Holmes & Gene Ammons - Groovin' With Jug {1961} (1989) [FLAC]\02 - Willow Weep For Me.wav

Pre-gap length 0:00:02.04

Peak level 77.9 %
Track quality 100.0 %
Test CRC 5D0D292F
Copy CRC 5D0D292F
Cannot be verified as accurate (confidence 1) [3D3BE643], AccurateRip returned [0FAF50E1]
Copy OK

Track 3

Filename C:\Audio\Richard Holmes & Gene Ammons - Groovin' With Jug {1961} (1989) [FLAC]\03 - Juggin' Around.wav

Pre-gap length 0:00:02.96

Peak level 76.0 %
Track quality 100.0 %
Test CRC 4F7CB63F
Copy CRC 4F7CB63F
Cannot be verified as accurate (confidence 1) [0ACDBFD2], AccurateRip returned [A8CBD093]
Copy OK

Track 4

Filename C:\Audio\Richard Holmes & Gene Ammons - Groovin' With Jug {1961} (1989) [FLAC]\04 - Hittin' The Jug.wav

Pre-gap length 0:00:02.26

Peak level 76.0 %
Track quality 100.0 %
Test CRC 5A6F58E4
Copy CRC 5A6F58E4
Cannot be verified as accurate (confidence 1) [DCFD1A61], AccurateRip returned [8F56F385]
Copy OK

Track 5

Filename C:\Audio\Richard Holmes & Gene Ammons - Groovin' With Jug {1961} (1989) [FLAC]\05 - Exactly Like You.wav

Pre-gap length 0:00:02.84

Peak level 76.0 %
Track quality 100.0 %
Test CRC 83025661
Copy CRC 83025661
Cannot be verified as accurate (confidence 1) [F951E92A], AccurateRip returned [5EFF6E1A]
Copy OK

Track 6

Filename C:\Audio\Richard Holmes & Gene Ammons - Groovin' With Jug {1961} (1989) [FLAC]\06 - Groovin' With Jug.wav

Pre-gap length 0:00:02.60

Peak level 76.0 %
Track quality 99.9 %
Test CRC 9FEBE8D8
Copy CRC 9FEBE8D8
Cannot be verified as accurate (confidence 1) [068F0AE0], AccurateRip returned [7F46300D]
Copy OK

Track 7

Filename C:\Audio\Richard Holmes & Gene Ammons - Groovin' With Jug {1961} (1989) [FLAC]\07 - Morris The Minor.wav

Pre-gap length 0:00:02.37

Peak level 76.0 %
Track quality 100.0 %
Test CRC 8165DE62
Copy CRC 8165DE62
Cannot be verified as accurate (confidence 1) [A552D945], AccurateRip returned [DBA8457C]
Copy OK

Track 8

Filename C:\Audio\Richard Holmes & Gene Ammons - Groovin' With Jug {1961} (1989) [FLAC]\08 - Hey You, What's That .wav

Pre-gap length 0:00:02.57

Peak level 76.0 %
Track quality 100.0 %
Test CRC 8AAA5D4A
Copy CRC 8AAA5D4A
Cannot be verified as accurate (confidence 1) [06A0AD3B], AccurateRip returned [242FCEE0]
Copy OK


No tracks could be verified as accurate
You may have a different pressing from the one(s) in the database

No errors occurred

End of status report

[CUETools log; Date: 13.03.2018 0:27:36; Version: 2.1.4]
[CTDB TOCID: GfoIjapUzyJ0iJ7pOfStN0FoTzE-] found.
Track | CTDB Status
1 | (6/7) Accurately ripped
2 | (6/7) Accurately ripped
3 | (6/7) Accurately ripped
4 | (6/7) Accurately ripped
5 | (6/7) Accurately ripped
6 | (6/7) Accurately ripped
7 | (6/7) Accurately ripped
8 | (6/7) Accurately ripped
[AccurateRip ID: 00112b97-007178a4-6b0cc808] found.
Track [ CRC | V2 ] Status
01 [5e2a1cf3|b29d45a7] (03+06/19) Accurately ripped
02 [3d3be643|d768e18a] (03+06/20) Accurately ripped
03 [0acdbfd2|dd026554] (03+06/19) Accurately ripped
04 [dcfd1a61|8aa99cd2] (03+06/19) Accurately ripped
05 [f951e92a|7233cc2c] (03+06/19) Accurately ripped
06 [068f0ae0|ccc2cb99] (03+06/19) Accurately ripped
07 [a552d945|b5d9fb07] (03+06/19) Accurately ripped
08 [06a0ad3b|b50db202] (03+06/19) Accurately ripped
Offsetted by 2110:
01 [366fd92b] (02/19) Accurately ripped
02 [0faf50e1] (03/20) Accurately ripped
03 [a8cbd093] (02/19) Accurately ripped
04 [8f56f385] (02/19) Accurately ripped
05 [5eff6e1a] (02/19) Accurately ripped
06 [7f46300d] (02/19) Accurately ripped
07 [dba8457c] (02/19) Accurately ripped
08 [242fcee0] (02/19) Accurately ripped

Track Peak [ CRC32 ] [W/O NULL] [ LOG ]
– 77,9 [64DD8FCD] [52E35B83]
01 76,0 [4AFB00AB] [F99D0472] CRC32
02 77,9 [5D0D292F] [DFC44A21] CRC32
03 76,0 [4F7CB63F] [508BEEAA] CRC32
04 76,0 [5A6F58E4] [EF5DB394] CRC32
05 76,0 [83025661] [0EBB1977] CRC32
06 76,0 [9FEBE8D8] [B8F80708] CRC32
07 76,0 [8165DE62] [59295306] CRC32
08 76,0 [8AAA5D4A] [75164E9F] CRC32

Thanks to Mazeppa

See also:
Gene Ammons - Blue Gene (1958)