Samael - Hegemony (2017)

Posted By: pyatak
Samael - Hegemony (2017)

Samael - Hegemony (2017)
EAC FLAC (image+que+log+scans) 479 MB | 51:29 minutes
Heavy Metal | Label: Napalm Records

SAMAEL have returned, with heavy ammunition wallowing to the darkest fronts. Industrial Black Metal armed with wind sections passes through shivering synthesizers. The stomping bass loses its sense of decency and no grain of dust remains still. On point and frighteningly brutal, fiery whirlwinds of hypnotic hammering riff forces overlay gruesomely gurgling vocals driving you over the edge. Thirty years of the band's history flows into their brilliant eleventh record "Hegemony", combining everything that SAMAEL have learned the hard way spanning the decades of their decadence. A colourless bouquet from the withered flowers of BEHEMOTH and DIMMU BORGIR, not for the faint-hearted!

TRACKLIST

1. Hegemony
2. Samael
3. Angel Of Wrath
4. Rite Of Renewal
5. Red Planet
6. Black Supremacy
7. Murder Or Suicide
8. This World
9. Against All Enemies
10. Land Of The Living
11. Dictate Of Transparency
12. Helter Skelter
13. Storm Of Fire

Exact Audio Copy V1.1 from 23. June 2015

EAC extraction logfile from 12. October 2017, 12:18

Samael / Hegemony

Used drive : ATAPI DVD A DH16ABSH Adapter: 2 ID: 0

Read mode : Secure
Utilize accurate stream : Yes
Defeat audio cache : Yes
Make use of C2 pointers : No

Read offset correction : 6
Overread into Lead-In and Lead-Out : No
Fill up missing offset samples with silence : Yes
Delete leading and trailing silent blocks : No
Null samples used in CRC calculations : Yes
Used interface : Installed external ASPI interface

Used output format : User Defined Encoder
Selected bitrate : 1024 kBit/s
Quality : High
Add ID3 tag : No
Command line compressor : C:\Program Files (x86)\Exact Audio Copy\FLAC\FLAC.EXE
Additional command line options : -6 -V -T "ARTIST=%artist%" -T "TITLE=%title%" -T "ALBUM=%albumtitle%" -T "DATE=%year%" -T "TRACKNUMBER=%tracknr%" -T "GENRE=%genre%" -T "COMMENT=%comment%" -T "BAND=%albuminterpret%" -T "ALBUMARTIST=%albuminterpret%" -T "COMPOSER=%composer%" %haslyrics%–tag-from-file=LYRICS="%lyricsfile%"%haslyrics% -T "DISCNUMBER=%cdnumber%" -T "TOTALDISCS=%totalcds%" -T "TOTALTRACKS=%numtracks%" %hascover%–picture="%coverfile%"%hascover% %source% -o %dest%


TOC of the extracted CD

Track | Start | Length | Start sector | End sector
––––––––––––––––––––––––––––-
1 | 0:00.00 | 3:47.10 | 0 | 17034
2 | 3:47.10 | 3:58.46 | 17035 | 34930
3 | 7:45.56 | 3:29.59 | 34931 | 50664
4 | 11:15.40 | 4:31.15 | 50665 | 71004
5 | 15:46.55 | 3:58.08 | 71005 | 88862
6 | 19:44.63 | 3:50.54 | 88863 | 106166
7 | 23:35.42 | 4:03.36 | 106167 | 124427
8 | 27:39.03 | 3:42.50 | 124428 | 141127
9 | 31:21.53 | 4:31.36 | 141128 | 161488
10 | 35:53.14 | 4:05.36 | 161489 | 179899
11 | 39:58.50 | 3:58.13 | 179900 | 197762
12 | 43:56.63 | 3:26.56 | 197763 | 213268
13 | 47:23.44 | 4:11.43 | 213269 | 232136


Range status and errors

Selected range

Filename E:\toydollsru\Samael - Hegemony.wav

Peak level 100.0 %
Extraction speed 3.0 X
Range quality 100.0 %
Test CRC AA07AD39
Copy CRC AA07AD39
Copy OK

No errors occurred


AccurateRip summary

Track 1 not present in database
Track 2 not present in database
Track 3 not present in database
Track 4 not present in database
Track 5 not present in database
Track 6 not present in database
Track 7 not present in database
Track 8 not present in database
Track 9 not present in database
Track 10 not present in database
Track 11 not present in database
Track 12 not present in database
Track 13 not present in database

None of the tracks are present in the AccurateRip database

End of status report

–– CUETools DB Plugin V2.1.6

[CTDB TOCID: vXjydXwhkg02jejfjORAqL4Wfy4-] disk not present in database
Submit result: vXjydXwhkg02jejfjORAqL4Wfy4- has been uploaded


==== Log checksum 457F31390FF461415ACE87EFA986E23E1687CFDA35F40962360F36469F1A4E1E ====