Subcategories

Scorpions - Acoustica (2001) [Japanese edition]

Posted By: v3122
Scorpions - Acoustica (2001) [Japanese edition]

Scorpions - Acoustica (2001)
EAC | Flac(Image) + Cue + Log & MP3 CBR 320Kbps
East West, AMCE - 7252 | ~ 574 or 183 Mb | Scans(jpg) -> 32 Mb
Hard Rock

Germany's Scorpions waited 'til 2001 to get on the unplugged bandwagon, but then they always were rather unfashionable. Recorded earlier the same year at live shows in Portugal, Acoustica is essentially a greatest-hits package, complete with the mandatory two new songs. Considering that it follows on the heels of Moment of Glory, their 2000 collaboration with the Berlin Philharmonic, it is perhaps slightly disappointing for longtime fans who can't wait for the Scorpions to rock out again. Then again, considering that those longtime fans have all grown old and gotten mortgages, Acoustica's recasting of the band's lite-rock legacy in the language of adult contemporary may just be what the doctor ordered. The track selection is entirely predictable, roping in most of the big ballad hits from the post-Lovedrive era, plus a few covers (Kansas' "Dust in the Wind," "Drive" by the Cars, and Queen's "Love of My Life"). The power chords may be missing, but Acoustica is far from stripped down: Guitarists Schenker and Jabs can't resist decorating most songs with pretty little acoustic guitar figures; this works in some cases, doesn't in others. The same goes for the Latino rhythm stylings, string sections, and lush backing vocals which make the band sound unsettlingly like Enrique Iglesias' backing group on more than one track. The final result is a sort of faceless, mid-tempo tastefulness that is oddly frustrating: You keep expecting the band to break out into the glorious, cheesy excesses they're famous for, but it just doesn't happen.

by Leslie Mathew, allmusic
Scorpions - Acoustica (2001):

Scorpions - Acoustica (2001) [Japanese edition]

Tracklist:

01. The Zoo (LIVE) -5:50
02. Always Somewhere (LIVE) -4:10
03. Life Is Too Short (LIVE) -5:18
04. Holiday (LIVE) -5:55
05. You & I (LIVE) -5:19
06. When Love Kills Love (LIVE) -4:54
07. Dust In The Wind (LIVE) -3:49
08. Send Me An Angel (LIVE) -5:24
09. Catch Your Train (LIVE) -3:36
10. I Wanted To Cry (But The Tears Wouldn't Come) (LIVE) -3:48
11. Wind Of Change (LIVE) -5:34
12. Love Of My Life (LIVE) -2:27
13. Drive (LIVE) -4:01
14. Still Loving You (LIVE) -5:45
15. Hurricane 2001 (LIVE) -4:38
16. Rhythm Of Love (LIVE) -5:27

Exact Audio Copy V0.99 prebeta 3 from 28. July 2007

Отчёт EAC об извлечении, выполненном 12. марта 2008, 13:58

SCORPIONS / Acoustica

Дисковод: Optiarc DVD RW AD-5170A Adapter: 3 ID: 0

Режим чтения : Достоверность
Использование точного потока : Да
Отключение кэша аудио : Да
Использование указателей C2 : Нет

Коррекция смещения при чтении : 48
Способность читать области Lead-in и Lead-out : Нет
Заполнение пропущенных сэмплов тишиной : Да
Удаление блоков с тишиной в начале и конце : Нет
При вычислениях CRC использовались нулевые сэмплы : Да
Интерфейс : Установленный внешний ASPI-интерфейс

Выходной формат : Внутренние WAV-операции
Формат сэмплов : 44.100 Гц; 16 бит; стерео


TOC извлечённого CD

Трек | Старт | Длительность | Начальный сектор | Конечный сектор
––––––––––––––––––––––––––––––––––-
1 | 0:00.00 | 5:49.52 | 0 | 26226
2 | 5:49.52 | 4:10.13 | 26227 | 44989
3 | 9:59.65 | 5:18.27 | 44990 | 68866
4 | 15:18.17 | 5:55.08 | 68867 | 95499
5 | 21:13.25 | 5:19.17 | 95500 | 119441
6 | 26:32.42 | 4:53.70 | 119442 | 141486
7 | 31:26.37 | 3:49.25 | 141487 | 158686
8 | 35:15.62 | 5:24.35 | 158687 | 183021
9 | 40:40.22 | 3:36.15 | 183022 | 199236
10 | 44:16.37 | 3:47.58 | 199237 | 216319
11 | 48:04.20 | 5:34.05 | 216320 | 241374
12 | 53:38.25 | 2:26.67 | 241375 | 252391
13 | 56:05.17 | 4:00.50 | 252392 | 270441
14 | 60:05.67 | 5:44.63 | 270442 | 296304
15 | 65:50.55 | 4:37.70 | 296305 | 317149
16 | 70:28.50 | 5:27.25 | 317150 | 341699


Характеристики диапазона извлечения и сообщения об ошибках

Выбранный диапазон

Имя файла SCORPIONS - Acoustica.wav

Пиковый уровень 100.0 %
Качество диапазона 100.0 %
CRC копии ED5DB350
Копирование… OK

Ошибок не произошло

Конец отчёта


[CUETools log; Date: 13.01.2018 12:05:02; Version: 2.1.5]
[AccurateRip ID: 002d5dd7-02198831-e211cc10] found.
Track [ CRC | V2 ] Status
01 [7791a66c|51588aa5] (5+4/9) Accurately ripped
02 [7a7fa055|29533993] (5+4/9) Accurately ripped
03 [d018966c|1983054b] (5+4/9) Accurately ripped
04 [59b43276|c4693e29] (5+4/9) Accurately ripped
05 [330a0acb|ce0cf8c7] (5+4/9) Accurately ripped
06 [b9044198|9b6e320c] (5+4/9) Accurately ripped
07 [14e3b6d1|018857db] (5+4/9) Accurately ripped
08 [f5126c54|b00bcb6a] (5+4/9) Accurately ripped
09 [a24d9ae6|0d825ea1] (5+4/9) Accurately ripped
10 [bc5e192d|e9afebe6] (5+4/9) Accurately ripped
11 [8a01a8e8|9b558e32] (5+4/9) Accurately ripped
12 [c0e91d0d|e35f4ebd] (5+4/9) Accurately ripped
13 [bc771dca|070c5eeb] (5+4/9) Accurately ripped
14 [a59d55c3|9f3db816] (5+4/9) Accurately ripped
15 [07372617|7c194a45] (5+4/9) Accurately ripped
16 [300e851e|80646efe] (5+4/9) Accurately ripped

Track Peak [ CRC32 ] [W/O NULL] [ LOG ]
– 100,0 [ED5DB350] [C91EE1AC] CRC32
01 100,0 [58E5A7DF] [5FA74E9F]
02 100,0 [49CDC7BC] [452057E5]
03 100,0 [C473FE01] [39494FE3]
04 100,0 [56773D80] [46861CE2]
05 100,0 [28F34DEF] [535D2F85]
06 100,0 [90D1CF83] [2DEF3A5C]
07 99,3 [65748CCA] [23BBDB45]
08 100,0 [9E7FEAFC] [1685F4A8]
09 99,4 [576E6A28] [0C2CA646]
10 100,0 [036F9DCA] [76802B22]
11 100,0 [F7AD2305] [9E78DA50]
12 100,0 [2BDFCE28] [0881FABC]
13 100,0 [771A6BDC] [72592E4F]
14 100,0 [7FCCCE8C] [7B0E0435]
15 99,9 [20306540] [DA7A178F]
16 100,0 [B2353DEF] [5E543EAA]


Scorpions - Acoustica (2001) [Japanese edition]

All thanks go to sinicinal

Scorpions or Scorpions in my Blog

Download Scorpions - Acoustica (2001):