Subcategories

Scorpions: Collection (1974 - 2015) [Vinyl Rip 16/44 & mp3-320]

Posted By: v3122
Scorpions: Collection (1974 - 2015) [Vinyl Rip 16/44 & mp3-320]

John Hackett - Another Life (2015)
19 x Vinyl Rip 16/44 | Flac(Image + Cue) > 6813 Mb
MP3 CBR 320Kbps > 2393 Mb | Artwork > 1923 Mb
Hard Rock / Classic Rock / Heavy Metal

Scorpions are a German rock band formed in 1965 in Hanover by Rudolf Schenker. Since the band's inception, its musical style has ranged from hard rock to heavy metal. The lineup from 1978–92 was the most successful incarnation of the group, and included Klaus Meine (vocals), Rudolf Schenker (rhythm guitar), Matthias Jabs (lead guitar), Francis Buchholz (bass guitar), and Herman Rarebell (drums). The band's only constant member has been Schenker, although Meine has been the lead singer for all of the band's studio albums, and Jabs has been a consistent member since 1979.

During the mid-1970s, with guitarist Uli Jon Roth part of the line-up, the music of the Scorpions was defined as hard rock. After the departure of Roth in 1978, Matthias Jabs joined and, following the guidance of producer Dieter Dierks, the Scorpions changed their sound towards melodic heavy metal, mixed with rock power ballads. Throughout the 1980s the group received positive reviews and critical acclaim from music critics, and experienced commercial success with the albums Animal Magnetism (1980), Blackout (1982), Love at First Sting (1984), World Wide Live (1985) and Savage Amusement (1988).

Their best-selling album Crazy World (1990) includes the song "Wind of Change", a symbolic anthem of the political changes in Eastern Europe in the late 1980s and early 1990s and the fall of the Berlin Wall. It is one of the best-selling singles in the world with over fourteen million copies sold. Scorpions have sold over 100 million records in total. They have released 18 studio albums, 27 compilation albums and 74 singles. Six of their singles have reached number one on the charts in different countries. Their albums, singles, compilations and video releases have reached 200 times gold, platinum and multi-platinum status in different countries.

Rolling Stone Magazine described the Scorpions as "the heroes of heavy metal", and MTV called them "Ambassadors of Rock". The band was ranked number 46 on VH1's Greatest Artists of Hard Rock programme, with "Rock You Like a Hurricane" at number 18 on VH1's list of the 100 Greatest Hard Rock Songs. "Still Loving You" ranked 22nd place among the greatest ballads. The Scorpions have received prestigious awards such as three World Music Awards, a star on the Hollywood Rock wall, and a presence in the permanent exhibition of the Rock and Roll Hall of Fame. In 2015 the group celebrated its 50th anniversary…

~ wiki
Scorpions: Collection (1974 - 2015) [Vinyl Rip 16/44 & mp3-320]

Scorpions: Collection (1974 - 2015):

Scorpions: Collection (1974 - 2015) [Vinyl Rip 16/44 & mp3-320]

Tracklist VNL01 - Fly To The Rainbow (1974):
US LP 1984 RCA Corporation, N.Y. • AYL1-5057

01. A1. Speedy's Coming [3:36]
02. A2. They Need A Million [4:51]
03. A3. Drifting Sun [7:40]
04. A4. Fly People Fly [5:03]
05. B1. This Is My Song [4:15]
06. B2. Far Away [5:42]
07. B3. Fly To The Rainbow [9:42]

foobar2000 1.1.18 / Dynamic Range Meter 1.1.1
log date: 2016-09-03 20:34:51

––––––––––––––––––––––––––––––––––––––––
Analyzed: SCORPIONS / Fly To The Rainbow (US, RCA, AYL1-5057)
––––––––––––––––––––––––––––––––––––––––

DR Peak RMS Duration Track
––––––––––––––––––––––––––––––––––––––––
DR12 -0.96 dB -14.39 dB 3:36 01-A1. Speedy's Coming
DR11 -1.14 dB -15.18 dB 4:51 02-A2. They Need A Million
DR11 -1.62 dB -14.30 dB 7:40 03-A3. Drifting Sun
DR11 -0.93 dB -14.34 dB 5:03 04-A4. Fly People Fly
DR11 -0.77 dB -13.21 dB 4:15 05-B1. This Is My Song
DR11 -0.49 dB -14.82 dB 5:42 06-B2. Far Away
DR11 -1.44 dB -15.86 dB 9:42 07-B3. Fly To The Rainbow
––––––––––––––––––––––––––––––––––––––––

Number of tracks: 7
Official DR value: DR11

Samplerate: 44100 Hz
Channels: 2
Bits per sample: 16
Bitrate: 839 kbps
Codec: WavPack
================================================================================




Original ripper: JonnyB
Original format: 24bit/192kHz
Vinyl Condition: Mint
Cleaning:
Direct Drive Turntable: Music hall mmf-2.2
Cartridge: Goldring1022GX
Amplifier: Cambridge Audio 651P + Marantz PM7005
ADC: Roland Quad-Capture
Postprocessing:

Downsampled to 16/44

Scorpions: Collection (1974 - 2015) [Vinyl Rip 16/44 & mp3-320]

Tracklist VNL02 - In Trance:
DE LP 1975 RCA Schallplatten GmbH • PPL1-4128

01. A1. Dark Lady [03:34]
02. A2. In Trance [04:48]
03. A3. Life's Like A River [03:54]
04. A4. Top Of The Bill [03:27]
05. A5. Living And Dying [03:22]
06. B1. Robot Man [02:50]
07. B2. Evening Wind [05:08]
08. B3. Sun In My Hand [04:26]
09. B4. Longing For Fire [02:45]
10. B5. Night Lights [03:16]

foobar2000 1.1.18 / Dynamic Range Meter 1.1.1
log date: 2016-09-03 20:35:21

––––––––––––––––––––––––––––––––––––––––
Analyzed: SCORPIONS / In Trance
––––––––––––––––––––––––––––––––––––––––

DR Peak RMS Duration Track
––––––––––––––––––––––––––––––––––––––––
DR10 -0.98 dB -13.09 dB 3:34 01-A1. Dark Lady
DR10 -1.94 dB -15.69 dB 4:49 02-A2. In Trance
DR11 -1.50 dB -15.29 dB 3:54 03-A3. Life's Like A River
DR9 -3.96 dB -15.05 dB 3:27 04-A4. Top Of The Bill
DR10 -3.63 dB -15.87 dB 3:23 05-A5. Living And Dying
DR10 -1.37 dB -13.52 dB 2:50 06-B1. Robot Man
DR10 -2.79 dB -15.41 dB 5:09 07-B2. Evening Wind
DR12 -2.20 dB -16.59 dB 4:26 08-B3. Sun In My Hand
DR10 -3.70 dB -15.27 dB 2:45 09-B4. Longing For Fire
DR13 -3.89 dB -20.77 dB 3:17 10-B5. Night Lights
––––––––––––––––––––––––––––––––––––––––

Number of tracks: 10
Official DR value: DR10

Samplerate: 44100 Hz
Channels: 2
Bits per sample: 16
Bitrate: 853 kbps
Codec: WavPack
================================================================================




Original ripper: Alex Blackseam
Original format: 24bit/192kHz
Vinyl Condition: Mint
Cleaning:
Direct Drive Turntable: Technics SL-1210 MK2 + Sumiko Blue Point Special Evo III
Cartridge:
Amplifier:
ADC: RME Fireface 400
Postprocessing:

Downsampled to 16/44

Scorpions: Collection (1974 - 2015) [Vinyl Rip 16/44 & mp3-320]

Tracklist VNL03 - Virgin Killer:
UK LP 1976 RCA Schallplatten GmbH • PPL1-4225

01. A1. Pictured Life [03:27]
02. A2. Catch Your Train [03:38]
03. A3. In Your Park [03:45]
04. A4. Backstage Queen [03:14]
05. A5. Virgin Killer [03:43]
06. B1. Hell Cat [02:58]
07. B2. Crying Days [04:40]
08. B3. Polar Nights [05:08]
09. B4. Yellow Raven [05:02]

foobar2000 1.1.18 / Dynamic Range Meter 1.1.1
log date: 2016-09-03 20:35:35

––––––––––––––––––––––––––––––––––––––––
Analyzed: SCORPIONS / Virgin Killer
––––––––––––––––––––––––––––––––––––––––

DR Peak RMS Duration Track
––––––––––––––––––––––––––––––––––––––––
DR10 -1.36 dB -14.14 dB 3:27 01-A1. Pictured Life
DR10 -2.07 dB -12.74 dB 3:38 02-A2. Catch Your Train
DR11 -2.70 dB -16.78 dB 3:46 03-A3. In Your Park
DR10 -2.37 dB -13.96 dB 3:14 04-A4. Backstage Queen
DR10 -3.15 dB -14.77 dB 3:44 05-A5. Virgin Killer
DR11 -1.27 dB -14.55 dB 2:58 06-B1. Hell Cat
DR10 -2.05 dB -13.73 dB 4:41 07-B2. Crying Days
DR9 -1.05 dB -12.95 dB 5:08 08-B3. Polar Nights
DR11 -1.33 dB -16.73 dB 5:03 09-B4. Yellow Raven
––––––––––––––––––––––––––––––––––––––––

Number of tracks: 9
Official DR value: DR10

Samplerate: 44100 Hz
Channels: 2
Bits per sample: 16
Bitrate: 924 kbps
Codec: WavPack
================================================================================




Original ripper: Alex Blackseam
Original format: 24bit/192kHz
Vinyl Condition: Mint
Cleaning:
Direct Drive Turntable: Technics SL-1210 MK2 + Sumiko Blue Point Special Evo III
Cartridge:
Amplifier:
ADC: RME Fireface 400
Postprocessing:

Downsampled to 16/44

Scorpions: Collection (1974 - 2015) [Vinyl Rip 16/44 & mp3-320]

Tracklist VNL04 - Taken By Force (1977):
DE LP 1983 RCA Schallplatten GmbH • NL70081

01. A1. Steamrock Fever [03:43]
02. A2. We'll Burn The Sky [06:30]
03. A3. I've Got To Be Free [04:03]
04. A4. The Riot Of Your Time [04:11]
05. B1. The Sails Of Charon [04:22]
06. B2. Your Light [04:32]
07. B3. He's A Woman - She's A Man [03:16]
08. B4. Born To Touch Your Feelings [07:20]

foobar2000 1.1.18 / Dynamic Range Meter 1.1.1
log date: 2016-09-03 20:35:50

––––––––––––––––––––––––––––––––––––––––
Analyzed: SCORPIONS / Taken By Force
––––––––––––––––––––––––––––––––––––––––

DR Peak RMS Duration Track
––––––––––––––––––––––––––––––––––––––––
DR10 -1.31 dB -13.14 dB 3:43 01-A1. Steamrock Fever
DR10 -2.68 dB -16.30 dB 6:30 02-A2. We'll Burn The Sky
DR9 -3.19 dB -13.60 dB 4:04 03-A3. I've Got To Be Free
DR10 -2.49 dB -15.27 dB 4:12 04-A4. The Riot Of Your Time
DR10 -1.17 dB -14.57 dB 4:22 05-B1. The Sails Of Charon
DR10 -1.80 dB -14.38 dB 4:33 06-B2. Your Light
DR10 -1.24 dB -12.89 dB 3:17 07-B3. He's A Woman - She's A Man
DR11 -1.32 dB -16.56 dB 7:21 08-B4. Born To Touch Your Feelings
––––––––––––––––––––––––––––––––––––––––

Number of tracks: 8
Official DR value: DR10

Samplerate: 44100 Hz
Channels: 2
Bits per sample: 16
Bitrate: 862 kbps
Codec: WavPack
================================================================================




Original ripper: lex Blackseam
Original format: 24bit/192kHz
Vinyl Condition: Mint
Cleaning:
Direct Drive Turntable: Technics SL-1210 MK2 + Sumiko Blue Point Special Evo III
Cartridge:
Amplifier:
ADC: RME Fireface 400
Postprocessing:

Downsampled to 16/44

Scorpions: Collection (1974 - 2015) [Vinyl Rip 16/44 & mp3-320]

Tracklist VNL05 - Tokyo Tapes:
JP 2 x LP 1978 RVC Corporation, Tokyo • RCA-9147~48

01. A1. All Night Long [03:36]
02. A2. Pictured Life [03:23]
03. A3. Backstage Queen [03:40]
04. A4. Polar Nights [06:54]
05. A5. In Trance [05:38]
06. B1. We'll Burn The Sky [08:19]
07. B2. Suspender Love [03:39]
08. B3. In Search Of The Peace Of Mind [03:02]
09. B4. Fly To The Rainbow [09:49]
10. C1. He's A Woman, She's A Man [05:29]
11. C2. Speedy's Coming [03:41]
12. C3. Top Of The Bill [06:39]
13. C4. Hound Dog - Long Tall Sally [04:05]
14. D1. Steamrock Fever [04:23]
15. D2. Dark Lady [04:21]
16. D3. Kojo No Tsuki [03:34]
17. D4. Robot Man [05:50]

foobar2000 1.1.18 / Dynamic Range Meter 1.1.1
log date: 2016-09-03 20:36:25

––––––––––––––––––––––––––––––––––––––––
Analyzed: SCORPIONS / Tokyo Tapes
––––––––––––––––––––––––––––––––––––––––

DR Peak RMS Duration Track
––––––––––––––––––––––––––––––––––––––––
DR11 -2.14 dB -15.06 dB 3:37 01-A1. All Night Long
DR11 -1.35 dB -14.06 dB 3:23 02-A2. Pictured Life
DR12 -1.36 dB -14.72 dB 3:40 03-A3. Backstage Queen
DR12 -1.74 dB -16.32 dB 6:55 04-A4. Polar Nights
DR12 -3.85 dB -17.75 dB 5:38 05-A5. In Trance
DR12 -1.18 dB -16.32 dB 8:19 06-B1. We'll Burn The Sky
DR11 -2.91 dB -16.24 dB 3:40 07-B2. Suspender Love
DR13 -3.97 dB -20.20 dB 3:02 08-B3. In Search Of The Peace Of Mind
DR11 -2.89 dB -18.21 dB 9:49 09-B4. Fly To The Rainbow
DR11 -1.50 dB -15.00 dB 5:29 10-C1. He's A Woman, She's A Man
DR11 -2.18 dB -14.52 dB 3:41 11-C2. Speedy's Coming
DR11 -2.53 dB -15.41 dB 6:40 12-C3. Top Of The Bill
DR10 -4.43 dB -16.29 dB 4:06 13-C4. Hound Dog - Long Tall Sally
DR11 -2.17 dB -15.08 dB 4:23 14-D1. Steamrock Fever
DR11 -2.45 dB -16.03 dB 4:21 15-D2. Dark Lady
DR12 -2.19 dB -18.54 dB 3:35 16-D3. Kojo No Tsuki
DR11 -2.01 dB -15.27 dB 5:50 17-D4. Robot Man
––––––––––––––––––––––––––––––––––––––––

Number of tracks: 17
Official DR value: DR11

Samplerate: 44100 Hz
Channels: 2
Bits per sample: 16
Bitrate: 964 kbps
Codec: WavPack
================================================================================




Original ripper: sv-dd
Original format: 24bit/192kHz
Vinyl Condition: NM
Cleaning:
Direct Drive Turntable: SL101/SA
Cartridge: TSD 15
Amplifier: Luxman E-03
ADC: T.C. Electronic Desktop Konnekt 6
Postprocessing:

Downsampled to 16/44

Scorpions: Collection (1974 - 2015) [Vinyl Rip 16/44 & mp3-320]

Tracklist VNL06 - Loverdrive:
DE LP 1979 EMI Electrola GmbH • 1C 064-45 275

01. A1. Loving You Sunday Morning [05:37]
02. A2. Another Piece Of Meat [03:30]
03. A3. Always Somewhere [04:56]
04. A4. Coast To Coast [04:40]
05. B1. Can't Get Enough [02:37]
06. B2. Is There Anybody There? [03:57]
07. B3. Lovedrive [04:51]
08. B4. Holiday [06:32]

foobar2000 1.1.18 / Dynamic Range Meter 1.1.1
log date: 2016-09-03 20:36:45

––––––––––––––––––––––––––––––––––––––––
Analyzed: SCORPIONS / Lovedrive
––––––––––––––––––––––––––––––––––––––––

DR Peak RMS Duration Track
––––––––––––––––––––––––––––––––––––––––
DR12 -0.53 dB -13.45 dB 5:38 01-A1. Loving You Sunday Morning
DR11 -0.60 dB -13.69 dB 3:30 02-A2. Another Piece Of Meat
DR12 -0.59 dB -15.53 dB 4:56 03-A3. Always Somewhere
DR11 -1.70 dB -13.85 dB 4:41 04-A4. Coast To Coast
DR10 -1.41 dB -13.01 dB 2:37 05-B1. Can't Get Enough
DR12 -1.70 dB -15.46 dB 3:57 06-B2. Is There Anybody There?
DR10 -1.05 dB -12.42 dB 4:52 07-B3. Lovedrive
DR12 -0.50 dB -18.60 dB 6:33 08-B4. Holiday
––––––––––––––––––––––––––––––––––––––––

Number of tracks: 8
Official DR value: DR11

Samplerate: 44100 Hz
Channels: 2
Bits per sample: 16
Bitrate: 917 kbps
Codec: WavPack
================================================================================




Original ripper: Oleg-Leshiy
Original format: 24bit/192kHz
Vinyl Condition: NM
Cleaning:
Direct Drive Turntable: Pioneer PL-7L + ZYX R1000 Airy 3 gold
Cartridge:
Amplifier: PS audio Phono Stage + Tube Preamp (Telefunken)
ADC: TASCAM HS-P82
Postprocessing:

Downsampled to 16/44

Scorpions: Collection (1974 - 2015) [Vinyl Rip 16/44 & mp3-320]

Tracklist VNL07 - Animal Magnetism (1980):
DE LP 1984 EMI Electrola GmbH • 1C 038-1575441

01. A1. Make It Real [03:49]
02. A2. Don't Make No Promises (Your Body Can't Keep) [02:58]
03. A3. Hold Me Tight [03:59]
04. A4. Twentieth Century Man [03:04]
05. A5. Lady Starlight [06:15]
06. B1. Falling In Love [04:11]
07. B2. Only A Man [03:36]
08. B3. The Zoo [05:30]
09. B4. Animal Magnetism [05:56]

foobar2000 1.1.18 / Dynamic Range Meter 1.1.1
log date: 2016-09-03 20:37:02

––––––––––––––––––––––––––––––––––––––––
Analyzed: SCORPIONS / Animal Magnetism
––––––––––––––––––––––––––––––––––––––––

DR Peak RMS Duration Track
––––––––––––––––––––––––––––––––––––––––
DR11 -1.17 dB -14.56 dB 3:50 01-A1. Make It Real
DR12 -1.54 dB -14.69 dB 2:58 02-A2. Don't Make No Promises (Your Body Can't Keep)
DR12 -1.66 dB -14.98 dB 3:59 03-A3. Hold Me Tight
DR11 -1.32 dB -14.51 dB 3:04 04-A4. Twentieth Century Man
DR13 -1.70 dB -18.82 dB 6:16 05-A5. Lady Starlight
DR11 -1.42 dB -13.31 dB 4:11 06-B1. Falling In Love
DR11 -0.62 dB -13.40 dB 3:36 07-B2. Only A Man
DR11 -3.23 dB -16.15 dB 5:30 08-B3. The Zoo
DR13 -1.35 dB -17.00 dB 5:56 09-B4. Animal Magnetism
––––––––––––––––––––––––––––––––––––––––

Number of tracks: 9
Official DR value: DR12

Samplerate: 44100 Hz
Channels: 2
Bits per sample: 16
Bitrate: 881 kbps
Codec: WavPack
================================================================================




Original ripper: nikon200
Original format: 24bit/192kHz
Vinyl Condition: NMint
Cleaning:
Direct Drive Turntable: Technics - SL1200 MK2
Cartridge: Audio-Technica AT-OC9/III
Amplifier: Clearaudio Phonostage Basic+
ADC: RME HDSP 9632
Postprocessing:

Downsampled to 16/44

Scorpions: Collection (1974 - 2015) [Vinyl Rip 16/44 & mp3-320]

Tracklist VNL08 - Blackout:
DE LP 1982 EMI Electrola GmbH • 1C 064-64 686

01. A1. Blackout [03:48]
02. A2. Can't Live Without You [03:46]
03. A3. No One Like You [03:56]
04. A4. You Give Me All I Need [03:38]
05. A5. Now! [02:33]
06. B1. Dynamite [04:12]
07. B2. Arizona [03:53]
08. B3. China White [06:58]
09. B4. When The Smoke Is Going Down [03:54]

foobar2000 1.1.18 / Dynamic Range Meter 1.1.1
log date: 2016-09-03 20:37:19

––––––––––––––––––––––––––––––––––––––––
Analyzed: SCORPIONS / Blackout
––––––––––––––––––––––––––––––––––––––––

DR Peak RMS Duration Track
––––––––––––––––––––––––––––––––––––––––
DR13 -0.74 dB -14.98 dB 3:48 01-A1. Blackout
DR12 -2.19 dB -15.66 dB 3:46 02-A2. Can't Live Without You
DR13 -1.76 dB -16.09 dB 3:56 03-A3. No One Like You
DR13 -1.58 dB -17.04 dB 3:39 04-A4. You Give Me All I Need
DR12 -3.33 dB -16.26 dB 2:33 05-A5. Now!
DR12 -1.28 dB -14.71 dB 4:12 06-B1. Dynamite
DR13 -1.68 dB -15.85 dB 3:53 07-B2. Arizona
DR12 -1.25 dB -14.99 dB 6:58 08-B3. China White
DR12 -3.82 dB -18.22 dB 3:54 09-B4. When The Smoke Is Going Down
––––––––––––––––––––––––––––––––––––––––

Number of tracks: 9
Official DR value: DR12

Samplerate: 44100 Hz
Channels: 2
Bits per sample: 16
Bitrate: 951 kbps
Codec: WavPack
================================================================================




Original ripper: nikon200
Original format: 24bit/192kHz
Vinyl Condition: NM
Cleaning:
Direct Drive Turntable: Technics - SL1200 MK2
Cartridge: Audio-Technica AT-OC9/III
Amplifier: Clearaudio Phonostage Basic+
ADC: RME HDSP 9632
Postprocessing:

Downsampled to 16/44

Scorpions: Collection (1974 - 2015) [Vinyl Rip 16/44 & mp3-320]

Tracklist VNL09 - Love At First Sting:
DE LP 1984 EMI Electrola GmbH • 1C 064-24 0007 1

01. A1. Bad Boys Running Wild [03:55]
02. A2. Rock You Like A Hurricane [04:12]
03. A3. I'm Leaving You [04:17]
04. A4. Coming Home [04:59]
05. A5. The Same Thrill [03:30]
06. B1. Big City Nights [04:09]
07. B2. As Soon As The Good Times Roll [05:03]
08. B3. Crossfire [04:36]
09. B4. Still Loving You [06:29]

foobar2000 1.1.18 / Dynamic Range Meter 1.1.1
log date: 2016-09-03 20:37:57

––––––––––––––––––––––––––––––––––––––––
Analyzed: SCORPIONS / Love At First Sting
––––––––––––––––––––––––––––––––––––––––

DR Peak RMS Duration Track
––––––––––––––––––––––––––––––––––––––––
DR15 -1.30 dB -17.36 dB 3:55 01-A1. Bad Boys Running Wild
DR14 -1.90 dB -18.01 dB 4:12 02-A2. Rock You Like A Hurricane
DR14 -0.89 dB -16.74 dB 4:17 03-A3. I'm Leaving You
DR11 -0.87 dB -15.24 dB 5:00 04-A4. Coming Home
DR12 -1.72 dB -14.66 dB 3:30 05-A5. The Same Thrill
DR12 -0.79 dB -15.07 dB 4:10 06-B1. Big City Nights
DR13 -1.01 dB -15.63 dB 5:03 07-B2. As Soon As The Good Times Roll
DR11 -2.23 dB -17.46 dB 4:36 08-B3. Crossfire
DR11 -3.53 dB -17.80 dB 6:29 09-B4. Still Loving You
––––––––––––––––––––––––––––––––––––––––

Number of tracks: 9
Official DR value: DR13

Samplerate: 44100 Hz
Channels: 2
Bits per sample: 16
Bitrate: 904 kbps
Codec: WavPack
================================================================================




Original ripper: nikon200
Original format: 24bit/192kHz
Vinyl Condition: NM
Cleaning:
Direct Drive Turntable: Technics - SL1200 MK2
Cartridge: Audio-Technica AT-OC9/III
Amplifier: Clearaudio Phonostage Basic+
ADC: RME HDSP 9632
Postprocessing:

Downsampled to 16/44

Scorpions: Collection (1974 - 2015) [Vinyl Rip 16/44 & mp3-320]

Tracklist VNL10 - World Wide Live:
DE 2 x LP 1985 EMI Electrola GmbH • 1C 164-24 0343 1

01. A1. Countdown [00:39]
02. A2. Coming Home [03:18]
03. A3. Blackout [04:05]
04. A4. Bad Boys Running Wild [03:52]
05. A5. Loving You Sunday Morning [04:42]
06. A6. Make It Real [03:41]
07. B1. Big City Nights [05:15]
08. B2. Coast To Coast [04:46]
09. B3. Holiday [03:51]
10. B4. Still Loving You [05:55]
11. C1. Rock You Like A Hurricane [04:18]
12. C2. Can't Live Without You [05:35]
13. C3. Another Piece Of Meat [03:37]
14. C4. Dynamite [06:49]
15. D1. The Zoo [06:10]
16. D2. No One Like You [04:10]
17. D3. Can't Get Enough (Part 1) [02:24]
18. D4. Six String Sting [05:17]
19. D5. Can't Get Enough (Part 2) [01:54]

foobar2000 1.1.18 / Dynamic Range Meter 1.1.1
log date: 2016-09-03 20:38:36

––––––––––––––––––––––––––––––––––––––––
Analyzed: SCORPIONS / World Wide Live
––––––––––––––––––––––––––––––––––––––––

DR Peak RMS Duration Track
––––––––––––––––––––––––––––––––––––––––
DR8 -5.65 dB -19.27 dB 0:39 01-A1. Countdown
DR12 -0.33 dB -14.20 dB 3:18 02-A2. Coming Home
DR12 -1.50 dB -14.79 dB 4:06 03-A3. Blackout
DR12 -0.28 dB -14.24 dB 3:52 04-A4. Bad Boys Running Wild
DR12 -1.18 dB -14.59 dB 4:43 05-A5. Loving You Sunday Morning
DR12 -0.28 dB -14.67 dB 3:42 06-A6. Make It Real
DR13 -0.33 dB -15.88 dB 5:15 07-B1. Big City Nights
DR12 -1.24 dB -15.02 dB 4:47 08-B2. Coast To Coast
DR13 -3.80 dB -20.78 dB 3:51 09-B3. Holiday
DR11 -0.24 dB -14.61 dB 5:56 10-B4. Still Loving You
DR12 -0.71 dB -14.94 dB 4:18 11-C1. Rock You Like A Hurricane
DR11 -1.38 dB -15.08 dB 5:35 12-C2. Can't Live Without You
DR11 -0.42 dB -13.83 dB 3:38 13-C3. Another Piece Of Meat
DR11 -1.01 dB -14.39 dB 6:50 14-C4. Dynamite
DR12 -1.09 dB -15.74 dB 6:11 15-D1. The Zoo
DR12 -0.31 dB -15.25 dB 4:10 16-D2. No One Like You
DR12 -0.62 dB -14.56 dB 2:24 17-D3. Can't Get Enough (Part 1)
DR12 -3.88 dB -19.29 dB 5:17 18-D4. Six String Sting
DR11 -1.91 dB -15.00 dB 1:54 19-D5. Can't Get Enough (Part 2)
––––––––––––––––––––––––––––––––––––––––

Number of tracks: 19
Official DR value: DR12

Samplerate: 44100 Hz
Channels: 2
Bits per sample: 16
Bitrate: 933 kbps
Codec: WavPack
================================================================================




Original ripper: Oleg-Leshiy
Original format: 24bit/192kHz
Vinyl Condition: NM
Cleaning:
Direct Drive Turntable: Pioneer PL-7L + ZYX R1000 Airy 3 gold
Cartridge:
Amplifier: PS audio Phono Stage + Tube Preamp (Telefunken)
ADC: TASCAM HS-P82
Postprocessing:

Downsampled to 16/44

Scorpions: Collection (1974 - 2015) [Vinyl Rip 16/44 & mp3-320]

Tracklist VNL11 - Savage Amusement:
NL LP 1988 EMI Services Benelux B.V. • 1C 064-7 46704 1

01. A1. Don't Stop At The Top [04:03]
02. A2. Rhythm Of Love [03:48]
03. A3. Passion Rules The Game [03:59]
04. A4. Media Overkill [03:33]
05. A5. Walking On The Edge [05:06]
06. B1. We Let It Rock…You Let It Roll [03:39]
07. B2. Every Minute Every Day [04:22]
08. B3. Love On The Run [03:37]
09. B4. Believe In Love [05:24]

foobar2000 1.1.18 / Dynamic Range Meter 1.1.1
log date: 2016-09-03 20:38:54

––––––––––––––––––––––––––––––––––––––––
Analyzed: SCORPIONS / Savage Amusement
––––––––––––––––––––––––––––––––––––––––

DR Peak RMS Duration Track
––––––––––––––––––––––––––––––––––––––––
DR12 -1.73 dB -15.20 dB 4:03 01-A1. Don't Stop At The Top
DR13 -1.23 dB -16.73 dB 3:49 02-A2. Rhythm Of Love
DR12 -3.04 dB -16.79 dB 4:00 03-A3. Passion Rules The Game
DR12 -2.04 dB -15.75 dB 3:33 04-A4. Media Overkill
DR13 -1.15 dB -18.37 dB 5:06 05-A5. Walking On The Edge
DR12 -1.43 dB -14.13 dB 3:39 06-B1. We Let It Rock…You Let It Roll
DR12 -1.20 dB -14.96 dB 4:23 07-B2. Every Minute Every Day
DR11 -1.05 dB -13.72 dB 3:37 08-B3. Love On The Run
DR12 -1.61 dB -15.50 dB 5:25 09-B4. Believe In Love
––––––––––––––––––––––––––––––––––––––––

Number of tracks: 9
Official DR value: DR12

Samplerate: 44100 Hz
Channels: 2
Bits per sample: 16
Bitrate: 968 kbps
Codec: WavPack
================================================================================




Original ripper: nikon200
Original format: 24bit/192kHz
Vinyl Condition: NM
Cleaning:
Direct Drive Turntable: Technics - SL1200 MK2
Cartridge: Audio-Technica AT-OC9/III
Amplifier: Clearaudio Phonostage Basic+
ADC: RME HDSP 9632
Postprocessing:

Downsampled to 16/44

Scorpions: Collection (1974 - 2015) [Vinyl Rip 16/44 & mp3-320]

Tracklist VNL12 - Crazy World:
NL LP 1990 PolyGram Records Inc. • 846 908-1

01. A1. Tease Me Please Me [04:46]
02. A2. Don't Believe Her [04:56]
03. A3. To Be With You In Heaven [04:50]
04. A4. Wind Of Change [05:13]
05. A5. Restless Nights [05:46]
06. B1. Lust Or Love [04:22]
07. B2. Kicks After Six [03:49]
08. B3. Hit Between The Eyes [04:35]
09. B4. Money And Fame [05:07]
10. B5. Crazy World [05:09]
11. B6. Send Me An Angel [04:36]

foobar2000 1.1.18 / Dynamic Range Meter 1.1.1
log date: 2016-09-03 20:39:36

––––––––––––––––––––––––––––––––––––––––
Analyzed: SCORPIONS / Crazy World
––––––––––––––––––––––––––––––––––––––––

DR Peak RMS Duration Track
––––––––––––––––––––––––––––––––––––––––
DR13 -0.39 dB -15.52 dB 4:46 01-A1. Tease Me Please Me
DR13 -0.44 dB -14.77 dB 4:57 02-A2. Don't Believe Her
DR11 -0.88 dB -14.00 dB 4:50 03-A3. To Be With You In Heaven
DR13 -0.75 dB -17.14 dB 5:13 04-A4. Wind Of Change
DR12 -0.73 dB -14.49 dB 5:47 05-A5. Restless Nights
DR12 -0.78 dB -14.02 dB 4:23 06-B1. Lust Or Love
DR12 -0.52 dB -13.94 dB 3:49 07-B2. Kicks After Six
DR13 -0.17 dB -14.97 dB 4:35 08-B3. Hit Between The Eyes
DR12 -1.02 dB -14.84 dB 5:08 09-B4. Money And Fame
DR12 -0.31 dB -13.40 dB 5:09 10-B5. Crazy World
DR12 -2.41 dB -17.50 dB 4:37 11-B6. Send Me An Angel
––––––––––––––––––––––––––––––––––––––––

Number of tracks: 11
Official DR value: DR12

Samplerate: 44100 Hz
Channels: 2
Bits per sample: 16
Bitrate: 927 kbps
Codec: WavPack
================================================================================




Original ripper: Oleg-Leshiy
Original format: 24bit/192kHz
Vinyl Condition: NM
Cleaning:
Direct Drive Turntable: Pioneer PL-7L + ZYX R1000 Airy 3 gold
Cartridge:
Amplifier: PS audio Phono Stage + Tube Preamp (Telefunken)
ADC: TASCAM HS-P82
Postprocessing:

Downsampled to 16/44

Scorpions: Collection (1974 - 2015) [Vinyl Rip 16/44 & mp3-320]

Tracklist VNL13 - Still Loving You:
NL LP 1992 EMI Electrola GmbH • 1C 068-7 98732 1

01. A1. Believe In Love [04:52]
02. A2. Still Loving You [06:11]
03. A3. Walking On The Edge [04:50]
04. A4. Born To Touch Your Feelings [07:20]
05. A5. Lady Starlight [06:21]
06. B1. Wind Of Change [05:13]
07. B2. Is There Anybody There? [04:23]
08. B3. Always Somewhere [04:57]
09. B4. Holiday [06:26]
10. B5. When The Smoke Is Going Down [03:50]
11. B6. Living For Tomorrow (Live) [07:13]

foobar2000 1.1.18 / Dynamic Range Meter 1.1.1
log date: 2016-09-03 20:40:04

––––––––––––––––––––––––––––––––––––––––
Analyzed: SCORPIONS / Still Loving You
––––––––––––––––––––––––––––––––––––––––

DR Peak RMS Duration Track
––––––––––––––––––––––––––––––––––––––––
DR14 -0.23 dB -15.96 dB 4:53 01-A1. Believe In Love
DR14 -0.29 dB -17.11 dB 6:12 02-A2. Still Loving You
DR13 -0.34 dB -16.71 dB 4:50 03-A3. Walking On The Edge
DR15 -0.33 dB -19.97 dB 7:21 04-A4. Born To Touch Your Feelings
DR12 -0.71 dB -16.48 dB 6:22 05-A5. Lady Starlight
DR13 -0.82 dB -16.63 dB 5:13 06-B1. Wind Of Change
DR14 -0.34 dB -16.23 dB 4:23 07-B2. Is There Anybody There?
DR15 -0.47 dB -17.70 dB 4:57 08-B3. Always Somewhere
DR15 -0.34 dB -21.03 dB 6:26 09-B4. Holiday
DR13 -0.18 dB -15.54 dB 3:51 10-B5. When The Smoke Is Going Down
DR12 -1.22 dB -16.00 dB 7:14 11-B6. Living For Tomorrow (Live)
––––––––––––––––––––––––––––––––––––––––

Number of tracks: 11
Official DR value: DR14

Samplerate: 44100 Hz
Channels: 2
Bits per sample: 16
Bitrate: 864 kbps
Codec: WavPack
================================================================================




Original ripper: Oleg-Leshiy
Original format: 24bit/192kHz
Vinyl Condition: Mint
Cleaning:
Direct Drive Turntable: Pioneer PL-7L + ZYX R1000 Airy 3 gold
Cartridge:
Amplifier: PS audio Phono Stage + Tube Preamp (Telefunken)
ADC: TASCAM HS-P82
Postprocessing:

Downsampled to 16/44

Scorpions: Collection (1974 - 2015) [Vinyl Rip 16/44 & mp3-320]

Tracklist VNL14 - Face The Heat:
KR LP 1993 PolyGram Sung Eum Ltd. • 518 280-1

01. A1. Alien Nation [05:43]
02. A2. No Pain No Gain [03:54]
03. A3. Someone To Touch [04:28]
04. A4. Under The Same Sun [04:53]
05. A5. Unholy Alliance [05:17]
06. A6. Woman [05:56]
07. B1. Hate To Be Nice [03:36]
08. B2. Taxman Woman [04:30]
09. B3. Ship Of Fools [04:15]
10. B4. Nightmare Avenue [03:54]
11. B5. Lonely Nights [04:50]
12. B6. Destin [03:16]
13. B7. Daddy's Girl [04:20]

foobar2000 1.1.18 / Dynamic Range Meter 1.1.1
log date: 2016-09-03 20:40:31

––––––––––––––––––––––––––––––––––––––––
Analyzed: SCORPIONS / Face The Heat
––––––––––––––––––––––––––––––––––––––––

DR Peak RMS Duration Track
––––––––––––––––––––––––––––––––––––––––
DR11 -0.30 dB -12.83 dB 5:43 01-A1. Alien Nation
DR12 -0.32 dB -13.53 dB 3:55 02-A2. No Pain No Gain
DR12 -0.49 dB -13.56 dB 4:28 03-A3. Someone To Touch
DR12 -1.50 dB -15.14 dB 4:54 04-A4. Under The Same Sun
DR13 -0.58 dB -14.33 dB 5:18 05-A5. Unholy Alliance
DR12 -1.04 dB -16.58 dB 5:57 06-A6. Woman
DR12 -0.34 dB -14.20 dB 3:36 07-B1. Hate To Be Nice
DR12 -0.86 dB -14.21 dB 4:30 08-B2. Taxman Woman
DR13 -0.62 dB -14.15 dB 4:16 09-B3. Ship Of Fools
DR12 -0.67 dB -13.99 dB 3:54 10-B4. Nightmare Avenue
DR12 -0.81 dB -14.82 dB 4:51 11-B5. Lonely Nights
DR12 -1.21 dB -14.92 dB 3:16 12-B6. Destin
DR13 -2.43 dB -18.79 dB 4:20 13-B7. Daddy's Girl
––––––––––––––––––––––––––––––––––––––––

Number of tracks: 13
Official DR value: DR12

Samplerate: 44100 Hz
Channels: 2
Bits per sample: 16
Bitrate: 933 kbps
Codec: WavPack
================================================================================




Original ripper: Oleg-Leshiy
Original format: 24bit/192kHz
Vinyl Condition: NM
Cleaning:
Direct Drive Turntable: Pioneer PL-7L + ZYX R1000 Airy 3 gold
Cartridge:
Amplifier: PS audio Phono Stage + Tube Preamp (Telefunken)
ADC: TASCAM HS-P82
Postprocessing:

Downsampled to 16/44

Scorpions: Collection (1974 - 2015) [Vinyl Rip 16/44 & mp3-320]

Tracklist VNL15 - Unbreakable:
DE LP 2004 BMG Deutschland GmbH • 82876 56088 1

01. A1. New Generation [05:50]
02. A2. Love'em Or Leave'em [04:04]
03. A3. Deep And Dark [03:39]
04. A4. Borderline [04:53]
05. A5. Blood Too Hot [04:14]
06. B1. Maybe I Maybe You [03:32]
07. B2. Someday Is Now [03:25]
08. B3. Through My Eyes [05:22]
09. B4. Can You Feel It [03:50]
10. B5. She Said [04:41]
11. B6. Remember The Good Times (Retro Garage Mix) [04:26]

foobar2000 1.1.18 / Dynamic Range Meter 1.1.1
log date: 2016-09-03 20:40:53

––––––––––––––––––––––––––––––––––––––––
Analyzed: SCORPIONS / Unbreakable
––––––––––––––––––––––––––––––––––––––––

DR Peak RMS Duration Track
––––––––––––––––––––––––––––––––––––––––
DR11 -0.85 dB -13.27 dB 5:51 01-A1. New Generation
DR11 -0.56 dB -12.70 dB 4:04 02-A2. Love'em Or Leave'em
DR10 -0.39 dB -11.65 dB 3:39 03-A3. Deep And Dark
DR12 -0.66 dB -14.05 dB 4:53 04-A4. Borderline
DR11 -0.95 dB -13.09 dB 4:15 05-A5. Blood Too Hot
DR11 -0.48 dB -15.94 dB 3:32 06-B1. Maybe I Maybe You
DR12 -0.45 dB -13.47 dB 3:25 07-B2. Someday Is Now
DR11 -1.04 dB -14.46 dB 5:22 08-B3. Through My Eyes
DR12 -0.49 dB -13.88 dB 3:51 09-B4. Can You Feel It
DR11 -1.92 dB -14.30 dB 4:41 10-B5. She Said
DR11 -0.28 dB -12.81 dB 4:26 11-B6. Remember The Good Times (Retro Garage Mix)
––––––––––––––––––––––––––––––––––––––––

Number of tracks: 11
Official DR value: DR11

Samplerate: 44100 Hz
Channels: 2
Bits per sample: 16
Bitrate: 945 kbps
Codec: WavPack
================================================================================




Original ripper: Oleg-Leshiy
Original format: 24bit/192kHz
Vinyl Condition: Mint
Cleaning:
Direct Drive Turntable: Pioneer PL-7L + ZYX R1000 Airy 3 gold
Cartridge:
Amplifier: PS audio Phono Stage + Tube Preamp (Telefunken)
ADC: TASCAM HS-P82
Postprocessing:

Downsampled to 16/44

Scorpions: Collection (1974 - 2015) [Vinyl Rip 16/44 & mp3-320]

Tracklist VNL16 - Humanity - Hour I:
DE 2 x LP 2007 Sony BMG Music GmbH • 82876 71419 1

01. A1. Hour I [03:24]
02. A2. The Game Of Life [04:05]
03. A3. We Were Born To Fly [04:02]
04. A4. The Future Never Dies [04:03]
05. B1. You're Lovin' Me To Death [03:15]
06. B2. 321 [03:54]
07. B3. Love Will Keep Us Alive [04:31]
08. B4. We Will Rise Again [03:49]
09. C1. Your Last Song [03:44]
10. C2. Love Is War [04:20]
11. C3. The Cross [04:29]
12. C4. Humanity [05:25]
13. D1. Cold [03:52]
14. D2. Humanity (Radio Edit) [04:06]

foobar2000 1.1.18 / Dynamic Range Meter 1.1.1
log date: 2016-09-03 20:41:20

––––––––––––––––––––––––––––––––––––––––
Analyzed: SCORPIONS / Humanity - Hour I
––––––––––––––––––––––––––––––––––––––––

DR Peak RMS Duration Track
––––––––––––––––––––––––––––––––––––––––
DR10 -0.63 dB -11.99 dB 3:25 01-A1. Hour I
DR10 -0.76 dB -12.74 dB 4:05 02-A2. The Game Of Life
DR10 -0.30 dB -12.36 dB 4:03 03-A3. We Were Born To Fly
DR10 -0.56 dB -13.51 dB 4:04 04-A4. The Future Never Dies
DR10 -1.02 dB -12.64 dB 3:15 05-B1. You're Lovin' Me To Death
DR10 -0.99 dB -12.14 dB 3:54 06-B2. 321
DR11 -0.85 dB -12.91 dB 4:32 07-B3. Love Will Keep Us Alive
DR11 -1.14 dB -14.36 dB 3:50 08-B4. We Will Rise Again
DR11 -1.06 dB -13.13 dB 3:44 09-C1. Your Last Song
DR10 -1.51 dB -13.57 dB 4:20 10-C2. Love Is War
DR11 -1.00 dB -13.43 dB 4:30 11-C3. The Cross
DR11 -0.24 dB -13.89 dB 5:26 12-C4. Humanity
DR10 -0.76 dB -12.82 dB 3:52 13-D1. Cold
DR11 -0.28 dB -13.65 dB 4:06 14-D2. Humanity (Radio Edit)
––––––––––––––––––––––––––––––––––––––––

Number of tracks: 14
Official DR value: DR10

Samplerate: 44100 Hz
Channels: 2
Bits per sample: 16
Bitrate: 945 kbps
Codec: WavPack
================================================================================




Original ripper: Oleg-Leshiy
Original format: 24bit/192kHz
Vinyl Condition: Mint
Cleaning:
Direct Drive Turntable: Pioneer PL-7L + ZYX R1000 Airy 3 gold
Cartridge:
Amplifier: PS audio Phono Stage + Tube Preamp (Telefunken)
ADC: TASCAM HS-P82
Postprocessing:

Downsampled to 16/44

Scorpions: Collection (1974 - 2015) [Vinyl Rip 16/44 & mp3-320]

Tracklist VNL17 - Sting In The Tail:
DE LP 2010 Sony Music GmbH • 88697 59330 1

01. A1. Raised On Rock [03:58]
02. A2. Sting In The Tail [03:12]
03. A3. Slave Me [02:45]
04. A4. The Good Die Young [05:14]
05. A5. No Limit [03:24]
06. A6. Rock Zone [03:17]
07. B1. Lorelei [04:33]
08. B2. Turn You On [04:24]
09. B3. Let's Rock! [03:22]
10. B4. Sly [05:16]
11. B5. Spirit Of Rock [03:42]
12. B6. The Best Is Yet To Come [04:32]

foobar2000 1.1.18 / Dynamic Range Meter 1.1.1
log date: 2016-09-03 20:41:43

––––––––––––––––––––––––––––––––––––––––
Analyzed: SCORPIONS / Sting In The Tail
––––––––––––––––––––––––––––––––––––––––

DR Peak RMS Duration Track
––––––––––––––––––––––––––––––––––––––––
DR11 -0.83 dB -14.78 dB 3:59 01-A1. Raised On Rock
DR12 -1.18 dB -14.86 dB 3:13 02-A2. Sting In The Tail
DR12 -1.63 dB -15.10 dB 2:45 03-A3. Slave Me
DR11 -2.20 dB -15.32 dB 5:14 04-A4. The Good Die Young
DR11 -2.06 dB -14.86 dB 3:24 05-A5. No Limit
DR11 -1.78 dB -14.69 dB 3:17 06-A6. Rock Zone
DR11 -2.35 dB -15.29 dB 4:33 07-B1. Lorelei
DR11 -1.59 dB -14.13 dB 4:25 08-B2. Turn You On
DR12 -1.16 dB -14.58 dB 3:22 09-B3. Let's Rock!
DR11 -1.18 dB -15.89 dB 5:16 10-B4. Sly
DR12 -1.30 dB -15.04 dB 3:42 11-B5. Spirit Of Rock
DR12 -2.15 dB -16.27 dB 4:33 12-B6. The Best Is Yet To Come
––––––––––––––––––––––––––––––––––––––––

Number of tracks: 12
Official DR value: DR12

Samplerate: 44100 Hz
Channels: 2
Bits per sample: 16
Bitrate: 964 kbps
Codec: WavPack
================================================================================




Original ripper: Oleg39
Original format: 24bit/192kHz
Vinyl Condition: Mint
Cleaning:
Direct Drive Turntable: Thorens TD-125 + SME3009 sII imp
Cartridge: Van den Hul Colibri XGW
Amplifier: Yamaha A1 (Class A)
ADC: E-MU 0404 USB (ASIO)
Postprocessing:

Downsampled to 16/44

Scorpions: Collection (1974 - 2015) [Vinyl Rip 16/44 & mp3-320]

Tracklist VNL18 - MTV Unplugged In Athens:
DE 3 x LP 2013 Sony Music GmbH • 88843 00547 1

01. A1. Sting In The Tail [04:26]
02. A2. Can't Live Without You [04:05]
03. A3. Pictured Life [03:56]
04. A4. Speedy's Coming [04:12]
05. B1. Born To Touch Your Feelings [06:18]
06. B2. The Best Is Yet To Come [05:05]
07. B3. Dancing With The Moonlight [03:54]
08. B4. In Trance [04:41]
09. C1. When You Came Into My Life [05:07]
10. C2. Delicate Dance (Matthias Solo) [05:01]
11. C3. Love Is The Answer (Rudolf Solo) [04:28]
12. C4. Folow Your Heart (Klaus Solo) [03:00]
13. C5. Send Me An Angel [03:53]
14. D1. Where The River Flows [04:00]
15. D2. Passion Rules The Game [05:46]
16. D3. Rock You Like A Hurricane [04:58]
17. D4. Hit Between The Eyes [04:46]
18. E1. Rock'n'Roll Band [04:34]
19. E2. Blackout [04:57]
20. E3. Still Loving You [03:42]
21. E4. Big City Nights [04:16]
22. F1. Wind Of Change [05:46]
23. F2. No One Like You [04:38]
24. F3. When The Smoke Is Going Down [03:42]

foobar2000 1.1.18 / Dynamic Range Meter 1.1.1
log date: 2016-09-03 20:42:35

––––––––––––––––––––––––––––––––––––––––
Analyzed: SCORPIONS / MTV Unplugged In Athens
––––––––––––––––––––––––––––––––––––––––

DR Peak RMS Duration Track
––––––––––––––––––––––––––––––––––––––––
DR12 -1.74 dB -16.31 dB 4:26 01-A1. Sting In The Tail
DR13 -0.67 dB -14.65 dB 4:06 02-A2. Can't Live Without You
DR12 -1.62 dB -14.79 dB 3:57 03-A3. Pictured Life
DR12 -1.43 dB -15.37 dB 4:13 04-A4. Speedy's Coming
DR11 -0.75 dB -14.64 dB 6:18 05-B1. Born To Touch Your Feelings
DR13 -1.73 dB -17.12 dB 5:05 06-B2. The Best Is Yet To Come
DR12 -0.95 dB -15.57 dB 3:54 07-B3. Dancing With The Moonlight
DR12 -1.47 dB -16.44 dB 4:41 08-B4. In Trance
DR12 -1.72 dB -17.29 dB 5:07 09-C1. When You Came Into My Life
DR12 -1.43 dB -15.95 dB 5:02 10-C2. Delicate Dance (Matthias Solo)
DR12 -4.37 dB -20.08 dB 4:29 11-C3. Love Is The Answer (Rudolf Solo)
DR12 -6.58 dB -21.58 dB 3:00 12-C4. Folow Your Heart (Klaus Solo)
DR10 -4.80 dB -18.68 dB 3:54 13-C5. Send Me An Angel
DR12 -1.45 dB -16.36 dB 4:01 14-D1. Where The River Flows
DR11 -2.05 dB -16.16 dB 5:46 15-D2. Passion Rules The Game
DR12 -1.19 dB -16.61 dB 4:58 16-D3. Rock You Like A Hurricane
DR12 -0.89 dB -15.30 dB 4:46 17-D4. Hit Between The Eyes
DR13 -0.22 dB -14.79 dB 4:34 18-E1. Rock'n'Roll Band
DR12 -0.41 dB -15.32 dB 4:58 19-E2. Blackout
DR12 -4.85 dB -19.76 dB 3:42 20-E3. Still Loving You
DR12 -1.07 dB -16.81 dB 4:17 21-E4. Big City Nights
DR11 -2.17 dB -16.30 dB 5:46 22-F1. Wind Of Change
DR12 -0.73 dB -15.25 dB 4:39 23-F2. No One Like You
DR12 -2.25 dB -16.49 dB 3:42 24-F3. When The Smoke Is Going Down
––––––––––––––––––––––––––––––––––––––––

Number of tracks: 24
Official DR value: DR12

Samplerate: 44100 Hz
Channels: 2
Bits per sample: 16
Bitrate: 940 kbps
Codec: WavPack
================================================================================




Original ripper: Titura
Original format: 24bit/192kHz
Vinyl Condition: Mint
Cleaning:
Direct Drive Turntable: Kenwood KD 770D
Cartridge: AT 150 MLX
Amplifier: Creek OBH-8SE
ADC: E-MU 0404 USB
Postprocessing:

Downsampled to 16/44

Scorpions: Collection (1974 - 2015) [Vinyl Rip 16/44 & mp3-320]

Tracklist VNL19 - Return To Forever:
DE 2 x LP 2015 Sony Music GmbH • 88875 05912 1

01. A1. Going Out With A Bang [03:47]
02. A2. We Built This House [03:53]
03. A3. Rock My Car [03:20]
04. B1. House Of Cards [05:03]
05. B2. All For One [02:58]
06. B3. Rock'n'Roll Band [03:52]
07. C1. Catch Your Luck And Play [03:33]
08. C2. Rollin' Home [04:03]
09. C3. Hard Rockin' The Place [04:05]
10. D1. Eye Of The Storm [04:27]
11. D2. The Scratch [03:40]
12. D3. Gypsy Life [04:49]

foobar2000 1.1.18 / Dynamic Range Meter 1.1.1
log date: 2016-09-03 20:42:57

––––––––––––––––––––––––––––––––––––––––
Analyzed: SCORPIONS / Return To Forever
––––––––––––––––––––––––––––––––––––––––

DR Peak RMS Duration Track
––––––––––––––––––––––––––––––––––––––––
DR12 -0.65 dB -14.47 dB 3:48 01-A1. Going Out With A Bang
DR11 -1.56 dB -14.87 dB 3:54 02-A2. We Built This House
DR12 -1.20 dB -14.88 dB 3:21 03-A3. Rock My Car
DR12 -3.15 dB -17.53 dB 5:03 04-B1. House Of Cards
DR12 -1.56 dB -15.35 dB 2:59 05-B2. All For One
DR12 -1.51 dB -15.23 dB 3:53 06-B3. Rock'n'Roll Band
DR12 -0.56 dB -14.69 dB 3:34 07-C1. Catch Your Luck And Play
DR12 -2.15 dB -16.33 dB 4:04 08-C2. Rollin' Home
DR12 -0.94 dB -14.53 dB 4:06 09-C3. Hard Rockin' The Place
DR12 -1.12 dB -15.39 dB 4:27 10-D1. Eye Of The Storm
DR12 -1.62 dB -14.77 dB 3:41 11-D2. The Scratch
DR12 -2.22 dB -16.99 dB 4:50 12-D3. Gypsy Life
––––––––––––––––––––––––––––––––––––––––

Number of tracks: 12
Official DR value: DR12

Samplerate: 44100 Hz
Channels: 2
Bits per sample: 16
Bitrate: 901 kbps
Codec: WavPack
================================================================================




Original ripper: JonnyB2502
Original format: 24bit/192kHz
Vinyl Condition: Mint
Cleaning:
Direct Drive Turntable: Music hall mmf-2.2
Cartridge: Goldring 1022GX
Amplifier: Marantz PM7005
ADC: Roland Quad-Capture
Postprocessing:

Downsampled to 16/44

All thanks go to the original releasers



Scorpions or Scorpions in my Blog

Download Scorpions: Collection (1974 - 2015):