Scorpions - Unbreakable (2004)

Posted By: v3122
Scorpions - Unbreakable (2004)

Scorpions - Unbreakable (2004)
EAC | Flac(Image) + Cue + Log & MP3 CBR 320Kbps
BMG 82876-56088-2 | ~ 433 or 136 Mb | Scans(jpg) -> 8.92 Mb
Hard Rock

Unbreakable is the fifteenth studio album by German hard rock band Scorpions, released in 2004. In this release, Scorpions return to the style of music of their most successful albums, after experimenting with many different concepts and influences in the 1990s. This was the first album with Paweł Mąciwoda on bass guitar. Despite critical acclaim and extensive touring of the album, Unbreakable was not a big hit on the charts…

~ wiki
Scorpions - Unbreakable (2004)

Scorpions - Unbreakable (2004):

Scorpions - Unbreakable (2004)

Tracklist:

01. New Generation [05:51]
02. Love 'Em Or Leave 'Em [04:03]
03. Deep And Dark [03:37]
04. Borderline [04:53]
05. Blood Too Hot [04:15]
06. Maybe I Maybe You [03:30]
07. Someday Is Now [03:23]
08. My City My Town [04:55]
09. Through My Eyes [05:23]
10. Can You Feel It [03:47]
11. This Time [03:34]
12. She Said [04:32]
13. Remember The Good Times (Retro Garage Mix) [04:24]

Exact Audio Copy V0.99 prebeta 5 from 4. May 2009

EAC extraction logfile from 6. June 2012, 0:12

Scorpions / Unbreakable

Used drive : ASUS DRW-24B3ST Adapter: 0 ID: 0

Read mode : Secure
Utilize accurate stream : Yes
Defeat audio cache : Yes
Make use of C2 pointers : No

Read offset correction : 6
Overread into Lead-In and Lead-Out : No
Fill up missing offset samples with silence : Yes
Delete leading and trailing silent blocks : No
Null samples used in CRC calculations : Yes
Used interface : Native Win32 interface for Win NT & 2000

Used output format : User Defined Encoder
Selected bitrate : 1024 kBit/s
Quality : High
Add ID3 tag : No
Command line compressor : C:\Program Files (x86)\EAC\WV\wavpack.exe
Additional command line options : -h -hh -m %s %d


TOC of the extracted CD

Track | Start | Length | Start sector | End sector
––––––––––––––––––––––––––––-
1 | 0:00.00 | 5:51.10 | 0 | 26334
2 | 5:51.10 | 4:04.24 | 26335 | 44658
3 | 9:55.34 | 3:39.14 | 44659 | 61097
4 | 13:34.48 | 4:53.35 | 61098 | 83107
5 | 18:28.08 | 4:16.63 | 83108 | 102370
6 | 22:44.71 | 3:32.26 | 102371 | 118296
7 | 26:17.22 | 3:25.61 | 118297 | 133732
8 | 29:43.08 | 4:55.22 | 133733 | 155879
9 | 34:38.30 | 5:23.07 | 155880 | 180111
10 | 40:01.37 | 3:49.65 | 180112 | 197351
11 | 43:51.27 | 3:36.36 | 197352 | 213587
12 | 47:27.63 | 4:42.13 | 213588 | 234750
13 | 52:10.01 | 4:24.22 | 234751 | 254572
14 | 59:06.23 | 6:55.63 | 265973 | 297160


Range status and errors

Selected range

Filename G:\SCORPIONS\2004- Unbreakable (DE 2004 BMG Deutschland GmbH • 82876 56088 2)\Scorpions - Unbreakable.wav

Peak level 99.9 %
Range quality 100.0 %
Test CRC 8CDBDCD7
Copy CRC 8CDBDCD7
Copy OK

No errors occurred


AccurateRip summary

Track 1 accurately ripped (confidence 2) [F88791D5]
Track 2 accurately ripped (confidence 2) [23140FD5]
Track 3 accurately ripped (confidence 2) [54A9E78F]
Track 4 accurately ripped (confidence 2) [388D1C36]
Track 5 accurately ripped (confidence 2) [C5F2EEC3]
Track 6 accurately ripped (confidence 2) [87F4FF39]
Track 7 accurately ripped (confidence 2) [C0C92339]
Track 8 accurately ripped (confidence 2) [A2D66D83]
Track 9 accurately ripped (confidence 2) [FCF6B986]
Track 10 accurately ripped (confidence 2) [C1ECF4FC]
Track 11 accurately ripped (confidence 2) [3FA35986]
Track 12 accurately ripped (confidence 2) [EF0BA0FE]
Track 13 accurately ripped (confidence 2) [F09044D8]

All tracks accurately ripped

End of status report


[CUETools log; Date: 14.11.2017 21:28:01; Version: 2.1.5]
CD-Extra data track length 06:55:63.
CDDBId mismatch: B00D420D vs C40F7A0E
[AccurateRip ID: 001c347d-011a6bbe-c40f7a0e] found.
Track [ CRC | V2 ] Status
01 [f88791d5|67f38d75] (24+11/46) Accurately ripped
02 [23140fd5|d54794e7] (24+11/46) Accurately ripped
03 [54a9e78f|b44b2a7e] (24+10/45) Accurately ripped
04 [388d1c36|4b34531b] (24+10/45) Accurately ripped
05 [c5f2eec3|c7a4c863] (24+10/45) Accurately ripped
06 [87f4ff39|59cde93b] (24+10/45) Accurately ripped
07 [c0c92339|ac9566b2] (24+10/45) Accurately ripped
08 [a2d66d83|2f6835d6] (24+10/45) Accurately ripped
09 [fcf6b986|db996e3d] (24+10/45) Accurately ripped
10 [c1ecf4fc|6c2d1a88] (24+10/45) Accurately ripped
11 [3fa35986|4ad5ba2f] (23+10/44) Accurately ripped
12 [ef0ba0fe|47e7c654] (24+10/45) Accurately ripped
13 [f09044d8|5e285803] (23+09/43) Accurately ripped
Offsetted by -664:
01 [0ed249e2] (04/46) Accurately ripped
02 [b5f86e83] (04/46) Accurately ripped
03 [b0107e13] (04/45) Accurately ripped
04 [7689362f] (04/45) Accurately ripped
05 [502faf65] (04/45) Accurately ripped
06 [50a777c0] (04/45) Accurately ripped
07 [1ea5dba7] (04/45) Accurately ripped
08 [b369d0d5] (04/45) Accurately ripped
09 [1a5ae67d] (04/45) Accurately ripped
10 [e9b1d210] (04/45) Accurately ripped
11 [96341c07] (04/44) Accurately ripped
12 [52b6db6b] (04/45) Accurately ripped
13 [f0e713a6] (04/43) Accurately ripped
Offsetted by 578:
01 [6c17a4c0] (02/46) Accurately ripped
02 [90e14a60] (02/46) Accurately ripped
03 [202c49a6] (02/45) Accurately ripped
04 [2cb1a251] (02/45) Accurately ripped
05 [8b339c7f] (02/45) Accurately ripped
06 [370b1793] (02/45) Accurately ripped
07 [dc2473af] (02/45) Accurately ripped
08 [340fd8d8] (02/45) Accurately ripped
09 [b18d1af4] (02/45) Accurately ripped
10 [44888af7] (02/45) Accurately ripped
11 [7c00e009] (02/44) Accurately ripped
12 [3c0983a7] (02/45) Accurately ripped
13 [96a80d9c] (02/43) Accurately ripped

Track Peak [ CRC32 ] [W/O NULL] [ LOG ]
– 99,9 [8CDBDCD7] [2FF0098D] CRC32
01 99,9 [948C2CAA] [CEFA5218]
02 99,9 [7C765DD7] [2402D715]
03 99,9 [C1A3C432] [854BB3B7]
04 99,9 [681F7809] [0F2ADB6C]
05 99,9 [6DDE1461] [03ED27C3]
06 99,9 [DB76C45D] [3C0899EF]
07 99,9 [46ECC96A] [143C9743]
08 99,9 [61A3FECF] [BC95B60F]
09 99,9 [844BA8CB] [264761DB]
10 99,9 [26F911D0] [68544A96]
11 99,9 [E719BCDB] [26E50A48]
12 99,9 [259AFA42] [A0C59E20]
13 99,9 [2759AB75] [E7BF98CF]


Scorpions - Unbreakable (2004)

All thanks go to the original releaser

Scorpions or Scorpions in my Blog

Download Scorpions - Unbreakable (2004):