Subcategories

ShadowKeep - ShadowKeep (2018)

Posted By: Andi_Deris
ShadowKeep - ShadowKeep (2018)

ShadowKeep - ShadowKeep (2018)
EAC Rip | FLAC: Image+Cue+Log | MP3 CBR 320 kbps | Scans
396 Mb | 127 Mb | 28 Mb | Time: 55:01
Pure Steel Records | PSRCD157
Heavy Metal, Progressive Power Metal

10 years SHADOWKEEP fans waited for a new album. 2018 the band is now striking back with a new singer and a new album. Nobody else than James Rivera from HELSTAR joined the quintet from England! So it is no wonder that the image of SHADOWKEEP will change now a little bit.

In the past SHADOWKEEP were compared with the more progressive QUEENSRŸCHE or CRIMSON GLORY. The Comeback album will go more into the direction of classic 80's US-Metal, because James Rivera and his remarkable voice is putting his stamp on the eleven fresh songs, so that the listener is reminded of the beautiful days of HELSTAR, DESTINY'S END or NEW EDEN.

ShadowKeep - ShadowKeep (2018)




Track Listing

01. Atlantis (01:50)
02. Guardian Of The Sea (05:20)
03. Flight Across The Sand (07:56)
04. Horse Of War (05:08)
05. Little Lion (02:35)
06. Angels And Omens (05:23)
07. Isolation (04:22)
08. Never Forgotten (03:07)
09. The Sword Of Damocles (03:43)
10. Immortal Drifter (06:09)
11. Minotaur (09:27)

Produced by ShadowKeep

The Band

• James Rivera - vocals
• Chris Allen - guitars
• Stony Grantham - bass
• Omar Hayes - drums
• Nikki Robson - guitars

Exact Audio Copy V1.3 from 2. September 2016

EAC extraction logfile from 13. April 2018, 21:03

Shadowkeep / Shadowkeep

Used drive : ATAPI iHAS122 W Adapter: 2 ID: 0

Read mode : Secure
Utilize accurate stream : Yes
Defeat audio cache : Yes
Make use of C2 pointers : No

Read offset correction : 48
Overread into Lead-In and Lead-Out : No
Fill up missing offset samples with silence : Yes
Delete leading and trailing silent blocks : No
Null samples used in CRC calculations : Yes
Used interface : Installed external ASPI interface

Used output format : User Defined Encoder
Selected bitrate : 1024 kBit/s
Quality : High
Add ID3 tag : No
Command line compressor : C:\Program Files\FLAC\flac.exe
Additional command line options : -V -8 -T "Date=%year%" -T "Genre=%genre%" -T"COMMENT=Ripped by Ilijan" -8 -V %source%


TOC of the extracted CD

Track | Start | Length | Start sector | End sector
––––––––––––––––––––––––––––-
1 | 0:00.00 | 1:50.32 | 0 | 8281
2 | 1:50.32 | 5:20.04 | 8282 | 32285
3 | 7:10.36 | 7:56.19 | 32286 | 68004
4 | 15:06.55 | 5:08.26 | 68005 | 91130
5 | 20:15.06 | 2:35.16 | 91131 | 102771
6 | 22:50.22 | 5:22.60 | 102772 | 126981
7 | 28:13.07 | 4:21.54 | 126982 | 146610
8 | 32:34.61 | 3:07.17 | 146611 | 160652
9 | 35:42.03 | 3:42.50 | 160653 | 177352
10 | 39:24.53 | 6:08.48 | 177353 | 205000
11 | 45:33.26 | 9:26.54 | 205001 | 247504


Range status and errors

Selected range

Filename D:\Shadowkeep - Shadowkeep.wav

Peak level 95.9 %
Extraction speed 3.8 X
Range quality 99.9 %
Test CRC 620D14A4
Copy CRC 620D14A4
Copy OK

No errors occurred


AccurateRip summary

Track 1 not present in database
Track 2 not present in database
Track 3 not present in database
Track 4 not present in database
Track 5 not present in database
Track 6 not present in database
Track 7 not present in database
Track 8 not present in database
Track 9 not present in database
Track 10 not present in database
Track 11 not present in database

None of the tracks are present in the AccurateRip database

End of status report

–– CUETools DB Plugin V2.1.6

[CTDB TOCID: Ed54XH1zUMcnnWep1Hi1yEEu89E-] found
Submit result: Ed54XH1zUMcnnWep1Hi1yEEu89E- has been confirmed
Track | CTDB Status
1 | (3/3) Accurately ripped
2 | (3/3) Accurately ripped
3 | (3/3) Accurately ripped
4 | (3/3) Accurately ripped
5 | (3/3) Accurately ripped
6 | (3/3) Accurately ripped
7 | (3/3) Accurately ripped
8 | (3/3) Accurately ripped
9 | (3/3) Accurately ripped
10 | (3/3) Accurately ripped
11 | (3/3) Accurately ripped


==== Log checksum 076D9B5AABF0A6564238CFADE44C5ED86425F9B5AD9C8B1296D4458AA18DA1D6 ====


Many thanks to the original uploader: Ilijan



Password: pass