Subcategories

Stan Kenton And His Orchestra - 1945 (1996)

Posted By: gribovar
Stan Kenton And His Orchestra - 1945 (1996)

Stan Kenton And His Orchestra - 1945 (1996)
EAC Rip | FLAC (image+.cue+log) - 265 MB | MP3 CBR 320 kbps (LAME 3.93) - 164 MB | Covers (7 MB) included
Genre: Jazz, Big Band | RAR 3% Rec. | Label: Classics Records (CLASSICS 898)

Volume two in the Classics Stan Kenton chronology presents all of his Capitol and V-Disc recordings made between January 16 and December 26, 1945, with a pair of initially rejected Gene Howard vocal sides from 1944 tossed in as bonus tracks, out of sequence, like an afterthought. Singers would now become an increasingly important ingredient in the postwar entertainment industry. At the beginning of 1945, Kenton's featured female vocalist was sultry Anita O'Day, who later explained with characteristic gut level honesty why she quit after the session of January 16: "The band was great - but it wasn't a swing band." June Christy began her own recording career with "Tampico" on May 4 after carefully studying the recordings of O'Day, who must have been a tough act to follow. There were occasional bouts of crooning from Gene Howard, and a Roy Eldridge disciple named Ray Wetzel sang and blew his trumpet on "I'm a Shy Guy." Kenton himself was one of four voices used on "I Been Down in Texas," an overbearing, embarrassingly contrived, campy combination of bop caricature and western novelty, grossly cluttered with imitation hepcat vernacular and hyped-up corn. On the more authentically hip side of things, "Around the Town," "Southern Scandal," "Opus in Pastels" and "Painted Rhythm" are among the better instrumental tracks from this part of the Kenton discography. Already the arrangements indicate the influence of Duke Ellington, Dizzy Gillespie, Buster Harding, Earl Hines and the Billy Eckstine Orchestra. With all of the innovations circulating in the air at that time, it was Kenton's steadily expanding ensemble that attracted much of the attention with its "modern" angularities, shrill brass and bop-flavored charts. Kenton's sax section continued to morph during this period; Stan Getz split around the same time as O'Day and Kenton's old running buddy Vido Musso was back with the band on October 15.
Tracklist:
01. Ooh What I Dreamed About You
02. I Want A Grown-Up Man
03. Travelin' Man
04. Around The Town
05. Tampico
06. Southern Scandal
07. Opus In Pastels
08. It's Been A Long Long Time
09. Don't Let Me Dream
10. That's The Stuff You Gotta Watch
11. Southern Scandal
12. Ride On
13. I'm A shy Guy
14. I Never Thought I'd Sing The Blues
15. Are You Livin' Old Man
16. Just A-Sittin' And A-Rockin'
17. Just A-Sittin' And A-Rockin'
18. Artistry Jumps
19. Painted Rhythm
20. Shoo Fly Pie and Apple Pan Dowdy
21. I Been Down In Texas
22. She's Funny That Way
23. Say it Isn't so

Total time: 01:06:19

EAC extraction logfile from 5. January 2008, 21:43 for CD
Stan Kenton / 1945

Used drive : LITE-ON CD-ROM LTN-527T Adapter: 1 ID: 1
Read mode : Secure with NO C2, accurate stream, disable cache
Read offset correction : 12
Overread into Lead-In and Lead-Out : Yes

Used output format : C:\Program Files\FLAC\flac.exe (User Defined Encoder)
320 kBit/s
Additional command line options : -V -8 -T "artist=%a" -T "title=%t" -T "album=%g" -T "date=%y" -T "tracknumber=%n" -T "genre=%m" %s

Other options :
Fill up missing offset samples with silence : Yes
Delete leading and trailing silent blocks : No
Installed external ASPI interface


Range status and errors
Selected range
Filename F:\Win-Rar\Stan Kenton - 1945 (Chronogical Classics)[FLAC Full Scans]\Stan Kenton - 1945.wav.wav.wav

Peak level 100.0 %
Range quality 100.0 %
CRC 65FFC500
Copy OK

No errors occured

End of status report

[CUETools log; Date: 14.06.2018 12:15:16; Version: 2.1.4]
Pregap length 00:00:32.
[CTDB TOCID: F6rNAAPF_5Va0Zs_sTAWehlTDLg-] found.
Track | CTDB Status
1 | (4/4) Accurately ripped
2 | (4/4) Accurately ripped
3 | (4/4) Accurately ripped
4 | (4/4) Accurately ripped
5 | (4/4) Accurately ripped
6 | (4/4) Accurately ripped
7 | (4/4) Accurately ripped
8 | (4/4) Accurately ripped
9 | (4/4) Accurately ripped
10 | (4/4) Accurately ripped
11 | (4/4) Accurately ripped
12 | (4/4) Accurately ripped
13 | (4/4) Accurately ripped
14 | (4/4) Accurately ripped
15 | (4/4) Accurately ripped
16 | (4/4) Accurately ripped
17 | (4/4) Accurately ripped
18 | (4/4) Accurately ripped
19 | (4/4) Accurately ripped
20 | (4/4) Accurately ripped
21 | (4/4) Accurately ripped
22 | (4/4) Accurately ripped
23 | (4/4) Accurately ripped
[AccurateRip ID: 0036419e-0388fed2-520f8b17] found.
Track [ CRC | V2 ] Status
01 [dd5faeda|c35a856f] (1+1/2) Accurately ripped
02 [f6436c1f|b3ad37b8] (1+1/2) Accurately ripped
03 [645dec7d|0e4410dd] (1+1/2) Accurately ripped
04 [c6bc3348|6e1ea79d] (1+1/2) Accurately ripped
05 [817f0272|3b4db285] (1+1/2) Accurately ripped
06 [0e44a47d|c32e476c] (1+1/2) Accurately ripped
07 [1654f508|bb0bbaab] (1+1/2) Accurately ripped
08 [25e7ec54|44268464] (1+1/2) Accurately ripped
09 [a33038ff|de195b23] (1+1/2) Accurately ripped
10 [5eafab0e|be2e74ab] (1+1/2) Accurately ripped
11 [89e30639|ab05f4f2] (1+1/2) Accurately ripped
12 [b0470323|f8f52f6a] (1+1/2) Accurately ripped
13 [5dd8dba3|c6cbb35a] (1+1/2) Accurately ripped
14 [ff342dbe|5bd43ca1] (1+1/2) Accurately ripped
15 [e6f98df9|4c0337c1] (1+1/2) Accurately ripped
16 [c1edcd38|1bd7ba4f] (1+1/2) Accurately ripped
17 [c039f888|8dfb6bfe] (1+1/2) Accurately ripped
18 [acb54736|118d3650] (1+1/2) Accurately ripped
19 [9c4d8b2d|9dd3abbc] (1+1/2) Accurately ripped
20 [9920d21b|cd84ba9c] (1+1/2) Accurately ripped
21 [f20844fc|9f39edab] (1+1/2) Accurately ripped
22 [555ea204|f5dd23dc] (1+1/2) Accurately ripped
23 [ac8befc8|f34e15e3] (1+1/2) Accurately ripped

Track Peak [ CRC32 ] [W/O NULL] [ LOG ]
– 100,0 [65FFC500] [CA1C2A66] CRC32
01 95,1 [F56E01F3] [5C18B7DA]
02 93,8 [462F6332] [27A2B7B0]
03 98,5 [FF88433C] [6CEEEB19]
04 97,7 [284E128A] [8009A665]
05 99,8 [FCA7B57F] [0D986976]
06 97,3 [1DD94DCE] [6D22573A]
07 96,8 [E4457F6C] [862E90F1]
08 85,6 [21C9CA58] [62CCFBDB]
09 75,4 [A30C4CE8] [1DB120A1]
10 99,9 [C1BBAAFE] [111C947D]
11 99,9 [86788624] [5696AA45]
12 100,0 [8928E861] [3B61ACD5]
13 99,9 [2C7421B6] [C4B91E06]
14 99,9 [33C5E81A] [DE6A87F8]
15 100,0 [253EDC2D] [77BFF76F]
16 99,9 [7B3495D6] [D6C4729E]
17 92,2 [A08061CD] [59CE43B8]
18 72,2 [289209EF] [42E6F9CC]
19 93,1 [F4EA3B83] [95AC4B00]
20 84,2 [8D3E51B9] [0B2884F5]
21 86,7 [A01684D1] [895226AF]
22 80,6 [C88BE441] [1E2594D0]
23 69,9 [7A17DC5D] [2E76DD30]

Thanks to Mazeppa

See also:
Stan Kenton And His Orchestra - 1940-1944 (1995)