Subcategories

The Poll Winners: Barney Kessei with Shelly Manne and Ray Brown - s/t (1957) {2000 20bit K2 Super Coding} **[RE-UP]**

Posted By: TestTickles
The Poll Winners: Barney Kessei with Shelly Manne and Ray Brown - s/t (1957) {2000 20bit K2 Super Coding} **[RE-UP]**

The Poll Winners: Barney Kessei with Shelly Manne and Ray Brown - s/t (1957) [FLAC] {2000 20bit K2 Super Coding}
EAC Rip | FLAC with CUE and log | scans | 238 mb
MP3 CBR 320kbps | RAR | 117 mb
Genre: jazz

The Poll Winners consist of Barney Kessei, Shelly Manne and Ray Brown. The album was released on the Contemporary label. This CD pressing from 2000 is the 20bit K2 Super Coding pressing released by Fantasy.

The Poll Winners: Barney Kessei with Shelly Manne and Ray Brown - s/t (1957) {2000 20bit K2 Super Coding} **[RE-UP]**

1. Jordu
2. Satin Doll
3. It Could Happen To You
4. Mean To Me
5. Don't Worry 'bout Me
6. On Green Dolphin Street
7. You Go To My Head
8. Minor Mood
9. Nagasaki

EAC extraction logfile from 16. September 2007, 8:13 for CD
The Poll Winners / The Poll Winners (20bit K2)

Used drive : LITE-ON DVDRW SOHW-1633S Adapter: 0 ID: 0
Read mode : Secure with NO C2, accurate stream, disable cache
Read offset correction : 12
Overread into Lead-In and Lead-Out : No

Used output format : Internal WAV Routines
44.100 Hz; 16 Bit; Stereo

Other options :
Fill up missing offset samples with silence : Yes
Delete leading and trailing silent blocks : No
Installed external ASPI interface


Track 1
Filename D:\FLAC\The Poll Winners - s-t (1957) [FLAC] {2000 20bit K2 Super Coding}\01 - Jordu.wav

Pre-gap length 0:00:02.00

Peak level 93.9 %
Track quality 99.9 %
Test CRC 16126454
Copy CRC 16126454
Copy OK

Track 2
Filename D:\FLAC\The Poll Winners - s-t (1957) [FLAC] {2000 20bit K2 Super Coding}\02 - Satin Doll.wav

Pre-gap length 0:00:01.40

Peak level 94.0 %
Track quality 100.0 %
Test CRC BFC64D9E
Copy CRC BFC64D9E
Copy OK

Track 3
Filename D:\FLAC\The Poll Winners - s-t (1957) [FLAC] {2000 20bit K2 Super Coding}\03 - It Could Happen To You.wav

Pre-gap length 0:00:02.89

Peak level 94.0 %
Track quality 100.0 %
Test CRC 79D99153
Copy CRC 79D99153
Copy OK

Track 4
Filename D:\FLAC\The Poll Winners - s-t (1957) [FLAC] {2000 20bit K2 Super Coding}\04 - Mean To Me.wav

Pre-gap length 0:00:02.66

Peak level 93.9 %
Track quality 100.0 %
Test CRC 277070CF
Copy CRC 277070CF
Copy OK

Track 5
Filename D:\FLAC\The Poll Winners - s-t (1957) [FLAC] {2000 20bit K2 Super Coding}\05 - Don't Worry 'bout Me.wav

Pre-gap length 0:00:03.04

Peak level 93.9 %
Track quality 100.0 %
Test CRC 95CAC7AB
Copy CRC 95CAC7AB
Copy OK

Track 6
Filename D:\FLAC\The Poll Winners - s-t (1957) [FLAC] {2000 20bit K2 Super Coding}\06 - On Green Dolphin Street.wav

Pre-gap length 0:00:01.84

Peak level 93.9 %
Track quality 100.0 %
Test CRC 063B898F
Copy CRC 063B898F
Copy OK

Track 7
Filename D:\FLAC\The Poll Winners - s-t (1957) [FLAC] {2000 20bit K2 Super Coding}\07 - You Go To My Head.wav

Pre-gap length 0:00:02.20

Peak level 94.0 %
Track quality 100.0 %
Test CRC 94163AD1
Copy CRC 94163AD1
Copy OK

Track 8
Filename D:\FLAC\The Poll Winners - s-t (1957) [FLAC] {2000 20bit K2 Super Coding}\08 - Minor Mood.wav

Pre-gap length 0:00:02.20

Peak level 93.9 %
Track quality 100.0 %
Test CRC 1AFD93FC
Copy CRC 1AFD93FC
Copy OK

Track 9
Filename D:\FLAC\The Poll Winners - s-t (1957) [FLAC] {2000 20bit K2 Super Coding}\09 - Nagasaki.wav

Pre-gap length 0:00:02.80

Peak level 94.0 %
Track quality 100.0 %
Test CRC B9BFE9B2
Copy CRC B9BFE9B2
Copy OK

No errors occured


End of status report


The Poll Winners: Barney Kessei with Shelly Manne and Ray Brown - s/t (1957) {2000 20bit K2 Super Coding} **[RE-UP]**