Subcategories

Ted Heath - The Perfectionist (2007)

Posted By: gribovar
Ted Heath - The Perfectionist (2007)

Ted Heath - The Perfectionist (2007)
EAC Rip | FLAC (image+.cue+log) - 477 MB | MP3 CBR 320 kbps (LAME 3.93) - 252 MB | Covers - 46 MB
Genre: Jazz, Big Band, Swing | RAR 3% Rec. | Label: Delta Leisure Group/Performance (38274)

Ted Heath was the greatest of Britain's 1950s big band leaders. This double album of beautifully arranged and masterfully performed recordings were among the last that Heath made before his death in 1969. Although he was always known for tightly controlling all aspects of the performance and not allowing improvisation, these recordings explode with a vitality and verve that exemplifies the quality of his musicians. Ted Heath's undoubted mastery of the dynamics of the big band is demonstrated here; he never settled for second best - hence the title of this album.
CD 1 Tracklist:
01. Mack the Knife
02. Autumn Leaves
03. Sabre Dance
04. Stranger in Paradise
05. Shish Kebab
06. My Favorite Things
07. It Ain't Necessarily So
08. Charleston
09. Fever
10. Frog March
11. South Rampart Street Parade
12. Mood Indigo
13. Patterns in Jazz
14. Lullaby of the Leaves
15. Tom Hark
16. Ill Wind
17. Sophisticated Lady
18. Fascinating Rhythm
19. London Bridge Is Falling Down
20. Johnny One Note

Total time: 51:15

CD 2 Tracklist:
01. Wailing Boat
02. That's Walking
03. Blues in the Night
04. The Carioca
05. Ring Dem Bells
06. Cradle Love
07. Entry of the Gladiators
08. Surrey with the Fringe on Top
09. Skin Deep
10. That Old Time Religion
11. Harlem Nocturne
12. Tin Roof Blues
13. Mighty Like a Rose
14. Bags' Groove
15. Boy Next Door
16. Honky Tonk Train Blues
17. Peter Gunn
18. Memphis Blues
19. Topsy
20. Kings Cross Climax

Total time: 55:52

Exact Audio Copy V1.0 beta 3 from 29. August 2011

EAC extraction logfile from 5. July 2013, 23:59

Ted Heath / The Perfectionist CD1

Used drive : ASUS DRW-24B1LT Adapter: 5 ID: 1

Read mode : Secure
Utilize accurate stream : Yes
Defeat audio cache : Yes
Make use of C2 pointers : No

Read offset correction : 6
Overread into Lead-In and Lead-Out : No
Fill up missing offset samples with silence : Yes
Delete leading and trailing silent blocks : No
Null samples used in CRC calculations : Yes
Used interface : Native Win32 interface for Win NT & 2000

Used output format : User Defined Encoder
Selected bitrate : 768 kBit/s
Quality : High
Add ID3 tag : No
Command line compressor : C:\Program Files\Exact Audio Copy\Flac\flac.exe
Additional command line options : -8 -V -T "ARTIST=%artist%" -T "TITLE=%title%" -T "ALBUM=%albumtitle%" -T "DATE=%year%" -T "TRACKNUMBER=%tracknr%" -T "TOTALTRACKS=%numtracks%" -T "GENRE=%genre%" -T "ALBUMARTIST=%albumartist%" -T "ALBUM ARTIST=%albumartist%" -T "COMMENT=EAC Secure Mode, Test & Copy, AccurateRip, FLAC -8" %source%


TOC of the extracted CD

Track | Start | Length | Start sector | End sector
––––––––––––––––––––––––––––-
1 | 0:00.00 | 2:20.19 | 0 | 10518
2 | 2:20.19 | 2:12.17 | 10519 | 20435
3 | 4:32.36 | 2:08.20 | 20436 | 30055
4 | 6:40.56 | 2:56.41 | 30056 | 43296
5 | 9:37.22 | 2:32.56 | 43297 | 54752
6 | 12:10.03 | 2:06.50 | 54753 | 64252
7 | 14:16.53 | 3:48.19 | 64253 | 81371
8 | 18:04.72 | 2:14.65 | 81372 | 91486
9 | 20:19.62 | 3:22.73 | 91487 | 106709
10 | 23:42.60 | 2:23.73 | 106710 | 117507
11 | 26:06.58 | 2:24.71 | 117508 | 128378
12 | 28:31.54 | 2:54.44 | 128379 | 141472
13 | 31:26.23 | 2:02.54 | 141473 | 150676
14 | 33:29.02 | 2:53.07 | 150677 | 163658
15 | 36:22.09 | 2:08.19 | 163659 | 173277
16 | 38:30.28 | 2:25.58 | 173278 | 184210
17 | 40:56.11 | 3:07.32 | 184211 | 198267
18 | 44:03.43 | 2:22.39 | 198268 | 208956
19 | 46:26.07 | 2:28.11 | 208957 | 220067
20 | 48:54.18 | 2:21.00 | 220068 | 230642


Range status and errors

Selected range

Filename F:\audio\Ted Heath - The Perfectionist CD1.wav

Peak level 100.0 %
Extraction speed 5.6 X
Range quality 100.0 %
Test CRC 0B75D259
Copy CRC 0B75D259
Copy OK

No errors occurred


AccurateRip summary

Track 1 not present in database
Track 2 not present in database
Track 3 not present in database
Track 4 not present in database
Track 5 not present in database
Track 6 not present in database
Track 7 not present in database
Track 8 not present in database
Track 9 not present in database
Track 10 not present in database
Track 11 not present in database
Track 12 not present in database
Track 13 not present in database
Track 14 not present in database
Track 15 not present in database
Track 16 not present in database
Track 17 not present in database
Track 18 not present in database
Track 19 not present in database
Track 20 not present in database

None of the tracks are present in the AccurateRip database

End of status report

–– CUETools DB Plugin V2.1.3

[CTDB TOCID: xR2hNTY38ULpBkbQkiXHVAlM7rw-] disk not present in database, Submit result: xR2hNTY38ULpBkbQkiXHVAlM7rw- has been uploaded


==== Log checksum F0573D974F4255092CFA54AB60609606D5297A2229EACDC07FBAB16995FC554F ====

[CUETools log; Date: 10.07.2018 9:34:04; Version: 2.1.4]
[CTDB TOCID: xR2hNTY38ULpBkbQkiXHVAlM7rw-] found.
Track | CTDB Status
1 | (6/6) Accurately ripped
2 | (6/6) Accurately ripped
3 | (6/6) Accurately ripped
4 | (6/6) Accurately ripped
5 | (6/6) Accurately ripped
6 | (6/6) Accurately ripped
7 | (6/6) Accurately ripped
8 | (6/6) Accurately ripped
9 | (6/6) Accurately ripped
10 | (6/6) Accurately ripped
11 | (6/6) Accurately ripped
12 | (6/6) Accurately ripped
13 | (6/6) Accurately ripped
14 | (6/6) Accurately ripped
15 | (6/6) Accurately ripped
16 | (6/6) Accurately ripped
17 | (6/6) Accurately ripped
18 | (6/6) Accurately ripped
19 | (5/6) Accurately ripped
20 | (5/6) Accurately ripped
[AccurateRip ID: 0024ed24-02202dfd-180c0314] found.
Track [ CRC | V2 ] Status
01 [7a5c1b88|4d49b015] (0+2/4) Accurately ripped
02 [eae52174|bcdd5132] (0+2/4) Accurately ripped
03 [8afd12a0|b8a4133a] (0+2/4) Accurately ripped
04 [cdf46f5d|178a76f5] (0+2/4) Accurately ripped
05 [235ffc10|871dce70] (0+2/4) Accurately ripped
06 [bcdc506c|fbbbf7f6] (0+2/4) Accurately ripped
07 [a560571f|764129e4] (0+2/4) Accurately ripped
08 [bcbc35d0|36ed9d67] (0+2/4) Accurately ripped
09 [76e66cc4|ecc11c36] (0+2/4) Accurately ripped
10 [cb6e160e|724706a5] (0+2/4) Accurately ripped
11 [c0527622|9fa8224a] (0+2/4) Accurately ripped
12 [6a973036|f43bfa13] (0+2/4) Accurately ripped
13 [1a26c828|6a05713f] (0+2/4) Accurately ripped
14 [73b81f79|d5e93419] (0+2/4) Accurately ripped
15 [d6653239|b4a6305d] (0+2/4) Accurately ripped
16 [80fb9878|1ac0aaec] (0+2/4) Accurately ripped
17 [915483a9|f7d1284f] (0+2/4) Accurately ripped
18 [40933dc5|84ad335d] (0+2/4) Accurately ripped
19 [b0b98d13|823a2912] (0+2/4) Accurately ripped
20 [e66de5c4|86ae8589] (0+2/4) Accurately ripped
Offsetted by 30:
01 [7b9f5a98] (0/4) No match (V2 was not tested)
02 [3c999284] (0/4) No match (V2 was not tested)
03 [de1bc6fe] (0/4) No match (V2 was not tested)
04 [ba095fdb] (0/4) No match (V2 was not tested)
05 [c9291ae4] (0/4) No match (V2 was not tested)
06 [997360ba] (0/4) No match (V2 was not tested)
07 [efe528e5] (0/4) No match (V2 was not tested)
08 [0e361062] (0/4) No match (V2 was not tested)
09 [ec073e16] (0/4) No match (V2 was not tested)
10 [fb2bf718] (0/4) No match (V2 was not tested)
11 [1b405cf2] (0/4) No match (V2 was not tested)
12 [bdaad9fa] (0/4) No match (V2 was not tested)
13 [ce46d34a] (0/4) No match (V2 was not tested)
14 [159376bf] (0/4) No match (V2 was not tested)
15 [152f53fd] (0/4) No match (V2 was not tested)
16 [6bbffcf8] (0/4) No match (V2 was not tested)
17 [34847ea9] (0/4) No match (V2 was not tested)
18 [de5dd7e3] (0/4) No match (V2 was not tested)
19 [4ffcb653] (0/4) No match (V2 was not tested)
20 [a20fbb62] (0/4) No match (V2 was not tested)

Track Peak [ CRC32 ] [W/O NULL] [ LOG ]
– 100,0 [0B75D259] [D83B7A56] CRC32
01 87,1 [5E2DEA54] [4D9F4FA5]
02 100,0 [FA9320DB] [A5B1F501]
03 100,0 [BDC54FD3] [2B1D01A0]
04 100,0 [A9BAF478] [CC0296B9]
05 100,0 [D581FE49] [067BCB77]
06 100,0 [546FD5E0] [4B23C498]
07 84,9 [90C10AEF] [87B95C35]
08 100,0 [CE0B7844] [7839C61D]
09 100,0 [E28ECC5C] [48E90B87]
10 91,2 [387CA094] [7CD8E207]
11 99,7 [F529CC61] [A8C70F42]
12 98,6 [095F4966] [6C389EAC]
13 89,1 [5F7BFF1A] [EC49B6A7]
14 99,0 [A19ED687] [B8D1464A]
15 90,1 [CFF4DFE4] [9263B5D9]
16 88,9 [E3CC1F2E] [484FEB80]
17 89,3 [9C33F01B] [BF694BDF]
18 88,9 [178CFB87] [BBD91F63]
19 89,3 [15168B6D] [0D6C009C]
20 92,9 [F91B669B] [1A7CAF80]

Exact Audio Copy V1.0 beta 3 from 29. August 2011

EAC extraction logfile from 6. July 2013, 0:30

Ted Heath / The Perfectionist CD2

Used drive : ASUS DRW-24B1LT Adapter: 5 ID: 1

Read mode : Secure
Utilize accurate stream : Yes
Defeat audio cache : Yes
Make use of C2 pointers : No

Read offset correction : 6
Overread into Lead-In and Lead-Out : No
Fill up missing offset samples with silence : Yes
Delete leading and trailing silent blocks : No
Null samples used in CRC calculations : Yes
Used interface : Native Win32 interface for Win NT & 2000

Used output format : User Defined Encoder
Selected bitrate : 768 kBit/s
Quality : High
Add ID3 tag : No
Command line compressor : C:\Program Files\Exact Audio Copy\Flac\flac.exe
Additional command line options : -8 -V -T "ARTIST=%artist%" -T "TITLE=%title%" -T "ALBUM=%albumtitle%" -T "DATE=%year%" -T "TRACKNUMBER=%tracknr%" -T "TOTALTRACKS=%numtracks%" -T "GENRE=%genre%" -T "ALBUMARTIST=%albumartist%" -T "ALBUM ARTIST=%albumartist%" -T "COMMENT=EAC Secure Mode, Test & Copy, AccurateRip, FLAC -8" %source%


TOC of the extracted CD

Track | Start | Length | Start sector | End sector
––––––––––––––––––––––––––––-
1 | 0:00.00 | 3:32.63 | 0 | 15962
2 | 3:32.63 | 4:28.10 | 15963 | 36072
3 | 8:00.73 | 3:00.43 | 36073 | 49615
4 | 11:01.41 | 2:58.46 | 49616 | 63011
5 | 14:00.12 | 1:45.42 | 63012 | 70928
6 | 15:45.54 | 1:59.12 | 70929 | 79865
7 | 17:44.66 | 2:41.49 | 79866 | 91989
8 | 20:26.40 | 2:23.73 | 91990 | 102787
9 | 22:50.38 | 2:59.08 | 102788 | 116220
10 | 25:49.46 | 2:18.16 | 116221 | 126586
11 | 28:07.62 | 3:04.38 | 126587 | 140424
12 | 31:12.25 | 2:37.24 | 140425 | 152223
13 | 33:49.49 | 3:42.70 | 152224 | 168943
14 | 37:32.44 | 3:36.44 | 168944 | 185187
15 | 41:09.13 | 2:09.61 | 185188 | 194923
16 | 43:18.74 | 3:04.11 | 194924 | 208734
17 | 46:23.10 | 1:58.12 | 208735 | 217596
18 | 48:21.22 | 2:47.28 | 217597 | 230149
19 | 51:08.50 | 2:24.61 | 230150 | 241010
20 | 53:33.36 | 2:18.73 | 241011 | 251433


Range status and errors

Selected range

Filename F:\audio\Ted Heath - The Perfectionist CD2.wav

Peak level 100.0 %
Extraction speed 3.1 X
Range quality 100.0 %
Test CRC 2CFA518A
Copy CRC 2CFA518A
Copy OK

No errors occurred


AccurateRip summary

Track 1 not present in database
Track 2 not present in database
Track 3 not present in database
Track 4 not present in database
Track 5 not present in database
Track 6 not present in database
Track 7 not present in database
Track 8 not present in database
Track 9 not present in database
Track 10 not present in database
Track 11 not present in database
Track 12 not present in database
Track 13 not present in database
Track 14 not present in database
Track 15 not present in database
Track 16 not present in database
Track 17 not present in database
Track 18 not present in database
Track 19 not present in database
Track 20 not present in database

None of the tracks are present in the AccurateRip database

End of status report

–– CUETools DB Plugin V2.1.3

[CTDB TOCID: U.6TQ3eWOxPhkIj0ZoEtrP8tzm0-] found, Submit result: already submitted
[fdd107a6] (1/1) Accurately ripped


==== Log checksum CB8F4913632DAFFD7B94136619009508670B8743CAF0D6A86EFFFD80EDA5F703 ====

[CUETools log; Date: 10.07.2018 9:35:15; Version: 2.1.4]
[CTDB TOCID: U.6TQ3eWOxPhkIj0ZoEtrP8tzm0-] found.
Track | CTDB Status
1 | (6/6) Accurately ripped
2 | (6/6) Accurately ripped
3 | (6/6) Accurately ripped
4 | (6/6) Accurately ripped
5 | (6/6) Accurately ripped
6 | (6/6) Accurately ripped
7 | (6/6) Accurately ripped
8 | (6/6) Accurately ripped
9 | (6/6) Accurately ripped
10 | (6/6) Accurately ripped
11 | (6/6) Accurately ripped
12 | (6/6) Accurately ripped
13 | (6/6) Accurately ripped
14 | (6/6) Accurately ripped
15 | (6/6) Accurately ripped
16 | (6/6) Accurately ripped
17 | (6/6) Accurately ripped
18 | (6/6) Accurately ripped
19 | (6/6) Accurately ripped
20 | (6/6) Accurately ripped
[AccurateRip ID: 0029dd7d-025e0d62-0a0d1814] found.
Track [ CRC | V2 ] Status
01 [557791c7|d7f499c7] (0+0/2) No match
02 [ecfe53ff|315b6ab5] (0+0/2) No match
03 [b5751030|1398947d] (0+0/2) No match
04 [38e16762|620bdedb] (0+0/2) No match
05 [2a3eb165|e505f5a8] (0+0/2) No match
06 [ab19d0d8|27446288] (0+0/2) No match
07 [470c0fe9|6bf4000f] (0+0/2) No match
08 [7442fce7|6f48914a] (0+0/2) No match
09 [b5f2d8ea|28af706e] (0+0/2) No match
10 [47272952|aeeffb99] (0+0/2) No match
11 [db82bcc2|608473a4] (0+0/2) No match
12 [781e32fb|7e3ea64d] (0+0/2) No match
13 [1d7eb2b6|5b2b6ed2] (0+0/2) No match
14 [999095f8|ce4b01f7] (0+0/2) No match
15 [11e61a86|e1ebd0a3] (0+0/2) No match
16 [b0dd9432|49809634] (0+0/2) No match
17 [1f8983b8|dea7aaaf] (0+0/2) No match
18 [24f2ff2a|bbd84309] (0+0/2) No match
19 [e1b0bd17|0eb0a023] (0+0/2) No match
20 [836fd2b4|a3b0e3d0] (0+0/2) No match
Offsetted by 30:
01 [e8cc32c9] (0/2) No match (V2 was not tested)
02 [f6edfe6d] (0/2) No match (V2 was not tested)
03 [1ff04e2a] (0/2) No match (V2 was not tested)
04 [d420b8b8] (0/2) No match (V2 was not tested)
05 [1a7c2417] (0/2) No match (V2 was not tested)
06 [80abcb18] (0/2) No match (V2 was not tested)
07 [dd12c357] (0/2) No match (V2 was not tested)
08 [f72037cb] (0/2) No match (V2 was not tested)
09 [cabf7f3a] (0/2) No match (V2 was not tested)
10 [8e109d7c] (0/2) No match (V2 was not tested)
11 [9cba743c] (0/2) No match (V2 was not tested)
12 [efcf4f57] (0/2) No match (V2 was not tested)
13 [302019d8] (0/2) No match (V2 was not tested)
14 [856bb376] (0/2) No match (V2 was not tested)
15 [9c14ad4a] (0/2) No match (V2 was not tested)
16 [777e07de] (0/2) No match (V2 was not tested)
17 [a22befd6] (0/2) No match (V2 was not tested)
18 [0df171a2] (0/2) No match (V2 was not tested)
19 [24a370e3] (0/2) No match (V2 was not tested)
20 [dfe35c1c] (0/2) No match (V2 was not tested)

Track Peak [ CRC32 ] [W/O NULL] [ LOG ]
– 100,0 [2CFA518A] [2ABA8462] CRC32
01 99,7 [4CE2A1E7] [84CEAD86]
02 99,7 [CB0AF15D] [FE372D3A]
03 93,4 [75258838] [C4D4EC64]
04 99,7 [6781004F] [FD2AA176]
05 97,3 [6B6A23D8] [28132B36]
06 98,1 [E1E883B8] [B09948CA]
07 99,7 [DD5BC604] [C17DDD2B]
08 97,5 [09D73018] [5AEA43B2]
09 99,7 [CC12D1E2] [919BE19A]
10 86,8 [39E7CC7C] [5F5C44AA]
11 100,0 [430CA52B] [61426DF9]
12 81,4 [93850A00] [63111CC6]
13 96,3 [3A4243FB] [3ED3496B]
14 99,7 [7C013CAF] [F0AB7D87]
15 82,0 [81D73B58] [5A76B11A]
16 97,4 [5A647591] [8B031FA0]
17 99,5 [D5288FDC] [660597EF]
18 91,3 [A2EDC5BE] [FF7FCFAC]
19 100,0 [FBBA658F] [A1D7ACCF]
20 88,9 [9BFACDE4] [05DDA519]

Thanks to fiks22

See also:
Ted Heath - The Big Ones (1970) & Satin, Saxes & Bouncing Brass (1963) [2004]
Ted Heath - Those Were the Days (1971) & Big Band Themes Remembered Vol. 2 (1973) [2008]