Subcategories

Terry Brooks & Strange - To Earth With Love (1980)

Posted By: gribovar
Terry Brooks & Strange - To Earth With Love (1980)

Terry Brooks & Strange - To Earth With Love (1980)
EAC Rip | FLAC (image+.cue+log) - 340 MB | MP3 CBR 320 kbps (LAME 3.93) - 137 MB | Covers included
Genre: Psychedelic Rock, Hard Rock | RAR 3% Rec. | Label: SM The cd Label

Terry is one of those guitarists who have made the solo his life goal, just like Randy Holden, Jimi Hendrix, Wilburn Burnchette, but not out of narcissism or anything like it just because the instinct of guitar genius allows them, when the muse strikes to improvise and create incredibly personal and unrepeatable weaving of sounds.
Cosmic, smokin', powerful, riff-based power-chord hardrock w/explosive overdriven distorted heavy guitar to the forefront & gutsy, heartfelt, sincere vox by Florida (by way of Ohio!) guitarist-singer-songwriter. Heavier, harder, meaner, & more guitar-oriented than his 1st 2 Strange LPs (better production sound, too - recorded at Criteria.) "Bottom Line" & "Mister Strange" also have rock-solid rhythms, "It's A Beautiful Day" features especially blistering/scorching guitar licks, Down & Dirty Blues" - loud blues jam w/ awesome guit throughout… & it's the kind of LP where the ballads ("Midnight Angel", "You're All I Need", & "I Promise U My Luv") are'cool, too.
Tracklist:
01. Bottom Line
02. Woman
03. Mister Strange
04. It's A Beautiful Day
05. I Promise You My Love
06. Midnight Angel
07. You're All I Need
08. Down And Dirty Blues
Bonus Track From LP "Blastin' Thru'":
09. You Will Be Loved (Live)

Total time: 57:11

Exact Audio Copy V0.99 prebeta 4 from 23. January 2008

Отчёт EAC об извлечении, выполненном 19. августа 2011, 21:21

Terry Brooks & Strange / To Earth With Love

Дисковод: HL-DT-STDVD-RAM GSA-H55N Adapter: 0 ID: 1

Режим чтения : Достоверность
Использование точного потока : Да
Отключение кэша аудио : Да
Использование указателей C2 : Нет

Коррекция смещения при чтении : 102
Способность читать области Lead-in и Lead-out : Нет
Заполнение пропущенных сэмплов тишиной : Да
Удаление блоков с тишиной в начале и конце : Нет
При вычислениях CRC использовались нулевые сэмплы : Да
Интерфейс : Встроенный Win32-интерфейс для Win NT/2000

Выходной формат : Пользовательский кодировщик
Выбранный битрейт : 768 kBit/s
Качество : Высокий
Добавление ID3-тэга : Нет
Утилита сжатия : C:\Program Files\Exact Audio Copy\FLAC\FLAC.EXE
Дополнительные параметры : -6 -V -T "ARTIST=%a" -T "TITLE=%t" -T "ALBUM=%g" -T "DATE=%y" -T "TRACKNUMBER=%n" -T "GENRE=%m" -T "COMMENT=%e" %s -o %d


TOC извлечённого CD

Трек | Старт | Длительность | Начальный сектор | Конечный сектор
––––––––––––––––––––––––––––––––––-
1 | 0:00.00 | 4:12.12 | 0 | 18911
2 | 4:12.12 | 3:37.10 | 18912 | 35196
3 | 7:49.22 | 3:20.58 | 35197 | 50254
4 | 11:10.05 | 8:14.50 | 50255 | 87354
5 | 19:24.55 | 3:48.15 | 87355 | 104469
6 | 23:12.70 | 5:49.27 | 104470 | 130671
7 | 29:02.22 | 3:24.03 | 130672 | 145974
8 | 32:26.25 | 7:10.40 | 145975 | 178264
9 | 39:36.65 | 17:34.00 | 178265 | 257314


Характеристики диапазона извлечения и сообщения об ошибках

Выбранный диапазон

Имя файла C:\Torrent\purple\Terry Brooks & Strange - To Earth With Love.wav

Пиковый уровень 79.7 %
Качество диапазона 99.9 %
CRC теста 245FD03D
CRC копии 245FD03D
Копирование… OK

Ошибок не произошло


AccurateRip: сводка

Трек 1 точное извлечение (доверие 1) [D9D781E1]
Трек 2 точное извлечение (доверие 1) [B4D53D9F]
Трек 3 точное извлечение (доверие 1) [3A8BD114]
Трек 4 точное извлечение (доверие 1) [81328D12]
Трек 5 точное извлечение (доверие 1) [2EF727EC]
Трек 6 точное извлечение (доверие 1) [8006D850]
Трек 7 нет в базе данных
Трек 8 нет в базе данных
Трек 9 нет в базе данных

6 трек(и) скопированы точно
3 трек(и) не содержатся в базе AccurateRip

Некоторые треки не прошли проверку на точность

Конец отчёта

[CUETools log; Date: 13.06.2018 13:56:28; Version: 2.1.4]
[CTDB TOCID: qexIdYeqQeiuHWlhs4Bq7Obet5o-] found.
Track | CTDB Status
1 | (2/2) Accurately ripped
2 | (2/2) Accurately ripped
3 | (2/2) Accurately ripped
4 | (2/2) Accurately ripped
5 | (2/2) Accurately ripped
6 | (2/2) Accurately ripped
7 | (2/2) Accurately ripped
8 | (2/2) Accurately ripped
9 | (2/2) Accurately ripped
[AccurateRip ID: 000f6320-00750166-810d6609] found.
Track [ CRC | V2 ] Status
01 [d9d781e1|bc37dd73] (2+2/4) Accurately ripped
02 [b4d53d9f|e4300ba4] (2+2/4) Accurately ripped
03 [3a8bd114|77fe15cf] (2+2/4) Accurately ripped
04 [81328d12|2d16a1c7] (2+2/4) Accurately ripped
05 [2ef727ec|df6ac8b5] (2+2/4) Accurately ripped
06 [8006d850|5c967ad2] (2+2/4) Accurately ripped
07 [59aaa094|e4de5716] (0+2/2) Accurately ripped
08 [7824df99|e71bc930] (0+2/2) Accurately ripped
09 [b0d06c89|869e04c0] (0+2/2) Accurately ripped

Track Peak [ CRC32 ] [W/O NULL] [ LOG ]
– 79,7 [245FD03D] [957EAC5B] CRC32
01 62,4 [A18BC756] [1B402A40]
02 75,9 [815B1A37] [987AF038]
03 54,0 [75871311] [18C61E85]
04 65,4 [EFEC4F47] [D74B15EB]
05 52,0 [CD6A0A92] [B6198338]
06 58,2 [828EE89F] [FCDAB3A4]
07 48,7 [F58D5EA5] [E0C11388]
08 70,9 [DD07E197] [EC415177]
09 79,7 [C8495A79] [B9ED9320]

Thanks to pppurple