Subcategories

The Sweet - Sensational Sweet (Chapter One: The Wild Bunch) (2017) [9CD Box Set]

Posted By: v3122
The Sweet - Sensational Sweet (Chapter One: The Wild Bunch) (2017) [9CD Box Set]

The Sweet - Sensational Sweet (Chapter One: The Wild Bunch) (2017)
EAC | Flac(Image) + Cue + Log & MP3 CBR 320Kbps
9CD | Sony Music, 88985474572 | ~ 3835 or 1534 Mb | Scans(png) -> 342 Mb
Rock / Pop / Glam Rock / Pop Rock

Featuring seven original studio albums and two discs of rarities, ‘Sensational Sweet (Chapter One: The Wild Bunch)’ is set to be the most thorough account of glam icons Sweet yet. Fully documenting the classic line up (Andy Scott, Steve Priest, Mick Tucker and Brian Connolly) the nine disc set includes 1971 debut studio album ‘Funny, How Sweet Co Co Can Be’ and the five following albums up to and including ‘Off The Record’ The set is rounded out by: - ‘The Lost Singles’, a bonus disc of non-album singles and B-sides; - ‘The Rainbow (Sweet Live In The UK)’ – the legendary 1973 Christmas show; - ‘The Sweet At The Beeb' (BBC Radio Sessions 69-72)’ – previously unreleased radio session recordings - 52 page booklet with new liner notes from renowned UK music journalist Dave Ling

~ amazon
The Sweet - Sensational Sweet (Chapter One: The Wild Bunch) (2017) [9CD Box Set]

The Sweet - Sensational Sweet (Chapter One: The Wild Bunch) (2017):

The Sweet - Sensational Sweet (Chapter One: The Wild Bunch) (2017) [9CD Box Set]

Tracklist CD1 - 1971 Funny How Sweet Co-Co Can Be:

01 Co-Co
02 Chop Chop
03 Reflections
04 Honeysuckle Love
05 Santa Monica Sunshine
06 Daydream
07 Funny Funny
08 Tom Tom Turnaround
09 Jeanie
10 Sunny Sleeps Late
11 Spotlight
12 Done Me Wrong All Right

Bonus Track:
13 Be With You Soon

Exact Audio Copy V1.3 from 2. September 2016

EAC extraction logfile from 23. December 2017, 17:51

The Sweet / Funny How Sweet Co-Co Can Be

Used drive : PLEXTOR BD-R PX-B950SA Adapter: 1 ID: 1

Read mode : Secure
Utilize accurate stream : Yes
Defeat audio cache : Yes
Make use of C2 pointers : No

Read offset correction : 6
Overread into Lead-In and Lead-Out : No
Fill up missing offset samples with silence : Yes
Delete leading and trailing silent blocks : No
Null samples used in CRC calculations : Yes
Used interface : Native Win32 interface for Win NT & 2000

Used output format : Internal WAV Routines
Sample format : 44.100 Hz; 16 Bit; Stereo


TOC of the extracted CD

Track | Start | Length | Start sector | End sector
––––––––––––––––––––––––––––-
1 | 0:00.00 | 3:15.63 | 0 | 14687
2 | 3:15.63 | 2:58.66 | 14688 | 28103
3 | 6:14.54 | 2:53.21 | 28104 | 41099
4 | 9:08.00 | 2:56.73 | 41100 | 54372
5 | 12:04.73 | 3:27.25 | 54373 | 69922
6 | 15:32.23 | 3:14.29 | 69923 | 84501
7 | 18:46.52 | 2:48.74 | 84502 | 97175
8 | 21:35.51 | 4:08.01 | 97176 | 115776
9 | 25:43.52 | 3:00.01 | 115777 | 129277
10 | 28:43.53 | 3:00.39 | 129278 | 142816
11 | 31:44.17 | 2:47.18 | 142817 | 155359
12 | 34:31.35 | 2:55.20 | 155360 | 168504
13 | 37:26.55 | 3:33.70 | 168505 | 184549


Range status and errors

Selected range

Filename C:\Users\Alex\Desktop\ALLexxess\Sweet\2017 Sensational Sweet (9CD Box Set Sony Music)\1971 Funny How Sweet Co-Co Can Be\The Sweet - Funny How Sweet Co-Co Can Be.wav

Peak level 99.0 %
Extraction speed 6.8 X
Range quality 100.0 %
Test CRC 2D32C677
Copy CRC 2D32C677
Copy OK

No errors occurred


AccurateRip summary

Track 1 not present in database
Track 2 not present in database
Track 3 not present in database
Track 4 not present in database
Track 5 not present in database
Track 6 not present in database
Track 7 not present in database
Track 8 not present in database
Track 9 not present in database
Track 10 not present in database
Track 11 not present in database
Track 12 not present in database
Track 13 not present in database

None of the tracks are present in the AccurateRip database

End of status report

–– CUETools DB Plugin V2.1.6

[CTDB TOCID: L___0kifIPY1PWqkIpw7G9mEN74-] found
Submit result: L___0kifIPY1PWqkIpw7G9mEN74- has been confirmed
Track | CTDB Status
1 | (22/22) Accurately ripped
2 | (22/22) Accurately ripped
3 | (22/22) Accurately ripped
4 | (22/22) Accurately ripped
5 | (22/22) Accurately ripped
6 | (22/22) Accurately ripped
7 | (22/22) Accurately ripped
8 | (22/22) Accurately ripped
9 | (22/22) Accurately ripped
10 | (22/22) Accurately ripped
11 | (22/22) Accurately ripped
12 | (22/22) Accurately ripped
13 | (22/22) Accurately ripped


==== Log checksum A11ADE12ED0ECF36D02F0312C78E58FE2778C4B33E1B7031370EE5E28A550CB8 ====


[CUETools log; Date: 05.01.2018 11:05:08; Version: 2.1.5]
[CTDB TOCID: L___0kifIPY1PWqkIpw7G9mEN74-] found.
Track | CTDB Status
1 | (29/29) Accurately ripped
2 | (29/29) Accurately ripped
3 | (29/29) Accurately ripped
4 | (29/29) Accurately ripped
5 | (29/29) Accurately ripped
6 | (29/29) Accurately ripped
7 | (29/29) Accurately ripped
8 | (29/29) Accurately ripped
9 | (29/29) Accurately ripped
10 | (29/29) Accurately ripped
11 | (29/29) Accurately ripped
12 | (29/29) Accurately ripped
13 | (29/29) Accurately ripped
[AccurateRip ID: 0013a009-00c49347-b5099c0d] found.
Track [ CRC | V2 ] Status
01 [b96200ee|67d0fedc] (0+3/3) Accurately ripped
02 [35eaa214|b6026160] (0+3/3) Accurately ripped
03 [2eac314c|717460a7] (0+3/3) Accurately ripped
04 [dcc7c7e1|c6d19476] (0+3/3) Accurately ripped
05 [ab1d505b|2d5086b1] (0+3/3) Accurately ripped
06 [a0205962|e014c5fb] (0+3/3) Accurately ripped
07 [0f309328|3b04b300] (0+3/3) Accurately ripped
08 [54b35db8|694b5859] (0+3/3) Accurately ripped
09 [1583bf3a|62c6059a] (0+3/3) Accurately ripped
10 [8f69c95b|f5ef989f] (0+3/3) Accurately ripped
11 [b32175bb|afa3fac1] (0+3/3) Accurately ripped
12 [4fa9721d|a0274a13] (0+3/3) Accurately ripped
13 [e39e2ba7|8eb466a8] (0+3/3) Accurately ripped

Track Peak [ CRC32 ] [W/O NULL] [ LOG ]
– 99,0 [2D32C677] [3C1E85FE] CRC32
01 99,0 [E267531E] [B46B52DF]
02 99,0 [FC35EB43] [0E49397E]
03 99,0 [680F4C2B] [551AE01B]
04 99,0 [A8D88637] [202936C2]
05 99,0 [AA788100] [A5288545]
06 99,0 [DFF1E850] [1ECFA4E3]
07 99,0 [7DA3A1B5] [71314DA1]
08 99,0 [68F24843] [22CC51A5]
09 99,0 [75F29E26] [E8F30106]
10 99,0 [C6455E28] [E7150A0A]
11 99,0 [8B96E27A] [852A51AF]
12 99,0 [0D9E2B01] [D902E9A9]
13 99,0 [A36A7996] [12F8757D]


The Sweet - Sensational Sweet (Chapter One: The Wild Bunch) (2017) [9CD Box Set]

Tracklist CD2 - 1974 Sweet Fanny Adams:

01 Set Me Free
02 Heartbreak Today
03 No You Don’t
04 Rebel Rouser
05 Peppermint Twist
06 Sweet F.A.
07 Restless
08 In To The Night
09 AC-DC

New Bonus Tracks:
10 In To The Night (Demo)
11 Set Me Free (Demo)
12 Rebel Rouser (Steve Priest Lead Vocal Version)

Exact Audio Copy V1.3 from 2. September 2016

EAC extraction logfile from 23. December 2017, 17:19

The Sweet / Sweet Fanny Adams

Used drive : PLEXTOR BD-R PX-B950SA Adapter: 1 ID: 1

Read mode : Secure
Utilize accurate stream : Yes
Defeat audio cache : Yes
Make use of C2 pointers : No

Read offset correction : 6
Overread into Lead-In and Lead-Out : No
Fill up missing offset samples with silence : Yes
Delete leading and trailing silent blocks : No
Null samples used in CRC calculations : Yes
Used interface : Native Win32 interface for Win NT & 2000

Used output format : Internal WAV Routines
Sample format : 44.100 Hz; 16 Bit; Stereo


TOC of the extracted CD

Track | Start | Length | Start sector | End sector
––––––––––––––––––––––––––––-
1 | 0:00.00 | 3:59.51 | 0 | 17975
2 | 3:59.51 | 5:02.24 | 17976 | 40649
3 | 9:02.00 | 4:35.13 | 40650 | 61287
4 | 13:37.13 | 3:24.72 | 61288 | 76659
5 | 17:02.10 | 3:29.30 | 76660 | 92364
6 | 20:31.40 | 6:14.52 | 92365 | 120466
7 | 26:46.17 | 4:28.37 | 120467 | 140603
8 | 31:14.54 | 4:23.17 | 140604 | 160345
9 | 35:37.71 | 3:26.66 | 160346 | 175861
10 | 39:04.62 | 4:20.48 | 175862 | 195409
11 | 43:25.35 | 4:17.65 | 195410 | 214749
12 | 47:43.25 | 3:47.26 | 214750 | 231800


Range status and errors

Selected range

Filename C:\Users\Alex\Desktop\ALLexxess\Sweet\2017 Sensational Sweet (9CD Box Set Sony Music)\1974 Sweet Fanny Adams\The Sweet - Sweet Fanny Adams.wav

Peak level 99.0 %
Extraction speed 7.1 X
Range quality 100.0 %
Test CRC F91A00AD
Copy CRC F91A00AD
Copy OK

No errors occurred


AccurateRip summary

Track 1 not present in database
Track 2 not present in database
Track 3 not present in database
Track 4 not present in database
Track 5 not present in database
Track 6 not present in database
Track 7 not present in database
Track 8 not present in database
Track 9 not present in database
Track 10 not present in database
Track 11 not present in database
Track 12 not present in database

None of the tracks are present in the AccurateRip database

End of status report

–– CUETools DB Plugin V2.1.6

[CTDB TOCID: AkCsrSRjM25HNvBOXIV2_db27NM-] found
Submit result: AkCsrSRjM25HNvBOXIV2_db27NM- has been confirmed
Track | CTDB Status
1 | (20/20) Accurately ripped
2 | (20/20) Accurately ripped
3 | (20/20) Accurately ripped
4 | (20/20) Accurately ripped
5 | (20/20) Accurately ripped
6 | (20/20) Accurately ripped
7 | (20/20) Accurately ripped
8 | (20/20) Accurately ripped
9 | (20/20) Accurately ripped
10 | (20/20) Accurately ripped
11 | (20/20) Accurately ripped
12 | (20/20) Accurately ripped


==== Log checksum 4E48A1831E06602BD0AD2AB96A00D5F2CED13BFA0F52E78F98B3182A82A05ECA ====


[CUETools log; Date: 05.01.2018 11:05:40; Version: 2.1.5]
[CTDB TOCID: AkCsrSRjM25HNvBOXIV2_db27NM-] found.
Track | CTDB Status
1 | (26/26) Accurately ripped
2 | (26/26) Accurately ripped
3 | (26/26) Accurately ripped
4 | (26/26) Accurately ripped
5 | (26/26) Accurately ripped
6 | (26/26) Accurately ripped
7 | (26/26) Accurately ripped
8 | (26/26) Accurately ripped
9 | (26/26) Accurately ripped
10 | (26/26) Accurately ripped
11 | (26/26) Accurately ripped
12 | (26/26) Accurately ripped
[AccurateRip ID: 00175173-00d9713f-9f0c120c] found.
Track [ CRC | V2 ] Status
01 [a4d5c61f|48ebc0c5] (0+3/3) Accurately ripped
02 [253f5fe6|254f98c0] (0+3/3) Accurately ripped
03 [1ee1e533|10107d71] (0+3/3) Accurately ripped
04 [b4193c1c|da37617d] (0+3/3) Accurately ripped
05 [a9c9e6cf|86fe6a6e] (0+3/3) Accurately ripped
06 [950f0112|a5c498ff] (0+3/3) Accurately ripped
07 [a006f3ff|ccd6c6ef] (0+3/3) Accurately ripped
08 [55f3eb86|1a21ef90] (0+3/3) Accurately ripped
09 [33509ffc|bb9cb629] (0+3/3) Accurately ripped
10 [b81eadaf|72997390] (0+3/3) Accurately ripped
11 [44aa4ab7|f05e9003] (0+3/3) Accurately ripped
12 [8829a51f|103de13c] (0+3/3) Accurately ripped

Track Peak [ CRC32 ] [W/O NULL] [ LOG ]
– 99,0 [F91A00AD] [CC17ADC2] CRC32
01 94,5 [DDFF90F3] [52E1D266]
02 94,5 [D6EDF3AC] [07AAAB12]
03 94,5 [D40DD27A] [C67E23DD]
04 94,5 [3D28A3F3] [3901449E]
05 94,5 [D8ED1877] [37EE98A7]
06 94,5 [F2BE881E] [B68C66B9]
07 94,5 [5698FF21] [C58302F7]
08 94,5 [61522D31] [C93FDD1A]
09 94,5 [281A4E9F] [4807FB44]
10 99,0 [FF411A5B] [5E421A3F]
11 98,7 [BE8FC92E] [94CFBED1]
12 99,0 [BE375B52] [72BF62AE]


Chic Haus - Junio 2018

Tracklist CD3 - 1974 Desolation Boulevard:

01 The Six Teens
02 Solid Gold Brass
03 Turn It Down
04 Medussa
05 Lady Starlight
06 Man With The Golden Arm
07 Fox On The Run
08 Breakdown
09 My Generation

Bonus Tracks:
10 I Wanna Be Committed (Strung Up Full Length Version)
11 Medussa (Demo)
12 Burn On The Flame (Demo)

New Bonus Tracks:
13 Turn It Down (Alternate Intro)
14 Are You Coming To See Me (Early Rehersal Version Of Medussa)
15 Fox On The Run (Demo)
16 Lady Starlight (Demo)

Exact Audio Copy V1.3 from 2. September 2016

EAC extraction logfile from 23. December 2017, 12:20

The Sweet / Desolation Boulevard

Used drive : PLEXTOR BD-R PX-B950SA Adapter: 1 ID: 1

Read mode : Secure
Utilize accurate stream : Yes
Defeat audio cache : Yes
Make use of C2 pointers : No

Read offset correction : 6
Overread into Lead-In and Lead-Out : No
Fill up missing offset samples with silence : Yes
Delete leading and trailing silent blocks : No
Null samples used in CRC calculations : Yes
Used interface : Native Win32 interface for Win NT & 2000

Used output format : Internal WAV Routines
Sample format : 44.100 Hz; 16 Bit; Stereo


TOC of the extracted CD

Track | Start | Length | Start sector | End sector
––––––––––––––––––––––––––––-
1 | 0:00.00 | 4:03.07 | 0 | 18231
2 | 4:03.07 | 5:31.27 | 18232 | 43083
3 | 9:34.34 | 3:29.09 | 43084 | 58767
4 | 13:03.43 | 4:43.15 | 58768 | 80007
5 | 17:46.58 | 3:13.13 | 80008 | 94495
6 | 20:59.71 | 8:26.74 | 94496 | 132519
7 | 29:26.70 | 4:47.18 | 132520 | 154062
8 | 34:14.13 | 3:05.09 | 154063 | 167946
9 | 37:19.22 | 3:55.19 | 167947 | 185590
10 | 41:14.41 | 4:04.10 | 185591 | 203900
11 | 45:18.51 | 5:50.07 | 203901 | 230157
12 | 51:08.58 | 4:00.17 | 230158 | 248174
13 | 55:09.00 | 3:34.05 | 248175 | 264229
14 | 58:43.05 | 1:37.44 | 264230 | 271548
15 | 60:20.49 | 1:41.38 | 271549 | 279161
16 | 62:02.12 | 4:46.47 | 279162 | 300658


Range status and errors

Selected range

Filename C:\Users\Alex\Desktop\ALLexxess\Sweet\2017 Sensational Sweet (9CD Box Set Sony Music)\1974 Desolation Boulevard\The Sweet - Desolation Boulevard.wav

Peak level 99.1 %
Extraction speed 8.0 X
Range quality 100.0 %
Test CRC FE6C6169
Copy CRC FE6C6169
Copy OK

No errors occurred


AccurateRip summary

Track 1 not present in database
Track 2 not present in database
Track 3 not present in database
Track 4 not present in database
Track 5 not present in database
Track 6 not present in database
Track 7 not present in database
Track 8 not present in database
Track 9 not present in database
Track 10 not present in database
Track 11 not present in database
Track 12 not present in database
Track 13 not present in database
Track 14 not present in database
Track 15 not present in database
Track 16 not present in database

None of the tracks are present in the AccurateRip database

End of status report

–– CUETools DB Plugin V2.1.6

[CTDB TOCID: oDQm8vX1p8voMkpPgj9WcFzIy.E-] found
Submit result: oDQm8vX1p8voMkpPgj9WcFzIy.E- has been confirmed
Track | CTDB Status
1 | (17/17) Accurately ripped
2 | (17/17) Accurately ripped
3 | (17/17) Accurately ripped
4 | (17/17) Accurately ripped
5 | (17/17) Accurately ripped
6 | (17/17) Accurately ripped
7 | (17/17) Accurately ripped
8 | (17/17) Accurately ripped
9 | (17/17) Accurately ripped
10 | (17/17) Accurately ripped
11 | (17/17) Accurately ripped
12 | (17/17) Accurately ripped
13 | (17/17) Accurately ripped
14 | (17/17) Accurately ripped
15 | (17/17) Accurately ripped
16 | (17/17) Accurately ripped


==== Log checksum CAF44A1F4829AC3C64EB68AF72BB4DEEF680BB97C226015CDFED4F04C8AB530A ====


[CUETools log; Date: 05.01.2018 11:06:07; Version: 2.1.5]
[CTDB TOCID: oDQm8vX1p8voMkpPgj9WcFzIy.E-] found.
Track | CTDB Status
1 | (25/25) Accurately ripped
2 | (25/25) Accurately ripped
3 | (25/25) Accurately ripped
4 | (25/25) Accurately ripped
5 | (25/25) Accurately ripped
6 | (25/25) Accurately ripped
7 | (25/25) Accurately ripped
8 | (25/25) Accurately ripped
9 | (25/25) Accurately ripped
10 | (25/25) Accurately ripped
11 | (25/25) Accurately ripped
12 | (25/25) Accurately ripped
13 | (25/25) Accurately ripped
14 | (25/25) Accurately ripped
15 | (25/25) Accurately ripped
16 | (25/25) Accurately ripped
[AccurateRip ID: 0029b1ff-01ef8e2a-d40fa810] found.
Track [ CRC | V2 ] Status
01 [a652f62c|24575381] (0+3/3) Accurately ripped
02 [1cbfe64e|4c18a72e] (0+3/3) Accurately ripped
03 [58bdeca4|15f0c08d] (0+3/3) Accurately ripped
04 [14ccbac0|fe0bcf9a] (0+3/3) Accurately ripped
05 [89b8b61e|1e14ea0f] (0+3/3) Accurately ripped
06 [e2e3b65a|e0dc3343] (0+3/3) Accurately ripped
07 [763061e8|d96975bb] (0+3/3) Accurately ripped
08 [a59626ba|3e337e86] (0+3/3) Accurately ripped
09 [18d133fe|9f61d397] (0+3/3) Accurately ripped
10 [b79cfbf2|69e7ea18] (0+3/3) Accurately ripped
11 [74fc246f|67c472b1] (0+3/3) Accurately ripped
12 [3daca625|61837a52] (0+3/3) Accurately ripped
13 [1806c48a|fa1e0f91] (0+3/3) Accurately ripped
14 [05b0aec1|a86bb9b9] (0+3/3) Accurately ripped
15 [fe97a30d|5ebd6610] (0+3/3) Accurately ripped
16 [012b5ec3|0979dbb7] (0+3/3) Accurately ripped

Track Peak [ CRC32 ] [W/O NULL] [ LOG ]
– 99,1 [FE6C6169] [6FB738DB] CRC32
01 90,3 [627D3D13] [B1812D3F]
02 95,6 [17D6AA27] [58D1247A]
03 95,7 [3F4E7F25] [11205A3F]
04 95,6 [186B4D66] [D89C2040]
05 95,6 [E9AC9517] [5F3F5492]
06 95,6 [1D69AA33] [D1D22F57]
07 95,6 [B3CC4E0F] [CC47A42F]
08 95,6 [AD80971D] [D579BDEA]
09 95,6 [1195DE06] [7B93BD96]
10 99,0 [A0E660B4] [DDECBCD5]
11 99,0 [019F2BFA] [DC0A2EA7]
12 99,0 [BE1B673D] [B5C248B1]
13 99,1 [212F8711] [D8C15150]
14 99,0 [5EF91B76] [8E1616FB]
15 99,0 [5CF7A1B1] [8EF5491C]
16 99,0 [31B16408] [2C5824EF]


Chic Haus - Junio 2018

Tracklist CD4 - 1976 Give Us A Wink!:

01 The Lies In Your Eyes
02 Cockroach
03 Keep It In
04 4th Of July
05 Action
06 Yesterday’s Rain
07 White Mice
08 Healer

Bonus Tracks:
09 Cockroach (Munich Mix)
10 4th Of July (Munich Mix)
11 Action (Strung Up Edit)
12 Cockroach (Demo)

Exact Audio Copy V1.3 from 2. September 2016

EAC extraction logfile from 23. December 2017, 11:34

The Sweet / Give Us A Wink!

Used drive : PLEXTOR BD-R PX-B950SA Adapter: 1 ID: 1

Read mode : Secure
Utilize accurate stream : Yes
Defeat audio cache : Yes
Make use of C2 pointers : No

Read offset correction : 6
Overread into Lead-In and Lead-Out : No
Fill up missing offset samples with silence : Yes
Delete leading and trailing silent blocks : No
Null samples used in CRC calculations : Yes
Used interface : Native Win32 interface for Win NT & 2000

Used output format : Internal WAV Routines
Sample format : 44.100 Hz; 16 Bit; Stereo


TOC of the extracted CD

Track | Start | Length | Start sector | End sector
––––––––––––––––––––––––––––-
1 | 0:00.00 | 3:49.38 | 0 | 17212
2 | 3:49.38 | 4:52.08 | 17213 | 39120
3 | 8:41.46 | 4:59.63 | 39121 | 61608
4 | 13:41.34 | 4:25.62 | 61609 | 81545
5 | 18:07.21 | 3:45.63 | 81546 | 98483
6 | 21:53.09 | 5:19.16 | 98484 | 122424
7 | 27:12.25 | 4:59.57 | 122425 | 144906
8 | 32:12.07 | 7:19.60 | 144907 | 177891
9 | 39:31.67 | 4:59.42 | 177892 | 200358
10 | 44:31.34 | 4:40.65 | 200359 | 221423
11 | 49:12.24 | 3:36.30 | 221424 | 237653
12 | 52:48.54 | 1:08.54 | 237654 | 242807


Range status and errors

Selected range

Filename C:\Users\Alex\Desktop\ALLexxess\Sweet\2017 Sensational Sweet (9CD Box Set Sony Music)\1976 Give Us A Wink!\The Sweet - Give Us A Wink!.wav

Peak level 99.0 %
Extraction speed 7.2 X
Range quality 100.0 %
Test CRC 23C8E631
Copy CRC 23C8E631
Copy OK

No errors occurred


AccurateRip summary

Track 1 not present in database
Track 2 not present in database
Track 3 not present in database
Track 4 not present in database
Track 5 not present in database
Track 6 not present in database
Track 7 not present in database
Track 8 not present in database
Track 9 not present in database
Track 10 not present in database
Track 11 not present in database
Track 12 not present in database

None of the tracks are present in the AccurateRip database

End of status report

–– CUETools DB Plugin V2.1.6

[CTDB TOCID: M23OPW81hwbFFOPk2XVc9TzC5yU-] found
Submit result: M23OPW81hwbFFOPk2XVc9TzC5yU- has been confirmed
Track | CTDB Status
1 | (16/16) Accurately ripped
2 | (16/16) Accurately ripped
3 | (16/16) Accurately ripped
4 | (16/16) Accurately ripped
5 | (16/16) Accurately ripped
6 | (16/16) Accurately ripped
7 | (16/16) Accurately ripped
8 | (16/16) Accurately ripped
9 | (16/16) Accurately ripped
10 | (16/16) Accurately ripped
11 | (16/16) Accurately ripped
12 | (16/16) Accurately ripped


==== Log checksum 29073931B92F47081EA2D3556BFE709F9763AB81E4959DB1F13D371F666BD617 ====


[CUETools log; Date: 05.01.2018 11:06:33; Version: 2.1.5]
[CTDB TOCID: M23OPW81hwbFFOPk2XVc9TzC5yU-] found.
Track | CTDB Status
1 | (23/23) Accurately ripped
2 | (23/23) Accurately ripped
3 | (23/23) Accurately ripped
4 | (23/23) Accurately ripped
5 | (23/23) Accurately ripped
6 | (23/23) Accurately ripped
7 | (23/23) Accurately ripped
8 | (23/23) Accurately ripped
9 | (23/23) Accurately ripped
10 | (23/23) Accurately ripped
11 | (23/23) Accurately ripped
12 | (23/23) Accurately ripped
[AccurateRip ID: 00191b82-00ebed5d-9a0ca50c] found.
Track [ CRC | V2 ] Status
01 [40e7bc26|6ac07cda] (0+3/3) Accurately ripped
02 [0d8ed2e0|759774bb] (0+3/3) Accurately ripped
03 [c8b57ccf|033cefe0] (0+3/3) Accurately ripped
04 [af177897|e50f5c04] (0+3/3) Accurately ripped
05 [2525cbc5|93f9509f] (0+3/3) Accurately ripped
06 [932fdfd3|5bb436ab] (0+3/3) Accurately ripped
07 [40970e9a|b0962ff5] (0+3/3) Accurately ripped
08 [3259d8d8|c30e3391] (0+3/3) Accurately ripped
09 [48d1a34a|dad254dd] (0+3/3) Accurately ripped
10 [bf0625a0|55dd1f26] (0+3/3) Accurately ripped
11 [6aeffbf3|689c0ad0] (0+3/3) Accurately ripped
12 [a30271d4|0f7b0f19] (0+3/3) Accurately ripped

Track Peak [ CRC32 ] [W/O NULL] [ LOG ]
– 99,0 [23C8E631] [C9BED3B7] CRC32
01 96,6 [93F4431A] [A3284A5A]
02 95,7 [C19F9BE2] [2EA3AA44]
03 95,6 [ECC945B1] [B4326BBC]
04 95,6 [41281596] [03FF3FE2]
05 95,6 [97F5A35C] [02D492C9]
06 95,6 [296ACA53] [1511E0EC]
07 95,6 [F2176F5B] [7D1C1A22]
08 95,6 [1751306E] [1CB53D52]
09 94,6 [C4845EF2] [F25B99CE]
10 97,8 [CE07F270] [542F6F96]
11 99,0 [63101B13] [87DB5792]
12 99,0 [7A0B1442] [1912BC87]


Chic Haus - Junio 2018

Tracklist CD5 - 1977 Off The Record:

01 Fever Of Love
02 Lost Angels
03 Midnight To Daylight
04 Windy City
05 Live For Today
06 She Gimme Lovin’
07 Laura Lee
08 Hard Times
09 Funk It Up

Bonus Tracks:
10 Midnight To Daylight (Extended Version)
11 Lost Angels (Demo Version)
12 She Gimme Lovin’ (Alternate Version)
13 Hard Times (Alternate Version)
14 Fever Of Love (U.S. Single Version)
15 Fever Of Love (Demo)
16 A Distinct Lack Of Ancient (Demo)

Exact Audio Copy V1.3 from 2. September 2016

EAC extraction logfile from 23. December 2017, 10:30

The Sweet / Off The Record

Used drive : PLEXTOR BD-R PX-B950SA Adapter: 1 ID: 1

Read mode : Secure
Utilize accurate stream : Yes
Defeat audio cache : Yes
Make use of C2 pointers : No

Read offset correction : 6
Overread into Lead-In and Lead-Out : No
Fill up missing offset samples with silence : Yes
Delete leading and trailing silent blocks : No
Null samples used in CRC calculations : Yes
Used interface : Native Win32 interface for Win NT & 2000

Used output format : Internal WAV Routines
Sample format : 44.100 Hz; 16 Bit; Stereo


TOC of the extracted CD

Track | Start | Length | Start sector | End sector
––––––––––––––––––––––––––––-
1 | 0:00.00 | 4:02.18 | 0 | 18167
2 | 4:02.18 | 4:04.21 | 18168 | 36488
3 | 8:06.39 | 3:32.25 | 36489 | 52413
4 | 11:38.64 | 7:29.33 | 52414 | 86121
5 | 19:08.22 | 3:23.74 | 86122 | 101420
6 | 22:32.21 | 4:04.62 | 101421 | 119782
7 | 26:37.08 | 4:17.30 | 119783 | 139087
8 | 30:54.38 | 4:01.32 | 139088 | 157194
9 | 34:55.70 | 3:33.54 | 157195 | 173223
10 | 38:29.49 | 4:09.72 | 173224 | 191970
11 | 42:39.46 | 3:46.31 | 191971 | 208951
12 | 46:26.02 | 4:06.50 | 208952 | 227451
13 | 50:32.52 | 4:38.27 | 227452 | 248328
14 | 55:11.04 | 4:11.11 | 248329 | 267164
15 | 59:22.15 | 1:58.55 | 267165 | 276069
16 | 61:20.70 | 1:03.68 | 276070 | 280862


Range status and errors

Selected range

Filename C:\Users\Alex\Desktop\ALLexxess\Sweet\2017 Sensational Sweet (9CD Box Set Sony Music)\1977 Off The Record\The Sweet - Off The Record.wav

Peak level 99.8 %
Extraction speed 7.5 X
Range quality 100.0 %
Test CRC CFD6118D
Copy CRC CFD6118D
Copy OK

No errors occurred


AccurateRip summary

Track 1 not present in database
Track 2 not present in database
Track 3 not present in database
Track 4 not present in database
Track 5 not present in database
Track 6 not present in database
Track 7 not present in database
Track 8 not present in database
Track 9 not present in database
Track 10 not present in database
Track 11 not present in database
Track 12 not present in database
Track 13 not present in database
Track 14 not present in database
Track 15 not present in database
Track 16 not present in database

None of the tracks are present in the AccurateRip database

End of status report

–– CUETools DB Plugin V2.1.6

[CTDB TOCID: 7VQ47_W.iNbUrrKSNqTg08QTWTc-] found
Submit result: 7VQ47_W.iNbUrrKSNqTg08QTWTc- has been confirmed
Track | CTDB Status
1 | (19/19) Accurately ripped
2 | (19/19) Accurately ripped
3 | (19/19) Accurately ripped
4 | (19/19) Accurately ripped
5 | (19/19) Accurately ripped
6 | (19/19) Accurately ripped
7 | (19/19) Accurately ripped
8 | (19/19) Accurately ripped
9 | (19/19) Accurately ripped
10 | (19/19) Accurately ripped
11 | (19/19) Accurately ripped
12 | (19/19) Accurately ripped
13 | (19/19) Accurately ripped
14 | (19/19) Accurately ripped
15 | (19/19) Accurately ripped
16 | (19/19) Accurately ripped


==== Log checksum B8EBF16EA30DE32A261370FA694A456A3B3D613E03A505018538A28631E9F64D ====


[CUETools log; Date: 05.01.2018 11:07:09; Version: 2.1.5]
[CTDB TOCID: 7VQ47_W.iNbUrrKSNqTg08QTWTc-] found.
Track | CTDB Status
1 | (26/26) Accurately ripped
2 | (26/26) Accurately ripped
3 | (26/26) Accurately ripped
4 | (26/26) Accurately ripped
5 | (26/26) Accurately ripped
6 | (26/26) Accurately ripped
7 | (26/26) Accurately ripped
8 | (26/26) Accurately ripped
9 | (26/26) Accurately ripped
10 | (26/26) Accurately ripped
11 | (26/26) Accurately ripped
12 | (26/26) Accurately ripped
13 | (26/26) Accurately ripped
14 | (26/26) Accurately ripped
15 | (26/26) Accurately ripped
16 | (26/26) Accurately ripped
[AccurateRip ID: 00277082-01d52035-e00ea010] found.
Track [ CRC | V2 ] Status
01 [c255aeea|ee5c88de] (0+3/3) Accurately ripped
02 [5befbc84|e2951314] (0+3/3) Accurately ripped
03 [c536720a|b15d2890] (0+3/3) Accurately ripped
04 [9a31a637|5a8f191f] (0+3/3) Accurately ripped
05 [9406d2cd|dd77d258] (0+3/3) Accurately ripped
06 [b28d0e13|98b34b9d] (0+3/3) Accurately ripped
07 [215a90d2|a197b7c1] (0+3/3) Accurately ripped
08 [936dff94|78a2e10b] (0+3/3) Accurately ripped
09 [33614529|c6fd53e0] (0+3/3) Accurately ripped
10 [4659b458|466e48aa] (0+3/3) Accurately ripped
11 [ab91f10a|86d8a214] (0+3/3) Accurately ripped
12 [14e7a0ba|68e68df5] (0+3/3) Accurately ripped
13 [3bac55ab|f51f2746] (0+3/3) Accurately ripped
14 [01e15dee|0260cd00] (0+3/3) Accurately ripped
15 [d8d06010|2260301f] (0+3/3) Accurately ripped
16 [72f95ef0|d8829dfa] (0+3/3) Accurately ripped

Track Peak [ CRC32 ] [W/O NULL] [ LOG ]
– 99,8 [CFD6118D] [F578B178] CRC32
01 98,9 [2D7409A1] [947D4F6B]
02 98,9 [FD808C37] [6DEEA876]
03 98,9 [13BB0B41] [53EF2A91]
04 99,8 [3A62842E] [63525A4A]
05 99,4 [207CF98B] [9B04A7B0]
06 98,9 [46EC83C1] [6F7C6E21]
07 98,9 [438797E5] [DDFD0A86]
08 98,9 [1B7390E0] [E82D3987]
09 99,2 [3E5AB141] [51553420]
10 99,5 [5ED27CD4] [0BE52752]
11 99,4 [3CBDD2CB] [78F1AF65]
12 99,0 [E9AD4ED6] [91CDA987]
13 98,9 [E2E23117] [7F054BF1]
14 99,0 [B40678E3] [AFCF313B]
15 88,2 [6B2D4420] [AD7AFFA3]
16 97,8 [7CB57FCC] [C19CD06B]


Chic Haus - Junio 2018

Tracklist CD6 - 1977 Level Headed:

01 Dream On
02 Love Is Like Oxygen
03 California Nights
04 Strong Love
05 Fountain
06 Anthem No. I (Lady Of The Lake)
07 Silverbird
08 Lettres D’Amour
09 Anthem No. II
10 Air On ’A’ Tape Loop

Bonus Tracks:
11 Love Is Like Oxygen (7’’ Version)
12 California Nights (7’’ Version)
13 Cover Girl
14 Show Me The Way

New Bonus Tracks:
15 Dream On (Rehersal Version)
16 Strong Love (Rehersal Version)
17 California Nights (Rehersal Version)
18 Dream On (Acoustic Guitar Demo)

Exact Audio Copy V1.3 from 2. September 2016

EAC extraction logfile from 23. December 2017, 10:01

The Sweet / Level Headed

Used drive : PLEXTOR BD-R PX-B950SA Adapter: 1 ID: 1

Read mode : Secure
Utilize accurate stream : Yes
Defeat audio cache : Yes
Make use of C2 pointers : No

Read offset correction : 6
Overread into Lead-In and Lead-Out : No
Fill up missing offset samples with silence : Yes
Delete leading and trailing silent blocks : No
Null samples used in CRC calculations : Yes
Used interface : Native Win32 interface for Win NT & 2000

Used output format : Internal WAV Routines
Sample format : 44.100 Hz; 16 Bit; Stereo


TOC of the extracted CD

Track | Start | Length | Start sector | End sector
––––––––––––––––––––––––––––-
1 | 0:00.00 | 2:51.40 | 0 | 12864
2 | 2:51.40 | 6:52.26 | 12865 | 43790
3 | 9:43.66 | 3:44.11 | 43791 | 60601
4 | 13:28.02 | 3:27.16 | 60602 | 76142
5 | 16:55.18 | 4:44.10 | 76143 | 97452
6 | 21:39.28 | 4:10.31 | 97453 | 116233
7 | 25:49.59 | 3:25.37 | 116234 | 131645
8 | 29:15.21 | 3:29.02 | 131646 | 147322
9 | 32:44.23 | 1:02.36 | 147323 | 152008
10 | 33:46.59 | 5:57.51 | 152009 | 178834
11 | 39:44.35 | 3:46.42 | 178835 | 195826
12 | 43:31.02 | 3:21.71 | 195827 | 210972
13 | 46:52.73 | 3:33.62 | 210973 | 227009
14 | 50:26.60 | 3:23.62 | 227010 | 242296
15 | 53:50.47 | 2:51.12 | 242297 | 255133
16 | 56:41.59 | 3:29.57 | 255134 | 270865
17 | 60:11.41 | 4:13.11 | 270866 | 289851
18 | 64:24.52 | 1:01.33 | 289852 | 294459


Range status and errors

Selected range

Filename C:\Users\Alex\Desktop\ALLexxess\Sweet\2017 Sensational Sweet (9CD Box Set Sony Music)\1977 Level Headed\The Sweet - Level Headed.wav

Peak level 99.2 %
Extraction speed 7.9 X
Range quality 100.0 %
Test CRC C87A5720
Copy CRC C87A5720
Copy OK

No errors occurred


AccurateRip summary

Track 1 not present in database
Track 2 not present in database
Track 3 not present in database
Track 4 not present in database
Track 5 not present in database
Track 6 not present in database
Track 7 not present in database
Track 8 not present in database
Track 9 not present in database
Track 10 not present in database
Track 11 not present in database
Track 12 not present in database
Track 13 not present in database
Track 14 not present in database
Track 15 not present in database
Track 16 not present in database
Track 17 not present in database
Track 18 not present in database

None of the tracks are present in the AccurateRip database

End of status report

–– CUETools DB Plugin V2.1.6

[CTDB TOCID: wbCeJUtyG9O3DIfGRmhuTbT.gYo-] found
Submit result: wbCeJUtyG9O3DIfGRmhuTbT.gYo- has been confirmed
Track | CTDB Status
1 | (17/17) Accurately ripped
2 | (17/17) Accurately ripped
3 | (17/17) Accurately ripped
4 | (17/17) Accurately ripped
5 | (17/17) Accurately ripped
6 | (17/17) Accurately ripped
7 | (17/17) Accurately ripped
8 | (17/17) Accurately ripped
9 | (17/17) Accurately ripped
10 | (17/17) Accurately ripped
11 | (17/17) Accurately ripped
12 | (17/17) Accurately ripped
13 | (17/17) Accurately ripped
14 | (17/17) Accurately ripped
15 | (17/17) Accurately ripped
16 | (17/17) Accurately ripped
17 | (17/17) Accurately ripped
18 | (17/17) Accurately ripped


==== Log checksum A341A7E5A7B8C39A1FF57A44F449224AD0C586E68F3F8A306A63FC472830A95E ====


[CUETools log; Date: 05.01.2018 11:07:38; Version: 2.1.5]
[CTDB TOCID: wbCeJUtyG9O3DIfGRmhuTbT.gYo-] found.
Track | CTDB Status
1 | (24/24) Accurately ripped
2 | (24/24) Accurately ripped
3 | (24/24) Accurately ripped
4 | (24/24) Accurately ripped
5 | (24/24) Accurately ripped
6 | (24/24) Accurately ripped
7 | (24/24) Accurately ripped
8 | (24/24) Accurately ripped
9 | (24/24) Accurately ripped
10 | (24/24) Accurately ripped
11 | (24/24) Accurately ripped
12 | (24/24) Accurately ripped
13 | (24/24) Accurately ripped
14 | (24/24) Accurately ripped
15 | (24/24) Accurately ripped
16 | (24/24) Accurately ripped
17 | (24/24) Accurately ripped
18 | (24/24) Accurately ripped
[AccurateRip ID: 002dd3b8-0259f1d3-eb0f5612] found.
Track [ CRC | V2 ] Status
01 [c80a43c5|38d22d4a] (0+3/3) Accurately ripped
02 [232ab441|03e4df87] (0+3/3) Accurately ripped
03 [fbd5d7ae|157f9deb] (0+3/3) Accurately ripped
04 [9b3efd5f|3622c869] (0+3/3) Accurately ripped
05 [5ce5c653|d36bba63] (0+3/3) Accurately ripped
06 [3c9794f3|de1b535b] (0+3/3) Accurately ripped
07 [70ea668b|b22c4126] (0+3/3) Accurately ripped
08 [54634e76|29b80667] (0+3/3) Accurately ripped
09 [d8b9f1b7|09a0584c] (0+3/3) Accurately ripped
10 [2196b795|657b897a] (0+3/3) Accurately ripped
11 [e6111d1d|170ff2bc] (0+3/3) Accurately ripped
12 [05b80024|25896a32] (0+3/3) Accurately ripped
13 [180568c0|4a90caec] (0+3/3) Accurately ripped
14 [e7024e3f|e33ee856] (0+3/3) Accurately ripped
15 [622b0422|d8f7f192] (0+3/3) Accurately ripped
16 [d7787679|5318d5fb] (0+3/3) Accurately ripped
17 [4917ce37|bb9b7ea9] (0+3/3) Accurately ripped
18 [25ec20a0|5016f6b5] (0+3/3) Accurately ripped

Track Peak [ CRC32 ] [W/O NULL] [ LOG ]
– 99,2 [C87A5720] [3D6F2E05] CRC32
01 99,0 [0CD33571] [1933BC65]
02 99,0 [A4CB3F73] [74364C21]
03 99,0 [751DB775] [9E9CC81E]
04 99,2 [2AB65661] [7E853582]
05 99,0 [86E7AA81] [04268CE6]
06 99,0 [8807AC6D] [B52FA0AC]
07 99,0 [F06376FD] [3F836B55]
08 99,0 [FDE309C6] [F10631EC]
09 88,2 [0AA0CA77] [0EA67901]
10 99,0 [8FECB915] [6C24528A]
11 99,0 [4A98DDDF] [8DCD995B]
12 99,0 [1F92D0FA] [55F33F26]
13 99,0 [AAD2D03A] [B885E909]
14 99,1 [C3F05C01] [2F8265C6]
15 99,0 [C2D4166E] [62AAB120]
16 99,0 [AD8CD319] [D5ADD681]
17 99,0 [DF60D5BC] [0C0F3C78]
18 99,0 [C38E0DCA] [FFCB0339]


Chic Haus - Junio 2018

Tracklist CD7 - 2017 The Lost Singles:

01 Stairway To The Stars (Non Album Single A-Side)
02 Why Don’t You Do It To Me (Non Album Single B-Side)
03 Funk It Up (Disco Mix / Non Album Single B-Side)
04 A Distinct Lack Of Ancient (Non Album Single B-Side)
05 Action (Non Album Single A-Side Version)
06 Fox On The Run (Non Album Single A-Side Version)
07 Miss Demeanor (Non Album Single B-Side)
08 Someone Else Will (Non Album Single B-Side)
09 Burn On The Flame
10 Teenage Rampage (Non Album Single A-Side)
11 Own Up, Take A Look At Yourself (Non Album Single B-Side)
12 The Ballroom Blitz (Non Album Single A-Side)
13 Rock & Roll Disgrace (Non Album Single A-Side Version)
14 Hell Raiser (Non Album Single A-Side)
15 Burning (Non Album Single B-Side)
16 Block Buster! (Non Album Single A-Side)
17 Need A Lot Of Lovin’ (Non Album Single B-Side)
18 Wig Wam Bam (Non Album Single A-Side)
19 New York Connection (Non Album Single B-Side)
20 Little Willy (Non Album Single A-Side)
21 Man From Mecca (Non Album Single B-Side)
22 Poppa Joe (Non Album Single A-Side)
23 Alexander Graham Bell (Non Album Single A-Side)
24 You’re Not Wrong For Loving Me (Non Album Single B-Side)

Exact Audio Copy V1.3 from 2. September 2016

EAC extraction logfile from 22. December 2017, 17:25

The Sweet / The Lost Singles

Used drive : PLEXTOR BD-R PX-B950SA Adapter: 1 ID: 1

Read mode : Secure
Utilize accurate stream : Yes
Defeat audio cache : Yes
Make use of C2 pointers : No

Read offset correction : 6
Overread into Lead-In and Lead-Out : No
Fill up missing offset samples with silence : Yes
Delete leading and trailing silent blocks : No
Null samples used in CRC calculations : Yes
Used interface : Native Win32 interface for Win NT & 2000

Used output format : Internal WAV Routines
Sample format : 44.100 Hz; 16 Bit; Stereo


TOC of the extracted CD

Track | Start | Length | Start sector | End sector
––––––––––––––––––––––––––––-
1 | 0:00.00 | 3:03.50 | 0 | 13774
2 | 3:03.50 | 3:12.09 | 13775 | 28183
3 | 6:15.59 | 5:27.58 | 28184 | 52766
4 | 11:43.42 | 4:05.66 | 52767 | 71207
5 | 15:49.33 | 3:18.30 | 71208 | 86087
6 | 19:07.63 | 3:22.19 | 86088 | 101256
7 | 22:30.07 | 3:27.09 | 101257 | 116790
8 | 25:57.16 | 3:25.39 | 116791 | 132204
9 | 29:22.55 | 3:36.27 | 132205 | 148431
10 | 32:59.07 | 3:34.64 | 148432 | 164545
11 | 36:33.71 | 3:58.43 | 164546 | 182438
12 | 40:32.39 | 4:01.41 | 182439 | 200554
13 | 44:34.05 | 3:51.14 | 200555 | 217893
14 | 48:25.19 | 3:17.15 | 217894 | 232683
15 | 51:42.34 | 4:05.02 | 232684 | 251060
16 | 55:47.36 | 3:12.17 | 251061 | 265477
17 | 58:59.53 | 3:01.25 | 265478 | 279077
18 | 62:01.03 | 3:01.08 | 279078 | 292660
19 | 65:02.11 | 3:36.31 | 292661 | 308891
20 | 68:38.42 | 3:13.73 | 308892 | 323439
21 | 71:52.40 | 2:47.02 | 323440 | 335966
22 | 74:39.42 | 3:06.16 | 335967 | 349932
23 | 77:45.58 | 2:57.07 | 349933 | 363214
24 | 80:42.65 | 2:48.48 | 363215 | 375862


Range status and errors

Selected range

Filename C:\Users\Alex\Desktop\ALLexxess\Sweet\2017 Sensational Sweet (9CD Box Set Sony Music)\2017 The Lost Singles\The Sweet - The Lost Singles.wav

Peak level 99.1 %
Extraction speed 8.8 X
Range quality 100.0 %
Test CRC 61138B61
Copy CRC 61138B61
Copy OK

No errors occurred


AccurateRip summary

Track 1 not present in database
Track 2 not present in database
Track 3 not present in database
Track 4 not present in database
Track 5 not present in database
Track 6 not present in database
Track 7 not present in database
Track 8 not present in database
Track 9 not present in database
Track 10 not present in database
Track 11 not present in database
Track 12 not present in database
Track 13 not present in database
Track 14 not present in database
Track 15 not present in database
Track 16 not present in database
Track 17 not present in database
Track 18 not present in database
Track 19 not present in database
Track 20 not present in database
Track 21 not present in database
Track 22 not present in database
Track 23 not present in database
Track 24 not present in database

None of the tracks are present in the AccurateRip database

End of status report

–– CUETools DB Plugin V2.1.6

[CTDB TOCID: VDyJ2lfZKHfp064sI6BqUfCjCp8-] found
Submit result: VDyJ2lfZKHfp064sI6BqUfCjCp8- has been confirmed
Track | CTDB Status
1 | (19/19) Accurately ripped
2 | (19/19) Accurately ripped
3 | (19/19) Accurately ripped
4 | (19/19) Accurately ripped
5 | (19/19) Accurately ripped
6 | (19/19) Accurately ripped
7 | (19/19) Accurately ripped
8 | (19/19) Accurately ripped
9 | (19/19) Accurately ripped
10 | (19/19) Accurately ripped
11 | (19/19) Accurately ripped
12 | (19/19) Accurately ripped
13 | (19/19) Accurately ripped
14 | (19/19) Accurately ripped
15 | (19/19) Accurately ripped
16 | (19/19) Accurately ripped
17 | (19/19) Accurately ripped
18 | (19/19) Accurately ripped
19 | (19/19) Accurately ripped
20 | (19/19) Accurately ripped
21 | (19/19) Accurately ripped
22 | (19/19) Accurately ripped
23 | (19/19) Accurately ripped
24 | (19/19) Accurately ripped


==== Log checksum 0802AB76CCCE0528CFEC1A1314DC749FAD94DA9D47CB2E844EBDA7012F41253E ====


[CUETools log; Date: 05.01.2018 11:08:10; Version: 2.1.5]
[CTDB TOCID: VDyJ2lfZKHfp064sI6BqUfCjCp8-] found.
Track | CTDB Status
1 | (28/28) Accurately ripped
2 | (28/28) Accurately ripped
3 | (28/28) Accurately ripped
4 | (28/28) Accurately ripped
5 | (28/28) Accurately ripped
6 | (28/28) Accurately ripped
7 | (28/28) Accurately ripped
8 | (28/28) Accurately ripped
9 | (28/28) Accurately ripped
10 | (28/28) Accurately ripped
11 | (28/28) Accurately ripped
12 | (28/28) Accurately ripped
13 | (28/28) Accurately ripped
14 | (28/28) Accurately ripped
15 | (28/28) Accurately ripped
16 | (28/28) Accurately ripped
17 | (28/28) Accurately ripped
18 | (28/28) Accurately ripped
19 | (28/28) Accurately ripped
20 | (28/28) Accurately ripped
21 | (28/28) Accurately ripped
22 | (28/28) Accurately ripped
23 | (28/28) Accurately ripped
24 | (28/28) Accurately ripped
[AccurateRip ID: 004aaecd-050648b5-6b139318] found.
Track [ CRC | V2 ] Status
01 [105574fd|ba9b23df] (0+3/3) Accurately ripped
02 [07ceecdf|7bfe2983] (0+3/3) Accurately ripped
03 [5c799382|0c2f1d5c] (0+3/3) Accurately ripped
04 [0f64117c|38ace1ef] (0+3/3) Accurately ripped
05 [30e3cee3|66412252] (0+3/3) Accurately ripped
06 [834fb960|6846f35e] (0+3/3) Accurately ripped
07 [85ab06fa|ef8b0b22] (0+3/3) Accurately ripped
08 [6daa6822|433d5cd1] (0+3/3) Accurately ripped
09 [1e505a12|aefb0260] (0+3/3) Accurately ripped
10 [387323ac|0c59647a] (0+3/3) Accurately ripped
11 [69b57060|62dab8c0] (0+3/3) Accurately ripped
12 [26051e51|7ec07d59] (0+3/3) Accurately ripped
13 [fc311464|e8054fec] (0+3/3) Accurately ripped
14 [6a9674b7|88d165fd] (0+3/3) Accurately ripped
15 [b3ceb55f|67855111] (0+3/3) Accurately ripped
16 [606d9110|d0dcb400] (0+3/3) Accurately ripped
17 [28979be2|1421f3e3] (0+3/3) Accurately ripped
18 [af5d1d78|8461f654] (0+3/3) Accurately ripped
19 [a46aa779|cbe1de35] (0+3/3) Accurately ripped
20 [4312290f|f6f09ca3] (0+3/3) Accurately ripped
21 [93c1e3a2|fb33831c] (0+3/3) Accurately ripped
22 [b33241a8|95380c4f] (0+3/3) Accurately ripped
23 [209fa2eb|e5a4a0bc] (0+3/3) Accurately ripped
24 [e5e7a249|8546c3f4] (0+3/3) Accurately ripped

Track Peak [ CRC32 ] [W/O NULL] [ LOG ]
– 99,1 [61138B61] [98EA8A85] CRC32
01 98,9 [CB8AB959] [9E25C962]
02 99,0 [79CAE359] [90C25295]
03 99,0 [A579712C] [ECCAC74F]
04 98,9 [7B9AA339] [3CD9B7FD]
05 99,0 [C9E729F7] [23244A46]
06 99,1 [D7694ED9] [76312B41]
07 95,6 [D6E7D0CA] [92862633]
08 95,6 [9F440128] [EC174DAF]
09 95,6 [7B2293F2] [BD894193]
10 95,6 [F4E8B60E] [5C2F32ED]
11 95,6 [5F866B2E] [5D42030D]
12 98,8 [385CDFC4] [008675A5]
13 94,5 [86BF535B] [44990C1C]
14 98,8 [F9B8B6C8] [FEF0D307]
15 99,0 [1958D83C] [D14F9D70]
16 98,8 [5E130B2D] [79C53A4C]
17 99,0 [7AB343BB] [F7D3D2BE]
18 98,8 [6B1704ED] [22784584]
19 98,8 [E1A562DC] [14D2F0F7]
20 98,8 [5E33752A] [91045DA9]
21 99,0 [B8471F7F] [DC837517]
22 98,8 [0660EFEB] [6BEEADA4]
23 99,0 [DF130642] [1CDAA985]
24 99,0 [5F33CE91] [FA7D67C6]


Chic Haus - Junio 2018

Tracklist CD8 - 2017 The Rainbow (Live In The UK 1973):

01 The Stripper (Intro)
02 Hell Raiser
03 Burning / Someone Else Will
04 Rock’n Roll Disgrace
05 Wig Wam Bam
06 Need A Lot Of Loving
07 Done Me Wrong All Right
08 You’re Not Wrong For Loving Me
09 The Man With The Golden Arm
10 Little Willy
11 Teenage Rampage
12 Rock ’N' Roll Medley:
a Keep-A-Knockin' / b Shakin' All Over / c Lucille
d Great Balls Of Fire / e Reelin' And Rockin'
f Peppermint Twist / g Shout
13 Ballroom Blitz
14 Block Buster!

Exact Audio Copy V1.3 from 2. September 2016

EAC extraction logfile from 22. December 2017, 16:47

The Sweet / The Rainbow (Live In The UK 1973)

Used drive : PLEXTOR BD-R PX-B950SA Adapter: 1 ID: 1

Read mode : Secure
Utilize accurate stream : Yes
Defeat audio cache : Yes
Make use of C2 pointers : No

Read offset correction : 6
Overread into Lead-In and Lead-Out : No
Fill up missing offset samples with silence : Yes
Delete leading and trailing silent blocks : No
Null samples used in CRC calculations : Yes
Used interface : Native Win32 interface for Win NT & 2000

Used output format : Internal WAV Routines
Sample format : 44.100 Hz; 16 Bit; Stereo


TOC of the extracted CD

Track | Start | Length | Start sector | End sector
––––––––––––––––––––––––––––-
1 | 0:00.00 | 1:38.03 | 0 | 7352
2 | 1:38.03 | 3:36.17 | 7353 | 23569
3 | 5:14.20 | 5:53.00 | 23570 | 50044
4 | 11:07.20 | 4:24.00 | 50045 | 69844
5 | 15:31.20 | 3:04.43 | 69845 | 83687
6 | 18:35.63 | 2:58.27 | 83688 | 97064
7 | 21:34.15 | 8:14.33 | 97065 | 134147
8 | 29:48.48 | 3:19.65 | 134148 | 149137
9 | 33:08.38 | 13:02.52 | 149138 | 207839
10 | 46:11.15 | 4:39.40 | 207840 | 228804
11 | 50:50.55 | 3:35.00 | 228805 | 244929
12 | 54:25.55 | 8:28.55 | 244930 | 283084
13 | 62:54.35 | 4:26.70 | 283085 | 303104
14 | 67:21.30 | 5:31.23 | 303105 | 327952


Range status and errors

Selected range

Filename C:\Users\Alex\Desktop\ALLexxess\Sweet\2017 Sensational Sweet (9CD Box Set Sony Music)\2017 The Rainbow (Live In The UK 1973)\The Sweet - The Rainbow (Live In The UK 1973).wav

Peak level 99.8 %
Extraction speed 8.6 X
Range quality 100.0 %
Test CRC 4D10E732
Copy CRC 4D10E732
Copy OK

No errors occurred


AccurateRip summary

Track 1 not present in database
Track 2 not present in database
Track 3 not present in database
Track 4 not present in database
Track 5 not present in database
Track 6 not present in database
Track 7 not present in database
Track 8 not present in database
Track 9 not present in database
Track 10 not present in database
Track 11 not present in database
Track 12 not present in database
Track 13 not present in database
Track 14 not present in database

None of the tracks are present in the AccurateRip database

End of status report

–– CUETools DB Plugin V2.1.6

[CTDB TOCID: 8XOLpyN2lvKksSvY86LNdEVqyMo-] found
Submit result: 8XOLpyN2lvKksSvY86LNdEVqyMo- has been confirmed
Track | CTDB Status
1 | (17/17) Accurately ripped
2 | (17/17) Accurately ripped
3 | (17/17) Accurately ripped
4 | (17/17) Accurately ripped
5 | (17/17) Accurately ripped
6 | (17/17) Accurately ripped
7 | (17/17) Accurately ripped
8 | (17/17) Accurately ripped
9 | (17/17) Accurately ripped
10 | (17/17) Accurately ripped
11 | (17/17) Accurately ripped
12 | (17/17) Accurately ripped
13 | (17/17) Accurately ripped
14 | (17/17) Accurately ripped


==== Log checksum 769B88E3FF82E34F036E252857A8D297CBF785314C0BCF3E6186D58E6FB1C65C ====


[CUETools log; Date: 05.01.2018 11:08:35; Version: 2.1.5]
[CTDB TOCID: 8XOLpyN2lvKksSvY86LNdEVqyMo-] found.
Track | CTDB Status
1 | (25/25) Accurately ripped
2 | (25/25) Accurately ripped
3 | (25/25) Accurately ripped
4 | (25/25) Accurately ripped
5 | (25/25) Accurately ripped
6 | (25/25) Accurately ripped
7 | (25/25) Accurately ripped
8 | (25/25) Accurately ripped
9 | (25/25) Accurately ripped
10 | (25/25) Accurately ripped
11 | (25/25) Accurately ripped
12 | (25/25) Accurately ripped
13 | (25/25) Accurately ripped
14 | (25/25) Accurately ripped
[AccurateRip ID: 0021bb0a-0177815c-c211140e] found.
Track [ CRC | V2 ] Status
01 [2f874b39|ca37d1d6] (0+3/3) Accurately ripped
02 [3d11552c|4bd916c2] (0+3/3) Accurately ripped
03 [8f7bb5b1|2f97bde3] (0+3/3) Accurately ripped
04 [34abfee3|fb7f496a] (0+3/3) Accurately ripped
05 [7d4aa02a|0c9894ef] (0+3/3) Accurately ripped
06 [aecb164a|b1285900] (0+3/3) Accurately ripped
07 [d70ca65a|d3e5b6fe] (0+3/3) Accurately ripped
08 [631d8010|80dfdb82] (0+3/3) Accurately ripped
09 [553b7d9d|28b1604d] (0+3/3) Accurately ripped
10 [6cad4974|b53f8163] (0+3/3) Accurately ripped
11 [f9de5ad0|6e0fc862] (0+3/3) Accurately ripped
12 [70783c4f|c72b1fca] (0+3/3) Accurately ripped
13 [fb47aa3b|de71b2a5] (0+3/3) Accurately ripped
14 [d2c90fee|8480680d] (0+3/3) Accurately ripped

Track Peak [ CRC32 ] [W/O NULL] [ LOG ]
– 99,8 [4D10E732] [970F0C4B] CRC32
01 98,9 [DCC07F7C] [BE940F42]
02 98,9 [6F65091B] [B10B8A90]
03 98,9 [A928244D] [871B63EB]
04 98,9 [211FCFD2] [463025A9]
05 98,9 [02140500] [A58FA7EE]
06 98,9 [9A77BC04] [8DB898EA]
07 98,9 [431E6AE8] [8A3B1975]
08 98,9 [07D5BDDC] [1EDA2A39]
09 99,8 [EBCFF042] [E14F1F81]
10 99,8 [05AFFCD1] [0D62BFD0]
11 99,8 [F80FF9A7] [C3B2DF54]
12 99,8 [07537788] [B2B479A7]
13 99,8 [7528320D] [7BEAC95D]
14 99,8 [ECBF5500] [64725E9F]


Chic Haus - Junio 2018

Tracklist CD9 - 2017 The Sweet At The BEEB (The BBC Radio Sessions):

01 Lollipop Man (Radio One Club)
02 Time (Radio One Club)
03 The Juicer (BBC Session)
04 All You’ll Ever Get From Me (Dave Cash)
05 Love Me Two Times (BBC Session)
06 I Can’t Explain (BBC Session)
07 Paperback Writer (Jimmy Young Show)
08 I Can Hear The Grass Grow (BBC Session)
09 Baby What You Want Me To Do (BBC Session)
10 The Who Medley:
a Substitute / b Daddy Rollin' Stone / c Happy Jack
d Pictures Of Lily / e My Generation / f I'm A Boy / g I Can't Explain
(BBC Session)
11 Summertime Blues (BBC Session)
12 Done Me Wrong All Right (BBC Session)
13 Mr. Business Man (Terry Wogan)
14 Santa Monica Sunshine (Dave Lee Travis)
15 Chop Chop (Jimmy Young Show)
16 Lucille / Great Balls Of Fire (Alan Freeman)
17 Need A Lot Of Lovin’ (BBC Session)

Exact Audio Copy V1.3 from 2. September 2016

EAC extraction logfile from 22. December 2017, 16:00

The Sweet / The Sweet At The BEEB

Used drive : PLEXTOR BD-R PX-B950SA Adapter: 1 ID: 1

Read mode : Secure
Utilize accurate stream : Yes
Defeat audio cache : Yes
Make use of C2 pointers : No

Read offset correction : 6
Overread into Lead-In and Lead-Out : No
Fill up missing offset samples with silence : Yes
Delete leading and trailing silent blocks : No
Null samples used in CRC calculations : Yes
Used interface : Native Win32 interface for Win NT & 2000

Used output format : Internal WAV Routines
Sample format : 44.100 Hz; 16 Bit; Stereo


TOC of the extracted CD

Track | Start | Length | Start sector | End sector
––––––––––––––––––––––––––––-
1 | 0:00.00 | 2:26.61 | 0 | 11010
2 | 2:26.61 | 1:54.51 | 11011 | 19611
3 | 4:21.37 | 2:42.72 | 19612 | 31833
4 | 7:04.34 | 2:31.24 | 31834 | 43182
5 | 9:35.58 | 2:14.39 | 43183 | 53271
6 | 11:50.22 | 1:59.42 | 53272 | 62238
7 | 13:49.64 | 2:20.65 | 62239 | 72803
8 | 16:10.54 | 3:17.61 | 72804 | 87639
9 | 19:28.40 | 2:51.67 | 87640 | 100531
10 | 22:20.32 | 4:48.30 | 100532 | 122161
11 | 27:08.62 | 3:00.49 | 122162 | 135710
12 | 30:09.36 | 2:20.29 | 135711 | 146239
13 | 32:29.65 | 2:51.62 | 146240 | 159126
14 | 35:21.52 | 2:45.51 | 159127 | 171552
15 | 38:07.28 | 2:04.19 | 171553 | 180871
16 | 40:11.47 | 2:48.13 | 180872 | 193484
17 | 42:59.60 | 2:57.25 | 193485 | 206784


Range status and errors

Selected range

Filename C:\Users\Alex\Desktop\ALLexxess\Sweet\2017 Sensational Sweet (9CD Box Set Sony Music)\2017 The Sweet At The BEEB\The Sweet - The Sweet At The BEEB.wav

Peak level 99.0 %
Extraction speed 6.8 X
Range quality 100.0 %
Test CRC DD511985
Copy CRC DD511985
Copy OK

No errors occurred


AccurateRip summary

Track 1 not present in database
Track 2 not present in database
Track 3 not present in database
Track 4 not present in database
Track 5 not present in database
Track 6 not present in database
Track 7 not present in database
Track 8 not present in database
Track 9 not present in database
Track 10 not present in database
Track 11 not present in database
Track 12 not present in database
Track 13 not present in database
Track 14 not present in database
Track 15 not present in database
Track 16 not present in database
Track 17 not present in database

None of the tracks are present in the AccurateRip database

End of status report

–– CUETools DB Plugin V2.1.6

[CTDB TOCID: KPNErQ6hId5Q59TSNAGRGBPor9c-] found
Submit result: KPNErQ6hId5Q59TSNAGRGBPor9c- has been confirmed
Track | CTDB Status
1 | (18/18) Accurately ripped
2 | (18/18) Accurately ripped
3 | (18/18) Accurately ripped
4 | (18/18) Accurately ripped
5 | (18/18) Accurately ripped
6 | (18/18) Accurately ripped
7 | (18/18) Accurately ripped
8 | (18/18) Accurately ripped
9 | (18/18) Accurately ripped
10 | (18/18) Accurately ripped
11 | (18/18) Accurately ripped
12 | (18/18) Accurately ripped
13 | (18/18) Accurately ripped
14 | (18/18) Accurately ripped
15 | (18/18) Accurately ripped
16 | (18/18) Accurately ripped
17 | (18/18) Accurately ripped


==== Log checksum ABD74D7343EF4E595EA34CF2D144412AAE7B79515AD2403B102BA49B8CF897B3 ====


[CUETools log; Date: 05.01.2018 11:08:58; Version: 2.1.5]
[CTDB TOCID: KPNErQ6hId5Q59TSNAGRGBPor9c-] found.
Track | CTDB Status
1 | (27/27) Accurately ripped
2 | (27/27) Accurately ripped
3 | (27/27) Accurately ripped
4 | (27/27) Accurately ripped
5 | (27/27) Accurately ripped
6 | (27/27) Accurately ripped
7 | (27/27) Accurately ripped
8 | (27/27) Accurately ripped
9 | (27/27) Accurately ripped
10 | (27/27) Accurately ripped
11 | (27/27) Accurately ripped
12 | (27/27) Accurately ripped
13 | (27/27) Accurately ripped
14 | (27/27) Accurately ripped
15 | (27/27) Accurately ripped
16 | (27/27) Accurately ripped
17 | (27/27) Accurately ripped
[AccurateRip ID: 001b6fae-01610611-d00ac511] found.
Track [ CRC | V2 ] Status
01 [9fa9f6f0|226d38c5] (0+3/3) Accurately ripped
02 [5a58dc70|fe2ba533] (0+3/3) Accurately ripped
03 [108a2655|007fa1b7] (0+3/3) Accurately ripped
04 [4d6d7581|808e95c2] (0+3/3) Accurately ripped
05 [0474b925|4654441f] (0+3/3) Accurately ripped
06 [7788506d|4ea7319c] (0+3/3) Accurately ripped
07 [d0e4de1f|2c407089] (0+3/3) Accurately ripped
08 [6ef7b2af|b76bd35e] (0+3/3) Accurately ripped
09 [afe289d8|f5f7d479] (0+3/3) Accurately ripped
10 [8adfc5db|1ece9f1c] (0+3/3) Accurately ripped
11 [a06c9fe2|a5547716] (0+3/3) Accurately ripped
12 [f9e54391|d0d1bb08] (0+3/3) Accurately ripped
13 [0860d52f|d3142c72] (0+3/3) Accurately ripped
14 [907c8792|feef1219] (0+3/3) Accurately ripped
15 [36a62ff5|7eadf5d8] (0+3/3) Accurately ripped
16 [42bb71f8|d0995a0f] (0+3/3) Accurately ripped
17 [6e16a402|e7135797] (0+3/3) Accurately ripped

Track Peak [ CRC32 ] [W/O NULL] [ LOG ]
– 99,0 [DD511985] [489AB7FE] CRC32
01 99,0 [33A9C8CD] [F3BA48CB]
02 99,0 [AC4E7AAC] [D708B366]
03 99,0 [08F00352] [0035EEFE]
04 99,0 [778CED86] [5D310876]
05 99,0 [05E668CD] [7223C145]
06 99,0 [07E5BBF7] [1F4D4A3D]
07 99,0 [A8E060E4] [D95F3ACF]
08 99,0 [A5B31925] [FC88488C]
09 99,0 [C8BE916C] [6D5FCA40]
10 99,0 [DDBC8CAF] [1B452072]
11 99,0 [9136DFED] [8865C702]
12 99,0 [446B868A] [8E95418F]
13 99,0 [620132CD] [79B321CC]
14 99,0 [4436171B] [BF3A43A1]
15 99,0 [4328402D] [E2F396DB]
16 94,2 [63298AFD] [3229F134]
17 99,0 [57A0DEE1] [7B1F819E]


* * *

All thanks go to ALLexxess

The Sweet or The Sweet in my Blog

Download The Sweet - Sensational Sweet (Chapter One: The Wild Bunch) (2017):