Subcategories

The Who - 1st Singles Box (2004) [12CD Box Set]

Posted By: v3122
The Who - 1st Singles Box (2004) [12CD Box Set]

The Who - 1st Singles Box (2004)
EAC | Flac(Image) + Cue + Log & MP3 CBR 320Kbps
Polydor Records, 9866338 | ~ 617 or 247 Mb | Scans(png) -> 1034 Mb
Rock / Hard Rock / Mod / Progressive Rock / Classic Rock

A throwback to the era of 7" vinyl singles, the Who merge modern technology with a retro aesthetic with their First Singles Box. Featuring 12 CD singles in picture sleeves, the set contains classic tracks like "My Generation," "I Can See for Miles," and "Won't Get Fooled Again," along with their accompanying B-sides. And even though changing a compact disc 12 times doesn't quite have the same charm as going through a box of old vinyl, the set at least exposes a whole new generation of Who fans to the lost art of track pairings.

by Gregory Heaney, allmusic
The Who - 1st Singles Box (2004) [12CD Box Set]

The Who - 1st Singles Box (2004):

The Who - 1st Singles Box (2004) [12CD Box Set]

Tracklist CD01:

01 I Can't Explain
02 Bald Headed Woman

Exact Audio Copy V1.3 from 2. September 2016

EAC extraction logfile from 14. January 2018, 10:06

The Who / The 1st Singles Box CD1

Used drive : PLEXTOR BD-R PX-B950SA Adapter: 1 ID: 1

Read mode : Secure
Utilize accurate stream : Yes
Defeat audio cache : Yes
Make use of C2 pointers : No

Read offset correction : 6
Overread into Lead-In and Lead-Out : No
Fill up missing offset samples with silence : Yes
Delete leading and trailing silent blocks : No
Null samples used in CRC calculations : Yes
Used interface : Native Win32 interface for Win NT & 2000

Used output format : Internal WAV Routines
Sample format : 44.100 Hz; 16 Bit; Stereo


TOC of the extracted CD

Track | Start | Length | Start sector | End sector
––––––––––––––––––––––––––––-
1 | 0:00.00 | 2:06.21 | 0 | 9470
2 | 2:06.21 | 2:11.11 | 9471 | 19306


Range status and errors

Selected range

Filename C:\Users\Alex\Desktop\ALLexxess\The Who\2004 The 1st Single Box (12CD Box Set Polydor Records)\CD01\The Who - The 1st Singles Box CD1.wav

Peak level 99.9 %
Extraction speed 2.2 X
Range quality 100.0 %
Test CRC 483660D3
Copy CRC 483660D3
Copy OK

No errors occurred


AccurateRip summary

Track 1 accurately ripped (confidence 9) [087FCE4F] (AR v2)
Track 2 accurately ripped (confidence 9) [487BE1D8] (AR v2)

All tracks accurately ripped

End of status report

–– CUETools DB Plugin V2.1.6

[CTDB TOCID: 9_9zgd_WofScKQ6ULLBjGIH0jBg-] found
Submit result: 9_9zgd_WofScKQ6ULLBjGIH0jBg- has been confirmed
Track | CTDB Status
1 | (9/9) Accurately ripped
2 | (9/9) Accurately ripped


==== Log checksum 12589FAEE7E53E96548E6E16975E87FEE4F808F2C31904DF370EA45D70949855 ====


The Who - 1st Singles Box (2004) [12CD Box Set]

Tracklist CD02:

01 My Generation
02 Shout & Shimmy

Exact Audio Copy V1.3 from 2. September 2016

EAC extraction logfile from 14. January 2018, 9:51

The Who / The 1st Singles Box CD2

Used drive : PLEXTOR BD-R PX-B950SA Adapter: 1 ID: 1

Read mode : Secure
Utilize accurate stream : Yes
Defeat audio cache : Yes
Make use of C2 pointers : No

Read offset correction : 6
Overread into Lead-In and Lead-Out : No
Fill up missing offset samples with silence : Yes
Delete leading and trailing silent blocks : No
Null samples used in CRC calculations : Yes
Used interface : Native Win32 interface for Win NT & 2000

Used output format : Internal WAV Routines
Sample format : 44.100 Hz; 16 Bit; Stereo


TOC of the extracted CD

Track | Start | Length | Start sector | End sector
––––––––––––––––––––––––––––-
1 | 0:00.00 | 3:20.19 | 0 | 15018
2 | 3:20.19 | 3:16.52 | 15019 | 29770


Range status and errors

Selected range

Filename C:\Users\Alex\Desktop\ALLexxess\The Who\2004 The 1st Single Box (12CD Box Set Polydor Records)\CD02\The Who - The 1st Singles Box CD2.wav

Peak level 99.8 %
Extraction speed 5.2 X
Range quality 100.0 %
Test CRC 4796EE6F
Copy CRC 4796EE6F
Copy OK

No errors occurred


AccurateRip summary

Track 1 accurately ripped (confidence 9) [FBE63F09] (AR v2)
Track 2 accurately ripped (confidence 9) [D7FC10B6] (AR v2)

All tracks accurately ripped

End of status report

–– CUETools DB Plugin V2.1.6

[CTDB TOCID: SVYPOA7oJ9b1yPgyJH2enJ0Bq80-] found
Submit result: SVYPOA7oJ9b1yPgyJH2enJ0Bq80- has been confirmed
Track | CTDB Status
1 | (9/9) Accurately ripped
2 | (9/9) Accurately ripped


==== Log checksum A2B34EC7D960989AA3D1AC1FFC778A36511A2071B27844EF09AFCCF594421A90 ====


The Who - 1st Singles Box (2004) [12CD Box Set]

Tracklist CD03:

01 Substitute
02 Circles

Exact Audio Copy V1.3 from 2. September 2016

EAC extraction logfile from 14. January 2018, 9:41

The Who / The 1st Singles Box CD3

Used drive : PLEXTOR BD-R PX-B950SA Adapter: 1 ID: 1

Read mode : Secure
Utilize accurate stream : Yes
Defeat audio cache : Yes
Make use of C2 pointers : No

Read offset correction : 6
Overread into Lead-In and Lead-Out : No
Fill up missing offset samples with silence : Yes
Delete leading and trailing silent blocks : No
Null samples used in CRC calculations : Yes
Used interface : Native Win32 interface for Win NT & 2000

Used output format : Internal WAV Routines
Sample format : 44.100 Hz; 16 Bit; Stereo


TOC of the extracted CD

Track | Start | Length | Start sector | End sector
––––––––––––––––––––––––––––-
1 | 0:00.00 | 3:51.21 | 0 | 17345
2 | 3:51.21 | 3:12.66 | 17346 | 31811


Range status and errors

Selected range

Filename C:\Users\Alex\Desktop\ALLexxess\The Who\2004 The 1st Single Box (12CD Box Set Polydor Records)\CD03\The Who - The 1st Singles Box CD3.wav

Peak level 99.9 %
Extraction speed 2.4 X
Range quality 100.0 %
Test CRC F657725B
Copy CRC F657725B
Copy OK

No errors occurred


AccurateRip summary

Track 1 accurately ripped (confidence 9) [90D1B338] (AR v2)
Track 2 accurately ripped (confidence 9) [D8468AEA] (AR v2)

All tracks accurately ripped

End of status report

–– CUETools DB Plugin V2.1.6

[CTDB TOCID: pgGcQuACGlh3GZJwfAUBGRTOCHU-] found
Submit result: pgGcQuACGlh3GZJwfAUBGRTOCHU- has been confirmed
Track | CTDB Status
1 | (9/9) Accurately ripped
2 | (9/9) Accurately ripped


==== Log checksum 29C420697426F047A6C17BBE3AB0ACC2423C3EAC1D1E25C1DA92D3B1A9698C86 ====


The Who - 1st Singles Box (2004) [12CD Box Set]

Tracklist CD04:

01 I'm A Boy
02 In The City

Exact Audio Copy V1.3 from 2. September 2016

EAC extraction logfile from 14. January 2018, 9:08

The Who / The 1st Single Box CD4

Used drive : PLEXTOR BD-R PX-B950SA Adapter: 1 ID: 1

Read mode : Secure
Utilize accurate stream : Yes
Defeat audio cache : Yes
Make use of C2 pointers : No

Read offset correction : 6
Overread into Lead-In and Lead-Out : No
Fill up missing offset samples with silence : Yes
Delete leading and trailing silent blocks : No
Null samples used in CRC calculations : Yes
Used interface : Native Win32 interface for Win NT & 2000

Used output format : Internal WAV Routines
Sample format : 44.100 Hz; 16 Bit; Stereo


TOC of the extracted CD

Track | Start | Length | Start sector | End sector
––––––––––––––––––––––––––––-
1 | 0:00.00 | 2:38.25 | 0 | 11874
2 | 2:38.25 | 2:24.04 | 11875 | 22678


Range status and errors

Selected range

Filename C:\Users\Alex\Desktop\ALLexxess\The Who\2004 The 1st Single Box (12CD Box Set Polydor Records)\CD04\The Who - The 1st Single Box CD4.wav

Peak level 99.8 %
Extraction speed 2.3 X
Range quality 100.0 %
Test CRC 67980178
Copy CRC 67980178
Copy OK

No errors occurred


AccurateRip summary

Track 1 accurately ripped (confidence 9) [EC66783C] (AR v2)
Track 2 accurately ripped (confidence 9) [6072D477] (AR v2)

All tracks accurately ripped

End of status report

–– CUETools DB Plugin V2.1.6

[CTDB TOCID: .gpQ2028HGNhLAVxehk4y1pFETU-] found
Submit result: .gpQ2028HGNhLAVxehk4y1pFETU- has been confirmed
Track | CTDB Status
1 | (9/9) Accurately ripped
2 | (9/9) Accurately ripped


==== Log checksum 9BA3D92785AA741865E30DFB070A9C05F6E64401BD00B83518E92C15D1ADF156 ====


The Who - 1st Singles Box (2004) [12CD Box Set]

Tracklist CD05:

01 Happy Jack
02 I've Been Away

Exact Audio Copy V1.3 from 2. September 2016

EAC extraction logfile from 13. January 2018, 16:52

The Who / The 1st Singles Box CD5

Used drive : PLEXTOR BD-R PX-B950SA Adapter: 1 ID: 1

Read mode : Secure
Utilize accurate stream : Yes
Defeat audio cache : Yes
Make use of C2 pointers : No

Read offset correction : 6
Overread into Lead-In and Lead-Out : No
Fill up missing offset samples with silence : Yes
Delete leading and trailing silent blocks : No
Null samples used in CRC calculations : Yes
Used interface : Native Win32 interface for Win NT & 2000

Used output format : Internal WAV Routines
Sample format : 44.100 Hz; 16 Bit; Stereo


TOC of the extracted CD

Track | Start | Length | Start sector | End sector
––––––––––––––––––––––––––––-
1 | 0:00.00 | 2:11.33 | 0 | 9857
2 | 2:11.33 | 2:07.44 | 9858 | 19426


Range status and errors

Selected range

Filename C:\Users\Alex\Desktop\ALLexxess\The Who\2004 The 1st Single Box (12CD Box Set Polydor Records)\CD05\The Who - The 1st Singles Box CD5.wav

Peak level 99.9 %
Extraction speed 5.8 X
Range quality 100.0 %
Test CRC 54153082
Copy CRC 54153082
Copy OK

No errors occurred


AccurateRip summary

Track 1 accurately ripped (confidence 9) [7765D0C2] (AR v2)
Track 2 accurately ripped (confidence 9) [8D35AB9B] (AR v2)

All tracks accurately ripped

End of status report

–– CUETools DB Plugin V2.1.6

[CTDB TOCID: RywqUa3ZzvP8FKhW6jwF8Z2Zj1w-] found
Submit result: RywqUa3ZzvP8FKhW6jwF8Z2Zj1w- has been confirmed
Track | CTDB Status
1 | (9/9) Accurately ripped
2 | (9/9) Accurately ripped


==== Log checksum 0DB4D1580A8D4451F8C9D632FF3DCC63D2BE947108CFC09C42809C4C7E528429 ====


The Who - 1st Singles Box (2004) [12CD Box Set]

Tracklist CD06:

01 Pictures Of Lilly
02 Doctor Doctor

Exact Audio Copy V1.3 from 2. September 2016

EAC extraction logfile from 13. January 2018, 16:40

The Who / The 1st Singles Box CD6

Used drive : PLEXTOR BD-R PX-B950SA Adapter: 1 ID: 1

Read mode : Secure
Utilize accurate stream : Yes
Defeat audio cache : Yes
Make use of C2 pointers : No

Read offset correction : 6
Overread into Lead-In and Lead-Out : No
Fill up missing offset samples with silence : Yes
Delete leading and trailing silent blocks : No
Null samples used in CRC calculations : Yes
Used interface : Native Win32 interface for Win NT & 2000

Used output format : Internal WAV Routines
Sample format : 44.100 Hz; 16 Bit; Stereo


TOC of the extracted CD

Track | Start | Length | Start sector | End sector
––––––––––––––––––––––––––––-
1 | 0:00.00 | 2:45.22 | 0 | 12396
2 | 2:45.22 | 3:01.28 | 12397 | 25999


Range status and errors

Selected range

Filename C:\Users\Alex\Desktop\ALLexxess\The Who\2004 The 1st Single Box (12CD Box Set Polydor Records)\CD06\The Who - The 1st Singles Box CD6.wav

Peak level 99.8 %
Extraction speed 6.1 X
Range quality 100.0 %
Test CRC B93C6061
Copy CRC B93C6061
Copy OK

No errors occurred


AccurateRip summary

Track 1 accurately ripped (confidence 9) [F36897B3] (AR v2)
Track 2 accurately ripped (confidence 9) [3C08181F] (AR v2)

All tracks accurately ripped

End of status report

–– CUETools DB Plugin V2.1.6

[CTDB TOCID: t9koavn0VgIcQ9a1xt6Loeg_2ls-] found
Submit result: t9koavn0VgIcQ9a1xt6Loeg_2ls- has been confirmed
Track | CTDB Status
1 | (9/9) Accurately ripped
2 | (9/9) Accurately ripped


==== Log checksum 642E009B9488672A0C18C8B98E38439AF17872A06A4427F4DE451F567A1BC110 ====


The Who - 1st Singles Box (2004) [12CD Box Set]

Tracklist CD07:

01 I Can See For Miles
02 Someone's Coming

Exact Audio Copy V1.3 from 2. September 2016

EAC extraction logfile from 13. January 2018, 16:16

The Who / The 1st Singles Box CD7

Used drive : PLEXTOR BD-R PX-B950SA Adapter: 1 ID: 1

Read mode : Secure
Utilize accurate stream : Yes
Defeat audio cache : Yes
Make use of C2 pointers : No

Read offset correction : 6
Overread into Lead-In and Lead-Out : No
Fill up missing offset samples with silence : Yes
Delete leading and trailing silent blocks : No
Null samples used in CRC calculations : Yes
Used interface : Native Win32 interface for Win NT & 2000

Used output format : Internal WAV Routines
Sample format : 44.100 Hz; 16 Bit; Stereo


TOC of the extracted CD

Track | Start | Length | Start sector | End sector
––––––––––––––––––––––––––––-
1 | 0:00.00 | 4:08.24 | 0 | 18623
2 | 4:08.24 | 2:30.72 | 18624 | 29945


Range status and errors

Selected range

Filename C:\Users\Alex\Desktop\ALLexxess\The Who\2004 The 1st Single Box (12CD Box Set Polydor Records)\CD07\The Who - The 1st Singles Box CD7.wav

Peak level 99.8 %
Extraction speed 5.3 X
Range quality 100.0 %
Test CRC 72DA2725
Copy CRC 72DA2725
Copy OK

No errors occurred


AccurateRip summary

Track 1 accurately ripped (confidence 9) [507B0F45] (AR v2)
Track 2 accurately ripped (confidence 9) [A9AFF09A] (AR v2)

All tracks accurately ripped

End of status report

–– CUETools DB Plugin V2.1.6

[CTDB TOCID: 9_N56m1xIxqledxj7ZgJNm4020Y-] found
Submit result: 9_N56m1xIxqledxj7ZgJNm4020Y- has been confirmed
Track | CTDB Status
1 | (9/9) Accurately ripped
2 | (9/9) Accurately ripped


==== Log checksum 2A36C56437FEED6F7CBFDC1442E725E43EF90907E94FEE6D21C3D784CA11D6E3 ====


The Who - 1st Singles Box (2004) [12CD Box Set]

Tracklist CD08:

01 Pinball Wizard
02 Dogs Part II

Exact Audio Copy V1.3 from 2. September 2016

EAC extraction logfile from 13. January 2018, 15:57

The Who / The 1st Singles Box CD8

Used drive : PLEXTOR BD-R PX-B950SA Adapter: 1 ID: 1

Read mode : Secure
Utilize accurate stream : Yes
Defeat audio cache : Yes
Make use of C2 pointers : No

Read offset correction : 6
Overread into Lead-In and Lead-Out : No
Fill up missing offset samples with silence : Yes
Delete leading and trailing silent blocks : No
Null samples used in CRC calculations : Yes
Used interface : Native Win32 interface for Win NT & 2000

Used output format : Internal WAV Routines
Sample format : 44.100 Hz; 16 Bit; Stereo


TOC of the extracted CD

Track | Start | Length | Start sector | End sector
––––––––––––––––––––––––––––-
1 | 0:00.00 | 3:03.59 | 0 | 13783
2 | 3:03.59 | 2:27.28 | 13784 | 24836


Range status and errors

Selected range

Filename C:\Users\Alex\Desktop\ALLexxess\The Who\2004 The 1st Single Box (12CD Box Set Polydor Records)\CD08\The Who - The 1st Singles Box CD8.wav

Peak level 99.9 %
Extraction speed 2.3 X
Range quality 100.0 %
Test CRC 4D7CBDF8
Copy CRC 4D7CBDF8
Copy OK

No errors occurred


AccurateRip summary

Track 1 accurately ripped (confidence 9) [D3D7165B] (AR v2)
Track 2 accurately ripped (confidence 9) [B4A988DF] (AR v2)

All tracks accurately ripped

End of status report

–– CUETools DB Plugin V2.1.6

[CTDB TOCID: hrUgJfxAzxIx.aro4rCgQdDCDr0-] found
Submit result: hrUgJfxAzxIx.aro4rCgQdDCDr0- has been confirmed
Track | CTDB Status
1 | (9/9) Accurately ripped
2 | (9/9) Accurately ripped


==== Log checksum 922A1111D3B5720A961C89215E212CF0533B298022A7AE199BFF781716EBF447 ====


The Who - 1st Singles Box (2004) [12CD Box Set]

Tracklist CD09:

01 Won't Get Fooled Again
02 Don't Know Myself

Exact Audio Copy V1.3 from 2. September 2016

EAC extraction logfile from 12. January 2018, 18:09

The Who / The 1st Singles Box CD9

Used drive : PLEXTOR BD-R PX-B950SA Adapter: 1 ID: 1

Read mode : Secure
Utilize accurate stream : Yes
Defeat audio cache : Yes
Make use of C2 pointers : No

Read offset correction : 6
Overread into Lead-In and Lead-Out : No
Fill up missing offset samples with silence : Yes
Delete leading and trailing silent blocks : No
Null samples used in CRC calculations : Yes
Used interface : Native Win32 interface for Win NT & 2000

Used output format : Internal WAV Routines
Sample format : 44.100 Hz; 16 Bit; Stereo


TOC of the extracted CD

Track | Start | Length | Start sector | End sector
––––––––––––––––––––––––––––-
1 | 0:00.00 | 3:40.48 | 0 | 16547
2 | 3:40.48 | 4:57.24 | 16548 | 38846


Range status and errors

Selected range

Filename C:\Users\Alex\Desktop\ ALLexxess\The Who\2004 The 1st Single Box (12CD Box Set Polydor Records)\CD09\The Who - The 1st Singles Box CD9.wav

Peak level 99.8 %
Extraction speed 2.5 X
Range quality 100.0 %
Test CRC 4AB51334
Copy CRC 4AB51334
Copy OK

No errors occurred


AccurateRip summary

Track 1 accurately ripped (confidence 9) [A413A6AC] (AR v2)
Track 2 accurately ripped (confidence 9) [22627096] (AR v2)

All tracks accurately ripped

End of status report

–– CUETools DB Plugin V2.1.6

[CTDB TOCID: kvsKvcl05dKdrNrA7RaQEl0uM_U-] found
Submit result: kvsKvcl05dKdrNrA7RaQEl0uM_U- has been confirmed
Track | CTDB Status
1 | (8/8) Accurately ripped
2 | (8/8) Accurately ripped


==== Log checksum 4682B2A3C7ED9AC9E336D92E782028CA9F44DCE7E1F55A876B714A454993EE39 ====


The Who - 1st Singles Box (2004) [12CD Box Set]

Tracklist CD10:

01 5'15
02 Water

Exact Audio Copy V1.3 from 2. September 2016

EAC extraction logfile from 12. January 2018, 17:51

The Who / The 1st Singles Box CD10

Used drive : PLEXTOR BD-R PX-B950SA Adapter: 1 ID: 1

Read mode : Secure
Utilize accurate stream : Yes
Defeat audio cache : Yes
Make use of C2 pointers : No

Read offset correction : 6
Overread into Lead-In and Lead-Out : No
Fill up missing offset samples with silence : Yes
Delete leading and trailing silent blocks : No
Null samples used in CRC calculations : Yes
Used interface : Native Win32 interface for Win NT & 2000

Used output format : Internal WAV Routines
Sample format : 44.100 Hz; 16 Bit; Stereo


TOC of the extracted CD

Track | Start | Length | Start sector | End sector
––––––––––––––––––––––––––––-
1 | 0:00.00 | 4:23.24 | 0 | 19748
2 | 4:23.24 | 4:41.49 | 19749 | 40872


Range status and errors

Selected range

Filename C:\Users\Alex\Desktop\ALLexxess\The Who\2004 The 1st Single Box (12CD Box Set Polydor Records)\CD10\The Who - The 1st Singles Box CD10.wav

Peak level 99.9 %
Extraction speed 6.6 X
Range quality 100.0 %
Test CRC 0A25C0A3
Copy CRC 0A25C0A3
Copy OK

No errors occurred


AccurateRip summary

Track 1 accurately ripped (confidence 9) [4562AFCE] (AR v2)
Track 2 accurately ripped (confidence 9) [2A79BE05] (AR v2)

All tracks accurately ripped

End of status report

–– CUETools DB Plugin V2.1.6

[CTDB TOCID: vE6Ji.laX13p5GI4.i1qkbWPEbI-] found
Submit result: vE6Ji.laX13p5GI4.i1qkbWPEbI- has been confirmed
Track | CTDB Status
1 | (9/9) Accurately ripped
2 | (9/9) Accurately ripped


==== Log checksum 4143C37923EAD9E1BB48E9C7A575E664864C807844448A132994893B9735E91C ====


The Who - 1st Singles Box (2004) [12CD Box Set]

Tracklist CD11:

01 Who Are You
02 Had Enough

Exact Audio Copy V1.3 from 2. September 2016

EAC extraction logfile from 12. January 2018, 17:41

The Who / The 1st Singles Box CD11

Used drive : PLEXTOR BD-R PX-B950SA Adapter: 1 ID: 1

Read mode : Secure
Utilize accurate stream : Yes
Defeat audio cache : Yes
Make use of C2 pointers : No

Read offset correction : 6
Overread into Lead-In and Lead-Out : No
Fill up missing offset samples with silence : Yes
Delete leading and trailing silent blocks : No
Null samples used in CRC calculations : Yes
Used interface : Native Win32 interface for Win NT & 2000

Used output format : Internal WAV Routines
Sample format : 44.100 Hz; 16 Bit; Stereo


TOC of the extracted CD

Track | Start | Length | Start sector | End sector
––––––––––––––––––––––––––––-
1 | 0:00.00 | 5:08.33 | 0 | 23132
2 | 5:08.33 | 4:30.42 | 23133 | 43424


Range status and errors

Selected range

Filename C:\Users\Alex\Desktop\ALLexxess\The Who\2004 The 1st Single Box (12CD Box Set Polydor Records)\CD11\The Who - The 1st Singles Box CD11.wav

Peak level 99.9 %
Extraction speed 5.1 X
Range quality 99.9 %
Test CRC D5D7C11B
Copy CRC D5D7C11B
Copy OK

No errors occurred


AccurateRip summary

Track 1 accurately ripped (confidence 9) [048734AC] (AR v2)
Track 2 accurately ripped (confidence 9) [90C0A1E3] (AR v2)

All tracks accurately ripped

End of status report

–– CUETools DB Plugin V2.1.6

[CTDB TOCID: mvk0.005mntUHSN7kA7crbfYXhs-] found
Submit result: mvk0.005mntUHSN7kA7crbfYXhs- has been confirmed
Track | CTDB Status
1 | (9/9) Accurately ripped
2 | (9/9) Accurately ripped


==== Log checksum C4C4478D3D2574E9A4ECB609EC11D4BBBA491634B334BE18DAD3F970C6204077 ====


The Who - 1st Singles Box (2004) [12CD Box Set]

Tracklist CD12:

01 Real Good Looking Boy
02 Old Red Wine

Exact Audio Copy V1.3 from 2. September 2016

EAC extraction logfile from 12. January 2018, 17:24

The Who / The 1st Singles Box CD12

Used drive : PLEXTOR BD-R PX-B950SA Adapter: 1 ID: 1

Read mode : Secure
Utilize accurate stream : Yes
Defeat audio cache : Yes
Make use of C2 pointers : No

Read offset correction : 6
Overread into Lead-In and Lead-Out : No
Fill up missing offset samples with silence : Yes
Delete leading and trailing silent blocks : No
Null samples used in CRC calculations : Yes
Used interface : Native Win32 interface for Win NT & 2000

Used output format : Internal WAV Routines
Sample format : 44.100 Hz; 16 Bit; Stereo


TOC of the extracted CD

Track | Start | Length | Start sector | End sector
––––––––––––––––––––––––––––-
1 | 0:00.00 | 5:42.74 | 0 | 25723
2 | 5:42.74 | 3:44.26 | 25724 | 42549


Range status and errors

Selected range

Filename C:\Users\Alex\Desktop\ALLexxess\The Who\2004 The 1st Single Box (12CD Box Set Polydor Records)\CD12\The Who - The 1st Singles Box CD12.wav

Peak level 99.8 %
Extraction speed 2.5 X
Range quality 100.0 %
Test CRC B4301149
Copy CRC B4301149
Copy OK

No errors occurred


AccurateRip summary

Track 1 accurately ripped (confidence 9) [940CC917] (AR v2)
Track 2 accurately ripped (confidence 9) [01381D9C] (AR v2)

All tracks accurately ripped

End of status report

–– CUETools DB Plugin V2.1.6

[CTDB TOCID: UNNhTjPUNYT.2KIEdPlhqVqphuE-] found
Submit result: UNNhTjPUNYT.2KIEdPlhqVqphuE- has been confirmed
Track | CTDB Status
1 | (11/11) Accurately ripped
2 | (11/11) Accurately ripped


==== Log checksum F6DA2285742DD6FD65A2B89B5BA02ADBA2A1ACC19B34CD417817C394725B37E6 ====


The Who - 1st Singles Box (2004) [12CD Box Set]

All thanks go to ALLexxess

The Who or The Who in my Blog

Download The Who - 1st Singles Box (2004):