Subcategories

Thelonious Monk - The Riverside Tenor Sessions (1957-1961) [7CD Box Set] (1998)

Posted By: gribovar
Thelonious Monk - The Riverside Tenor Sessions (1957-1961) [7CD Box Set] (1998)

Thelonious Monk - The Riverside Tenor Sessions (1957-1961) [7CD Box Set] (1998)
EAC Rip | WavPack (image+.cue+log) - 1,71 GB | MP3 CBR 320 kbps (LAME 3.93) - 729 MB | Covers included
Genre: Jazz | RAR 3% Rec. | Label: Analogue Productions (APJ 037)

Despite various reissue formats over several decades, the seven original LPs contained in Thelonious Monk - The Riverside Tenor Sessions stood perfectly well on their own at the time of initial release and remain among the highest achievements of a truly golden age. Recorded and released between 1956 and 1961, these seven Monk combo albums were critical in Monk's emergence from a decade of ridicule and neglect to his status at the pinnacle of the jazz pantheon. In addition to some of his best recorded piano performances and more than two dozen of his profoundly personal compositions, these albums provide an overview of the era's major tenor saxophonists, with contributions by Sonny Rollins, Coleman Hawkins, John Coltrane, Johnny Griffin, Charlie Rouse and Harold Land. Max Roach, Art Blakely, Roy Haynes and Thad Jones are among the other jazz immortals featured on the essential Brilliant Corners, Monk's Music, Thelonious Monk and John Coltrane, Thelonious in Action, Misterioso, 5 by Monk by 5 and Quartet Plus Two at the Blackhawk.

Thelonious Monk - The Riverside Tenor Sessions (1957-1961) [7CD Box Set] (1998)

CD 1: Thelonious Monk - Brilliant Corners (1957)
EAC Rip | WavPack (image+.cue+log) - 187 MB | MP3 CBR 320 kbps (LAME 3.93) - 106 MB | Covers included
Genre: Jazz | RAR 3% Rec. | Label: Analogue Productions

Tracklist:
01. Brilliant Corners
02. Ba-Lue Bolivar Ba-Lues-Are
03. Pannonica
04. I Surrender, Dear
05. Bemsha Swing

Total time: 43:03

Exact Audio Copy V0.99 prebeta 5 from 4. May 2009

EAC extraction logfile from 17. November 2009, 15:54

Thelonious Monk / Brilliant Corners

Used drive : PLEXTOR DVDR PX-755A Adapter: 5 ID: 0

Read mode : Secure
Utilize accurate stream : Yes
Defeat audio cache : Yes
Make use of C2 pointers : No

Read offset correction : 30
Overread into Lead-In and Lead-Out : Yes
Fill up missing offset samples with silence : Yes
Delete leading and trailing silent blocks : No
Null samples used in CRC calculations : Yes
Used interface : Installed external ASPI interface

Used output format : Internal WAV Routines
Sample format : 44.100 Hz; 16 Bit; Stereo


TOC of the extracted CD

Track | Start | Length | Start sector | End sector
––––––––––––––––––––––––––––-
1 | 0:00.00 | 7:46.57 | 0 | 35006
2 | 7:46.57 | 13:11.50 | 35007 | 94381
3 | 20:58.32 | 8:52.20 | 94382 | 134301
4 | 29:50.52 | 5:29.43 | 134302 | 159019
5 | 35:20.20 | 7:42.30 | 159020 | 193699


Range status and errors

Selected range

Filename C:\NetLab Exclusive\Thelonious Monk - Brilliant Corners.wav

Peak level 100.0 %
Range quality 100.0 %
Test CRC 61E3BFC8
Copy CRC 61E3BFC8
Copy OK

No errors occurred


AccurateRip summary

Track 1 accurately ripped (confidence 2) [92950C7C]
Track 2 accurately ripped (confidence 2) [563F63C9]
Track 3 accurately ripped (confidence 2) [F23B890B]
Track 4 accurately ripped (confidence 2) [C88DB42A]
Track 5 accurately ripped (confidence 2) [43F686F7]

All tracks accurately ripped

End of status report

[CUETools log; Date: 11.02.2018 12:59:40; Version: 2.1.4]
[CTDB TOCID: z9KQ2fDDM7NcM5p6VjDblHjrWDg-] found.
Track | CTDB Status
1 | (4/4) Accurately ripped
2 | (4/4) Accurately ripped
3 | (4/4) Accurately ripped
4 | (4/4) Accurately ripped
5 | (4/4) Accurately ripped
[AccurateRip ID: 000967db-002b73b5-370a1605] found.
Track [ CRC | V2 ] Status
01 [92950c7c|533cc28f] (02+08/10) Accurately ripped
02 [563f63c9|5eac5870] (02+08/10) Accurately ripped
03 [f23b890b|0b1eb7c9] (02+08/10) Accurately ripped
04 [c88db42a|022ee7ba] (02+08/10) Accurately ripped
05 [43f686f7|08d1882b] (02+08/10) Accurately ripped

Track Peak [ CRC32 ] [W/O NULL] [ LOG ]
– 100,0 [61E3BFC8] [4F3A4822] CRC32
01 100,0 [FD9F22BF] [AAE3255E]
02 99,9 [0BC9F670] [A636565D]
03 73,7 [F5F7BC68] [346AA98A]
04 84,6 [4B812014] [C7FB5498]
05 98,9 [79EB452F] [07F12F7D]

Thelonious Monk - The Riverside Tenor Sessions (1957-1961) [7CD Box Set] (1998)

CD 2: Thelonious Monk Septet - Monk's Music (1957)
EAC Rip | WavPack (image+.cue+log) - 189 MB | MP3 CBR 320 kbps (LAME 3.93) - 95 MB | Covers included
Genre: Jazz | RAR 3% Rec. | Label: Analogue Productions

Tracklist:
01. Abide with Me
02. Well, You Needn't
03. Ruby, My Dear
04. Off Minor
05. Epistrophy
06. Crepescule with Nellie

Total time: 38:29

Exact Audio Copy V0.99 prebeta 5 from 4. May 2009

EAC extraction logfile from 17. November 2009, 15:16

Thelonious Monk / Monk's Music

Used drive : PLEXTOR DVDR PX-755A Adapter: 5 ID: 0

Read mode : Secure
Utilize accurate stream : Yes
Defeat audio cache : Yes
Make use of C2 pointers : No

Read offset correction : 30
Overread into Lead-In and Lead-Out : Yes
Fill up missing offset samples with silence : Yes
Delete leading and trailing silent blocks : No
Null samples used in CRC calculations : Yes
Used interface : Installed external ASPI interface

Used output format : Internal WAV Routines
Sample format : 44.100 Hz; 16 Bit; Stereo


TOC of the extracted CD

Track | Start | Length | Start sector | End sector
––––––––––––––––––––––––––––-
1 | 0:00.00 | 0:55.05 | 0 | 4129
2 | 0:55.05 | 11:28.00 | 4130 | 55729
3 | 12:23.05 | 5:28.47 | 55730 | 80376
4 | 17:51.52 | 5:10.58 | 80377 | 103684
5 | 23:02.35 | 10:48.45 | 103685 | 152329
6 | 33:51.05 | 4:37.52 | 152330 | 173156


Range status and errors

Selected range

Filename C:\NetLab Exclusive\Thelonious Monk - Monk's Music.wav

Peak level 94.4 %
Range quality 100.0 %
Test CRC 80CB5C37
Copy CRC 80CB5C37
Copy OK

No errors occurred


AccurateRip summary

Track 1 accurately ripped (confidence 2) [D0AA0434]
Track 2 accurately ripped (confidence 2) [37B35BA5]
Track 3 accurately ripped (confidence 2) [CB9B1563]
Track 4 accurately ripped (confidence 2) [DAC456F7]
Track 5 accurately ripped (confidence 2) [41DF9126]
Track 6 accurately ripped (confidence 2) [5AABEC59]

All tracks accurately ripped

End of status report

[CUETools log; Date: 11.02.2018 13:33:15; Version: 2.1.4]
[CTDB TOCID: bDk68rgumJeLfpAvPVU5e8ZdzS0-] found.
Track | CTDB Status
1 | (4/4) Accurately ripped
2 | (4/4) Accurately ripped
3 | (4/4) Accurately ripped
4 | (4/4) Accurately ripped
5 | (4/4) Accurately ripped
6 | (4/4) Accurately ripped
[AccurateRip ID: 0008b041-002fef57-41090406] found.
Track [ CRC | V2 ] Status
01 [d0aa0434|af84a26f] (02+06/10) Accurately ripped
02 [37b35ba5|9da06bd5] (02+06/10) Accurately ripped
03 [cb9b1563|645b9775] (02+06/10) Accurately ripped
04 [dac456f7|32b447e7] (02+06/10) Accurately ripped
05 [41df9126|dee19043] (02+06/10) Accurately ripped
06 [5aabec59|604ca9c0] (02+06/10) Accurately ripped
Offsetted by -667:
01 [34a93d80] (00/10) No match (V2 was not tested)
02 [6b2a62dc] (00/10) No match (V2 was not tested)
03 [75a0e66c] (00/10) No match (V2 was not tested)
04 [f0333d25] (00/10) No match (V2 was not tested)
05 [c646ac6f] (00/10) No match (V2 was not tested)
06 [768f44a3] (00/10) No match (V2 was not tested)

Track Peak [ CRC32 ] [W/O NULL] [ LOG ]
– 94,4 [80CB5C37] [84CD61F4] CRC32
01 50,2 [9C84AC26] [D3135CA2]
02 94,4 [74A6D023] [E314B1A5]
03 69,4 [B87C1BA7] [491161B9]
04 94,4 [E2BAB6F9] [261B6FFC]
05 94,4 [C4118E3C] [D6189E6C]
06 55,3 [25A546E1] [BF9C34BB]

Thelonious Monk - The Riverside Tenor Sessions (1957-1961) [7CD Box Set] (1998)

CD 3: Thelonious Monk - Thelonious Monk with John Coltrane (1961)
EAC Rip | WavPack (image+.cue+log) - 189 MB | MP3 CBR 320 kbps (LAME 3.93) - 94 MB | Covers included
Genre: Jazz | RAR 3% Rec. | Label: Analogue Productions

Tracklist:
01. Ruby, My Dear
02. Trinkle, Tinkle
03. Off Minor
04. Nutty
05. Epistrophy
06. Functional

Total time: 37:50

Exact Audio Copy V0.99 prebeta 5 from 4. May 2009

EAC extraction logfile from 17. November 2009, 14:59

Thelonious Monk With John Coltrane / Thelonious Monk With John Coltrane

Used drive : PLEXTOR DVDR PX-755A Adapter: 5 ID: 0

Read mode : Secure
Utilize accurate stream : Yes
Defeat audio cache : Yes
Make use of C2 pointers : No

Read offset correction : 30
Overread into Lead-In and Lead-Out : Yes
Fill up missing offset samples with silence : Yes
Delete leading and trailing silent blocks : No
Null samples used in CRC calculations : Yes
Used interface : Installed external ASPI interface

Used output format : Internal WAV Routines
Sample format : 44.100 Hz; 16 Bit; Stereo


TOC of the extracted CD

Track | Start | Length | Start sector | End sector
––––––––––––––––––––––––––––-
1 | 0:00.00 | 6:21.27 | 0 | 28601
2 | 6:21.27 | 6:41.37 | 28602 | 58713
3 | 13:02.64 | 5:15.63 | 58714 | 82401
4 | 18:18.52 | 6:39.08 | 82402 | 112334
5 | 24:57.60 | 3:09.42 | 112335 | 126551
6 | 28:07.27 | 9:43.03 | 126552 | 170279


Range status and errors

Selected range

Filename C:\NetLab Exclusive\Thelonious Monk With John Coltrane - Thelonious Monk With John Coltrane.wav

Peak level 100.0 %
Range quality 100.0 %
Test CRC 88E8DECB
Copy CRC 88E8DECB
Copy OK

No errors occurred


AccurateRip summary

Track 1 accurately ripped (confidence 2) [27A2792A]
Track 2 accurately ripped (confidence 2) [2A9E3A5F]
Track 3 accurately ripped (confidence 2) [5A2492C3]
Track 4 accurately ripped (confidence 2) [FF1BC057]
Track 5 accurately ripped (confidence 2) [5317365A]
Track 6 accurately ripped (confidence 2) [8E216B87]

All tracks accurately ripped

End of status report

[CUETools log; Date: 11.02.2018 13:24:34; Version: 2.1.4]
[CTDB TOCID: Or.vhcUe6yuvvJPFtCsoYcpObjA-] found.
Track | CTDB Status
1 | (3/3) Accurately ripped
2 | (3/3) Accurately ripped
3 | (3/3) Accurately ripped
4 | (3/3) Accurately ripped
5 | (3/3) Accurately ripped
6 | (3/3) Accurately ripped
[AccurateRip ID: 0008d545-002eef3e-5408de06] found.
Track [ CRC | V2 ] Status
01 [27a2792a|5fb27f54] (03+07/10) Accurately ripped
02 [2a9e3a5f|aea3b94f] (03+07/10) Accurately ripped
03 [5a2492c3|b7192c05] (03+07/10) Accurately ripped
04 [ff1bc057|34f36cd7] (03+07/10) Accurately ripped
05 [5317365a|e4a2774f] (03+07/10) Accurately ripped
06 [8e216b87|1d9fa209] (03+07/10) Accurately ripped

Track Peak [ CRC32 ] [W/O NULL] [ LOG ]
– 100,0 [88E8DECB] [C06F0074] CRC32
01 71,5 [FCBBD774] [F7EF7888]
02 81,8 [5CC643FB] [01E76921]
03 100,0 [F5609EE7] [90FA665D]
04 93,2 [7F1EB79E] [E4A96578]
05 100,0 [F1FED802] [8E77BB02]
06 62,4 [A6D84F7C] [67261D10]

Thelonious Monk - The Riverside Tenor Sessions (1957-1961) [7CD Box Set] (1998)

CD 4: Thelonious Monk Quartet with Johnny Griffin - Thelonious in Action (1958)
EAC Rip | WavPack (image+.cue+log) - 245 MB | MP3 CBR 320 kbps (LAME 3.93) - 97 MB | Covers included
Genre: Jazz | RAR 3% Rec. | Label: Analogue Productions

Tracklist:
01. Light Blue
02. Coming on the Hudson
03. Rhythm-a-ning / Epistrophy (theme)
04. Blue Monk
05. Evidence
06. Epistrophy (theme)

Total time: 39:38

Exact Audio Copy V0.99 prebeta 5 from 4. May 2009

EAC extraction logfile from 28. October 2009, 17:17

Thelonious Monk / Thelonious in Action

Used drive : PLEXTOR DVDR PX-755A Adapter: 5 ID: 0

Read mode : Secure
Utilize accurate stream : Yes
Defeat audio cache : Yes
Make use of C2 pointers : No

Read offset correction : 30
Overread into Lead-In and Lead-Out : Yes
Fill up missing offset samples with silence : Yes
Delete leading and trailing silent blocks : No
Null samples used in CRC calculations : Yes
Used interface : Installed external ASPI interface

Used output format : Internal WAV Routines
Sample format : 44.100 Hz; 16 Bit; Stereo


TOC of the extracted CD

Track | Start | Length | Start sector | End sector
––––––––––––––––––––––––––––-
1 | 0:00.00 | 5:14.60 | 0 | 23609
2 | 5:14.60 | 5:24.57 | 23610 | 47966
3 | 10:39.42 | 10:33.33 | 47967 | 95474
4 | 21:13.00 | 8:31.05 | 95475 | 133804
5 | 29:44.05 | 8:48.40 | 133805 | 173444
6 | 38:32.45 | 1:05.64 | 173445 | 178383


Range status and errors

Selected range

Filename C:\NetLab Exclusive\Thelonious Monk - Thelonious in Action.wav

Peak level 96.2 %
Range quality 100.0 %
Test CRC A7520612
Copy CRC A7520612
Copy OK

No errors occurred


AccurateRip summary

Track 1 accurately ripped (confidence 2) [311D1A62]
Track 2 accurately ripped (confidence 2) [F60E934C]
Track 3 accurately ripped (confidence 2) [C8CDE3B3]
Track 4 accurately ripped (confidence 2) [B86FFCD9]
Track 5 accurately ripped (confidence 2) [2390FEDF]
Track 6 accurately ripped (confidence 2) [0684CE73]

All tracks accurately ripped

End of status report

[CUETools log; Date: 11.02.2018 13:39:31; Version: 2.1.4]
[CTDB TOCID: eb2wvnUhoGxv7M923.mixyWld7E-] found.
Track | CTDB Status
1 | (3/3) Accurately ripped
2 | (3/3) Accurately ripped
3 | (3/3) Accurately ripped
4 | (3/3) Accurately ripped
5 | (3/3) Accurately ripped
6 | (3/3) Accurately ripped
[AccurateRip ID: 0009f58e-0035e28d-46094a06] found.
Track [ CRC | V2 ] Status
01 [311d1a62|822228ad] (03+07/10) Accurately ripped
02 [f60e934c|58dc3c31] (03+07/10) Accurately ripped
03 [c8cde3b3|989df8f6] (03+07/10) Accurately ripped
04 [b86ffcd9|44ee2c52] (03+07/10) Accurately ripped
05 [2390fedf|af9ba7d4] (03+07/10) Accurately ripped
06 [0684ce73|af3085ca] (03+07/10) Accurately ripped

Track Peak [ CRC32 ] [W/O NULL] [ LOG ]
– 96,2 [A7520612] [1F39F8C5] CRC32
01 78,9 [9A7B1A73] [A0C0D428]
02 73,6 [784CF175] [23127493]
03 88,9 [006962D5] [F7CFD632]
04 96,2 [85EAAD30] [2BE58393]
05 91,6 [C5264180] [4C001AC5]
06 62,5 [676710B6] [18C28C41]

Thelonious Monk - The Riverside Tenor Sessions (1957-1961) [7CD Box Set] (1998)

CD 5: Thelonious Monk Quartet - Misterioso (1958)
EAC Rip | WavPack (image+.cue+log) - 293 MB | MP3 CBR 320 kbps (LAME 3.93) - 116 MB | Covers included
Genre: Jazz | RAR 3% Rec. | Label: Analogue Productions

Tracklist:
01. Nutty
02. Blues Five Spot
03. Let's Cool One
04. In Walked Bud
05. Just a Gigolo
06. Misterioso

Total time: 47:23

Exact Audio Copy V0.99 prebeta 5 from 4. May 2009

EAC extraction logfile from 17. November 2009, 17:06

Thelonious Monk Quartet / Misterioso

Used drive : PLEXTOR DVDR PX-755A Adapter: 5 ID: 0

Read mode : Secure
Utilize accurate stream : Yes
Defeat audio cache : Yes
Make use of C2 pointers : No

Read offset correction : 30
Overread into Lead-In and Lead-Out : Yes
Fill up missing offset samples with silence : Yes
Delete leading and trailing silent blocks : No
Null samples used in CRC calculations : Yes
Used interface : Installed external ASPI interface

Used output format : Internal WAV Routines
Sample format : 44.100 Hz; 16 Bit; Stereo


TOC of the extracted CD

Track | Start | Length | Start sector | End sector
––––––––––––––––––––––––––––-
1 | 0:00.00 | 5:23.62 | 0 | 24286
2 | 5:23.62 | 8:15.40 | 24287 | 61451
3 | 13:39.27 | 9:18.10 | 61452 | 103311
4 | 22:57.37 | 11:22.38 | 103312 | 154499
5 | 34:20.00 | 2:08.25 | 154500 | 164124
6 | 36:28.25 | 10:54.17 | 164125 | 213191


Range status and errors

Selected range

Filename C:\NetLab Exclusive\Thelonious Monk Quartet - Misterioso.wav

Peak level 100.0 %
Range quality 100.0 %
Test CRC 2DD6B6F2
Copy CRC 2DD6B6F2
Copy OK

No errors occurred


AccurateRip summary

Track 1 accurately ripped (confidence 2) [F53235DB]
Track 2 accurately ripped (confidence 2) [B1057EE9]
Track 3 accurately ripped (confidence 2) [B135BE96]
Track 4 accurately ripped (confidence 2) [E0224413]
Track 5 accurately ripped (confidence 2) [F92A648F]
Track 6 accurately ripped (confidence 2) [79F307B5]

All tracks accurately ripped

End of status report

[CUETools log; Date: 11.02.2018 14:10:59; Version: 2.1.4]
[CTDB TOCID: Wa7q40ANIeqBpn0hU2f9rG8lRlg-] found.
Track | CTDB Status
1 | (4/4) Accurately ripped
2 | (4/4) Accurately ripped
3 | (4/4) Accurately ripped
4 | (4/4) Accurately ripped
5 | (4/4) Accurately ripped
6 | (4/4) Accurately ripped
[AccurateRip ID: 000affe4-003b71dd-410b1a06] found.
Track [ CRC | V2 ] Status
01 [f53235db|b7848423] (02+09/11) Accurately ripped
02 [b1057ee9|8e9fc072] (02+09/11) Accurately ripped
03 [b135be96|958c147a] (02+09/11) Accurately ripped
04 [e0224413|83de2d2c] (02+09/11) Accurately ripped
05 [f92a648f|eb876291] (02+09/11) Accurately ripped
06 [79f307b5|5ba37a3e] (02+09/11) Accurately ripped

Track Peak [ CRC32 ] [W/O NULL] [ LOG ]
– 100,0 [2DD6B6F2] [BC263CC6] CRC32
01 69,4 [932D9DBE] [61E6B542]
02 98,4 [63E5068C] [9B84C6AC]
03 91,5 [59D2DBB1] [54DEF8A8]
04 100,0 [D7D4BC6E] [B7D0B3C2]
05 53,9 [0607C449] [94795D4A]
06 82,6 [52A1A255] [D7FEC6B8]

Thelonious Monk - The Riverside Tenor Sessions (1957-1961) [7CD Box Set] (1998)

CD 6: Thelonious Monk Quintet - 5 by Monk by 5 (1959)
EAC Rip | WavPack (image+.cue+log) - 306 MB | MP3 CBR 320 kbps (LAME 3.93) - 109 MB | Covers included
Genre: Jazz | RAR 3% Rec. | Label: Analogue Productions

Tracklist:
01. Jackie-ing
02. Straight, No Chaser
03. Played Twice
04. I Mean You
05. Ask Me Now

Total time: 44:20

Exact Audio Copy V0.99 prebeta 5 from 4. May 2009

EAC extraction logfile from 28. October 2009, 16:59

Thelonious Monk / 5 By Monk By 5

Used drive : PLEXTOR DVDR PX-755A Adapter: 5 ID: 0

Read mode : Secure
Utilize accurate stream : Yes
Defeat audio cache : Yes
Make use of C2 pointers : No

Read offset correction : 30
Overread into Lead-In and Lead-Out : Yes
Fill up missing offset samples with silence : Yes
Delete leading and trailing silent blocks : No
Null samples used in CRC calculations : Yes
Used interface : Installed external ASPI interface

Used output format : Internal WAV Routines
Sample format : 44.100 Hz; 16 Bit; Stereo


TOC of the extracted CD

Track | Start | Length | Start sector | End sector
––––––––––––––––––––––––––––-
1 | 0:00.00 | 6:10.45 | 0 | 27794
2 | 6:10.45 | 9:25.45 | 27795 | 70214
3 | 15:36.15 | 8:03.10 | 70215 | 106449
4 | 23:39.25 | 9:52.50 | 106450 | 150899
5 | 33:32.00 | 10:48.30 | 150900 | 199529


Range status and errors

Selected range

Filename C:\NetLab Exclusive\Thelonious Monk - 5 By Monk By 5.wav

Peak level 89.9 %
Range quality 100.0 %
Test CRC E8481D61
Copy CRC E8481D61
Copy OK

No errors occurred


AccurateRip summary

Track 1 accurately ripped (confidence 2) [0A2196D6]
Track 2 accurately ripped (confidence 2) [C9EF68D8]
Track 3 accurately ripped (confidence 2) [3E026E81]
Track 4 accurately ripped (confidence 2) [62054C7A]
Track 5 accurately ripped (confidence 2) [E18BD742]

All tracks accurately ripped

End of status report

[CUETools log; Date: 11.02.2018 14:14:42; Version: 2.1.4]
[CTDB TOCID: mWVTwt.MdpbiCQmGEUree7Q56hw-] found.
Track | CTDB Status
1 | (3/3) Accurately ripped
2 | (3/3) Accurately ripped
3 | (3/3) Accurately ripped
4 | (3/3) Accurately ripped
5 | (3/3) Accurately ripped
[AccurateRip ID: 0008778a-00285704-310a6405] found.
Track [ CRC | V2 ] Status
01 [0a2196d6|363d7455] (03+05/11) Accurately ripped
02 [c9ef68d8|8004c978] (03+05/11) Accurately ripped
03 [3e026e81|0818e1b7] (03+05/11) Accurately ripped
04 [62054c7a|71c4a6ed] (03+05/11) Accurately ripped
05 [e18bd742|7cddc720] (03+05/11) Accurately ripped
Offsetted by -681:
01 [72dde996] (00/11) No match (V2 was not tested)
02 [62c99378] (00/11) No match (V2 was not tested)
03 [76f57f5b] (00/11) No match (V2 was not tested)
04 [4bab8030] (00/11) No match (V2 was not tested)
05 [24db753b] (00/11) No match (V2 was not tested)

Track Peak [ CRC32 ] [W/O NULL] [ LOG ]
– 89,9 [E8481D61] [0B755336] CRC32
01 83,8 [82D7D7BA] [5C14595F]
02 88,6 [A91F6B91] [AEDB0D07]
03 85,6 [CDE32F41] [723075CC]
04 89,9 [B58D8429] [1410CB18]
05 82,5 [886DFC23] [96F362A7]

Thelonious Monk - The Riverside Tenor Sessions (1957-1961) [7CD Box Set] (1998)

CD 7: Thelonious Monk Quartet Plus Two - At the Blackhawk (1960)
EAC Rip | WavPack (image+.cue+log) - 309 MB | MP3 CBR 320 kbps (LAME 3.93) - 112 MB | Covers included
Genre: Jazz | RAR 3% Rec. | Label: Analogue Productions

Tracklist:
01. Let's Call This
02. Four in One
03. I'm Getting Sentimental over You
04. Worry Later
05. 'Round Midnight
06. Epistrophy (closing theme)

Total time: 45:51

Exact Audio Copy V0.99 prebeta 5 from 4. May 2009

EAC extraction logfile from 28. October 2009, 15:27

Thelonious Monk Quartet / At The Blackhawk

Used drive : PLEXTOR DVDR PX-755A Adapter: 5 ID: 0

Read mode : Secure
Utilize accurate stream : Yes
Defeat audio cache : Yes
Make use of C2 pointers : No

Read offset correction : 30
Overread into Lead-In and Lead-Out : Yes
Fill up missing offset samples with silence : Yes
Delete leading and trailing silent blocks : No
Null samples used in CRC calculations : Yes
Used interface : Installed external ASPI interface

Used output format : Internal WAV Routines
Sample format : 44.100 Hz; 16 Bit; Stereo


TOC of the extracted CD

Track | Start | Length | Start sector | End sector
––––––––––––––––––––––––––––-
1 | 0:00.00 | 8:34.22 | 0 | 38571
2 | 8:34.22 | 8:42.13 | 38572 | 77734
3 | 17:16.35 | 6:14.62 | 77735 | 105846
4 | 23:31.22 | 9:10.53 | 105847 | 147149
5 | 32:42.00 | 12:08.17 | 147150 | 201766
6 | 44:50.17 | 1:00.28 | 201767 | 206294


Range status and errors

Selected range

Filename C:\NetLab Exclusive\Thelonious Monk Quartet - At The Blackhawk.wav

Peak level 100.0 %
Range quality 100.0 %
Test CRC 1A7E9D92
Copy CRC 1A7E9D92
Copy OK

No errors occurred


AccurateRip summary

Track 1 accurately ripped (confidence 2) [5B14F832]
Track 2 accurately ripped (confidence 2) [6DFCF4F8]
Track 3 accurately ripped (confidence 2) [EDDBB3C3]
Track 4 accurately ripped (confidence 2) [508C6FBB]
Track 5 accurately ripped (confidence 2) [5F9EC882]
Track 6 accurately ripped (confidence 1) [2FDE1984]

All tracks accurately ripped

End of status report

[CUETools log; Date: 11.02.2018 14:18:45; Version: 2.1.4]
[CTDB TOCID: IUPd.0CMzStoggIyxgc_f3kuuF4-] found.
Track | CTDB Status
1 | (2/2) Accurately ripped
2 | (2/2) Accurately ripped
3 | (2/2) Accurately ripped
4 | (2/2) Accurately ripped
5 | (2/2) Accurately ripped
6 | (2/2) Accurately ripped
[AccurateRip ID: 000bdc96-003eedfb-4a0abe06] found.
Track [ CRC | V2 ] Status
01 [5b14f832|4ae84fcf] (03+07/10) Accurately ripped
02 [6dfcf4f8|17bc7980] (03+07/10) Accurately ripped
03 [eddbb3c3|79edeaa8] (03+07/10) Accurately ripped
04 [508c6fbb|7a1dd61b] (03+07/10) Accurately ripped
05 [5f9ec882|af50ac8b] (03+07/10) Accurately ripped
06 [2fde1984|a4a2fba1] (02+07/09) Accurately ripped

Track Peak [ CRC32 ] [W/O NULL] [ LOG ]
– 100,0 [1A7E9D92] [3CCDF4A8] CRC32
01 86,0 [27C0BDA7] [F0A12788]
02 86,5 [AB17C3FC] [81F304E9]
03 90,6 [1F2C0EFA] [13F3060D]
04 100,0 [1DEDDB75] [51A84D3C]
05 78,2 [A4B4C336] [44B59D37]
06 87,8 [7064F48C] [C132659E]

Thanks to yury_usa

See also:
Thelonious Monk Quintet - Monk (1954) [Reissue 2009]