Subcategories

Tina Turner - Foreign Affair (1989)

Posted By: popsakov
Tina Turner - Foreign Affair (1989)

Tina Turner - Foreign Affair (1989)
EAC Rip | FLAC (Img) + Cue + Log ~ 367 Mb | MP3 CBR320 ~ 126 Mb
Full Scans (PNG, 600 dpi) ~ 185 Mb | RAR 5% Recovery
Soft Rock, Pop Rock, Pop, R&B, Soul | Capitol Records #CDP 7 91873 2 | US

Foreign Affair is the seventh solo studio album by Tina Turner, released on Capitol Records in 1989. It was Turner's third album release after her hugely successful comeback six years earlier and although the album was not a major success in Turner's native United States, it was a huge international success in Europe. The album reached number 1 on the UK Albums Chart, her first number one album there. The album includes the single "The Best" which has gone on to become one of Turner's best-known songs.
~ Wiki
Tina Turner - Foreign Affair (1989)


***************

Tina Turner - Foreign Affair (1989)

Tina Turner - Foreign Affair (1989)

Track List:

01. Steamy Windows [0:04:05.17]
02. The Best [0:05:29.58]
03. You Know Who (Is Doing You Know What) [0:03:46.27]
04. Undercover Agent For The Blues [0:05:19.58]
05. Look Me In The Heart [0:03:42.57]
06. Be Tender With Me Baby [0:04:17.33]
07. You Can't Stop Me Loving You [0:04:00.67]
08. Ask Me How I Feel [0:04:46.35]
09. Falling Like Rain [0:04:04.30]
10. I Don't Wanna Lose You [0:04:20.55]
11. Not Enough Romance [0:04:04.08]
12. Foreign Affair [0:04:27.32]

Exact Audio Copy V1.3 from 2. September 2016

EAC extraction logfile from 16. April 2018, 10:06

Tina Turner / Foreign Affair

Used drive : TSSTcorpCDDVDW SE-S084C Adapter: 0 ID: 0

Read mode : Secure
Utilize accurate stream : Yes
Defeat audio cache : Yes
Make use of C2 pointers : No

Read offset correction : 6
Overread into Lead-In and Lead-Out : No
Fill up missing offset samples with silence : Yes
Delete leading and trailing silent blocks : No
Null samples used in CRC calculations : Yes
Used interface : Installed external ASPI interface

Used output format : User Defined Encoder
Selected bitrate : 320 kBit/s
Quality : High
Add ID3 tag : No
Command line compressor : C:\Program Files (x86)\Exact Audio Copy\FLAC\FLAC.EXE
Additional command line options : -V -8 -T "Date=%year%" -T "Genre=%genre%" %source%


TOC of the extracted CD

Track | Start | Length | Start sector | End sector
––––––––––––––––––––––––––––-
1 | 0:00.00 | 4:05.17 | 0 | 18391
2 | 4:05.17 | 5:29.58 | 18392 | 43124
3 | 9:35.00 | 3:46.27 | 43125 | 60101
4 | 13:21.27 | 5:19.58 | 60102 | 84084
5 | 18:41.10 | 3:42.57 | 84085 | 100791
6 | 22:23.67 | 4:17.33 | 100792 | 120099
7 | 26:41.25 | 4:00.67 | 120100 | 138166
8 | 30:42.17 | 4:46.35 | 138167 | 159651
9 | 35:28.52 | 4:04.30 | 159652 | 177981
10 | 39:33.07 | 4:20.55 | 177982 | 197536
11 | 43:53.62 | 4:04.08 | 197537 | 215844
12 | 47:57.70 | 4:27.32 | 215845 | 235901


Range status and errors

Selected range

Filename D:\EAC\111\Tina Turner - Foreign Affair.wav

Peak level 100.0 %
Extraction speed 3.2 X
Range quality 99.9 %
Test CRC 3D1C7229
Copy CRC 3D1C7229
Copy OK

No errors occurred


AccurateRip summary

Track 1 accurately ripped (confidence 4) [C648C35B] (AR v2)
Track 2 accurately ripped (confidence 4) [6FB37205] (AR v2)
Track 3 accurately ripped (confidence 4) [79384238] (AR v2)
Track 4 accurately ripped (confidence 4) [07339600] (AR v2)
Track 5 accurately ripped (confidence 4) [6B04D784] (AR v2)
Track 6 accurately ripped (confidence 4) [AC51A069] (AR v2)
Track 7 accurately ripped (confidence 4) [2F13EFE4] (AR v2)
Track 8 accurately ripped (confidence 4) [A820D1FA] (AR v2)
Track 9 accurately ripped (confidence 4) [C1AEBF92] (AR v2)
Track 10 accurately ripped (confidence 5) [E06160C2] (AR v2)
Track 11 accurately ripped (confidence 5) [72212B59] (AR v2)
Track 12 accurately ripped (confidence 5) [EB1D56EB] (AR v2)

All tracks accurately ripped

End of status report

–– CUETools DB Plugin V2.1.6

[CTDB TOCID: 6d1caIWX3OKmBWRsX2jSb_lSgpY-] found
Submit result: already submitted
Track | CTDB Status
1 | ( 97/100) Accurately ripped, or (1/100) differs in 72 samples @00:27:33,00:30:50,01:22:62
2 | ( 97/100) Accurately ripped, or (1/100) differs in 50 samples @04:12:14
3 | ( 98/100) Accurately ripped
4 | ( 98/100) Accurately ripped
5 | ( 97/100) Accurately ripped, or (1/100) differs in 32 samples @00:01:41,00:30:06-00:30:07
6 | ( 97/100) Accurately ripped
7 | ( 97/100) Accurately ripped, or (1/100) differs in 15 samples @00:39:51
8 | ( 97/100) Accurately ripped
9 | ( 94/100) Accurately ripped, or (3/100) differs in 153 samples @03:40:31
10 | ( 98/100) Accurately ripped
11 | ( 98/100) Accurately ripped
12 | ( 98/100) Accurately ripped


==== Log checksum ABE7999CE7694B7360C165951FDA6F9607F80279756324EAD6CDE8D5D0267348 ====

foobar2000 1.3.16 / Dynamic Range Meter 1.1.1
log date: 2018-04-16 15:20:10

––––––––––––––––––––––––––––––––––––––––
Analyzed: Tina Turner / Foreign Affair
––––––––––––––––––––––––––––––––––––––––

DR Peak RMS Duration Track
––––––––––––––––––––––––––––––––––––––––
DR13 0.00 dB -14.10 dB 4:05 01-Steamy Windows
DR13 0.00 dB -14.77 dB 5:30 02-The Best
DR14 -0.19 dB -15.24 dB 3:46 03-You Know Who (Is Doing You Know What)
DR12 -0.09 dB -14.27 dB 5:20 04-Undercover Agent For The Blues
DR13 0.00 dB -14.16 dB 3:43 05-Look Me In The Heart
DR12 -0.17 dB -13.60 dB 4:17 06-Be Tender With Me Baby
DR12 0.00 dB -12.84 dB 4:01 07-You Can't Stop Me Loving You
DR12 0.00 dB -13.92 dB 4:46 08-Ask Me How I Feel
DR13 0.00 dB -14.40 dB 4:04 09-Falling Like Rain
DR13 -0.23 dB -14.38 dB 4:21 10-I Don't Wanna Lose You
DR13 -0.16 dB -15.16 dB 4:04 11-Not Enough Romance
DR14 0.00 dB -14.70 dB 4:27 12-Foreign Affair
––––––––––––––––––––––––––––––––––––––––

Number of tracks: 12
Official DR value: DR13

Samplerate: 44100 Hz
Channels: 2
Bits per sample: 16
Bitrate: 932 kbps
Codec: FLAC
================================================================================

[CUETools log; Date: 16.04.2018 15:18:52; Version: 2.1.6]
[CTDB TOCID: 6d1caIWX3OKmBWRsX2jSb_lSgpY-] found.
Track | CTDB Status
1 | ( 97/100) Accurately ripped, or (1/100) differs in 72 samples @00:27:33,00:30:50,01:22:62
2 | ( 97/100) Accurately ripped, or (1/100) differs in 50 samples @04:12:14
3 | ( 98/100) Accurately ripped
4 | ( 98/100) Accurately ripped
5 | ( 97/100) Accurately ripped, or (1/100) differs in 32 samples @00:01:41,00:30:06-00:30:07
6 | ( 97/100) Accurately ripped
7 | ( 97/100) Accurately ripped, or (1/100) differs in 15 samples @00:39:51
8 | ( 97/100) Accurately ripped
9 | ( 94/100) Accurately ripped, or (3/100) differs in 153 samples @03:40:31
10 | ( 98/100) Accurately ripped
11 | ( 98/100) Accurately ripped
12 | ( 98/100) Accurately ripped
[AccurateRip ID: 0017ad41-00dc18b2-9d0c490c] found.
Track [ CRC | V2 ] Status
01 [1b921757|c648c35b] (03+04/77) Accurately ripped
02 [f021adfd|6fb37205] (04+04/77) Accurately ripped
03 [287f5329|79384238] (03+04/76) Accurately ripped
04 [7298104c|07339600] (04+04/80) Accurately ripped
05 [fe9a776c|6b04d784] (03+04/77) Accurately ripped
06 [5ca8f256|ac51a069] (03+04/79) Accurately ripped
07 [3db8a3d3|2f13efe4] (03+04/78) Accurately ripped
08 [c2344c2a|a820d1fa] (03+04/75) Accurately ripped
09 [e9152873|c1aebf92] (03+04/75) Accurately ripped
10 [86aca00d|e06160c2] (03+05/79) Accurately ripped
11 [5f4c7114|72212b59] (03+05/76) Accurately ripped
12 [6829bbb5|eb1d56eb] (02+05/75) Accurately ripped
Offsetted by 1342:
01 [59c61ff9] (04/77) Accurately ripped
02 [cf505eff] (04/77) Accurately ripped
03 [f2b7a8bb] (04/76) Accurately ripped
04 [97f38068] (04/80) Accurately ripped
05 [3413bcac] (04/77) Accurately ripped
06 [bdd8e5ea] (04/79) Accurately ripped
07 [28154be5] (04/78) Accurately ripped
08 [7e1dec94] (04/75) Accurately ripped
09 [baa74197] (04/75) Accurately ripped
10 [4fd6cab1] (04/79) Accurately ripped
11 [ad5d3bd2] (04/76) Accurately ripped
12 [27873656] (04/75) Accurately ripped
Offsetted by 1405:
01 [fb98e0aa] (12/77) Accurately ripped
02 [68aba5e0] (11/77) Accurately ripped
03 [90d00ce4] (12/76) Accurately ripped
04 [e7eaa1b6] (12/80) Accurately ripped
05 [0ddec654] (12/77) Accurately ripped
06 [0db8e6d8] (12/79) Accurately ripped
07 [976cd14e] (12/78) Accurately ripped
08 [ad1726a9] (12/75) Accurately ripped
09 [487f60e9] (12/75) Accurately ripped
10 [41e81ea6] (12/79) Accurately ripped
11 [fb2d2d06] (12/76) Accurately ripped
12 [f70a61d5] (12/75) Accurately ripped
Offsetted by 1474:
01 [577fb3b5] (04/77) Accurately ripped
02 [bb4c91fb] (04/77) Accurately ripped
03 [56587a97] (04/76) Accurately ripped
04 [c597c630] (04/80) Accurately ripped
05 [bfeaec9b] (04/77) Accurately ripped
06 [d693e2df] (04/79) Accurately ripped
07 [1d8fb8c1] (04/78) Accurately ripped
08 [66a204c0] (04/75) Accurately ripped
09 [d7a9094f] (04/75) Accurately ripped
10 [4cd81355] (04/79) Accurately ripped
11 [58c07cce] (04/76) Accurately ripped
12 [28afb1e3] (03/75) Accurately ripped
Offsetted by 1014:
01 [f2d234c1] (00/77) No match (V2 was not tested)
02 [3f1bc147] (00/77) No match (V2 was not tested)
03 [31759f43] (00/76) No match (V2 was not tested)
04 [ffc02858] (00/80) No match (V2 was not tested)
05 [fcfa5a65] (00/77) No match (V2 was not tested)
06 [17b1ca1d] (00/79) No match (V2 was not tested)
07 [49fc5c6d] (00/78) No match (V2 was not tested)
08 [3c59917c] (00/75) No match (V2 was not tested)
09 [c7e8a6a7] (00/75) No match (V2 was not tested)
10 [08381af1] (00/79) No match (V2 was not tested)
11 [727538be] (00/76) No match (V2 was not tested)
12 [fe98a450] (00/75) No match (V2 was not tested)
Offsetted by 1403:
01 [683cda8c] (00/77) No match (V2 was not tested)
02 [2ae9c422] (00/77) No match (V2 was not tested)
03 [d90009b6] (00/76) No match (V2 was not tested)
04 [0e034b52] (00/80) No match (V2 was not tested)
05 [0a4054fa] (00/77) No match
06 [37e843fa] (00/79) No match
07 [8fd3b0a0] (00/78) No match
08 [29914553] (00/75) No match
09 [f2b9888d] (00/75) No match
10 [ee908d5d] (00/79) No match
11 [a34fc361] (00/76) No match
12 [3a4614f9] (00/75) No match

Track Peak [ CRC32 ] [W/O NULL] [ LOG ]
– 100,0 [3D1C7229] [15385F7B] CRC32
01 100,0 [CF2B415D] [88DEB45D]
02 100,0 [7468C936] [AF2D1A22]
03 97,8 [C6C8633C] [D28783BD]
04 98,9 [962E41AE] [6B225DF9]
05 100,0 [E4A42EA8] [F9139EE9]
06 98,0 [B6FE7712] [4DB409DE]
07 100,0 [4C4EF116] [11BEF9AB]
08 100,0 [41C663A1] [B1192020]
09 99,9 [42727D87] [D67DE6FF]
10 97,3 [79CE9D1C] [9AE3CE17]
11 98,2 [F39D095B] [495DBEE9]
12 100,0 [DB829540] [A117C80F]

Tina Turner - Foreign Affair (1989)

All thanks go to salernitana

>>> Tina Turner in my Blog <<<

Download from icerbox.com: