Subcategories

Tyree Glenn - 1947-1952 (2006)

Posted By: gribovar
Tyree Glenn - 1947-1952 (2006)

Tyree Glenn - 1947-1952 (2006)
EAC Rip | FLAC (tracks+.cue+log) - 264 MB | MP3 CBR 320 kbps (LAME 3.93) - 155 MB | Covers (5 MB) included
Genre: Jazz, Swing | RAR 3% Rec. | Label: Classics Records (CLASSICS1420)

Texas-born trombonist and vibraphonist Tyree Glenn developed his chops with Benny Carter's Orchestra during the late '30s and with Cab Calloway from 1940-1946. Classics 1420 presents all of the pre-LP-era records released under his name, with the exception of "Working Eyes," a maiden effort originally issued on the flip side of "Gloria," a Don Byas performance issued on the 78-rpm Swing label in 1946 and found on Classics 1009. During this time, both Byas and Glenn made records in Europe with members of Don Redman's touring band and the cream of the local jazz talent. The opening six tracks, recorded for Blue Star in Paris on January 13, 1947, mingle modern bop creations like Billy Taylor's "Mad Monk" and Charlie Parker's "Billie's Bounce" with pleasantly updated jazz standards. Although the enclosed discography fails to mention his presence on this first session, master tenor saxophonist Don Byas is present and in fine form throughout the entire date. The other front-liners were trumpeter Herbert "Peanuts" Holland and alto saxophonist Hubert Rostaing, himself a mainstay in the Parisian jazz scene that revolved around Django Reinhardt and the Hot Club de France during the late '30s and 1940s. Tyree Glenn was a versatile musician whose adventures as both leader and sideman fit perfectly into the postwar transatlantic transition from swing to bop. On February 17, 1947, Tyree Glenn, Don Byas, and their orchestra cut four sides for the Decca label in Hilversum, Holland. This was the same ensemble as the previous date, with second trombonist Nat Peck replacing Rostaing. The music is superb - Dvorák's Humoresque rolls along effortlessly, their version of Irving Berlin's "Always" sounds as modern as Dizzy Gillespie's (thanks especially to pianist Billy Taylor's sweeping arpeggios), and Glenn demonstrates his mastery of the vibraphone during "My Melancholy Baby." On March 28 and April 1, 1947, Glenn cut a series of recordings in Stockholm for the Musica and Swedish HMV labels with ensembles led by bassist Simon Brehm and pianist Charles Norman. The Brehm Kvintett rendition of "My Melancholy Baby" feels like something cooked up by Benny Goodman's bop band, largely because of agile clarinetist Ake "Stan" Hasselgård. Glenn's next session as a leader took place in New York on May 12, 1949, when he led a seven-piece band that was a scaled-down version of the Duke Ellington Orchestra, with Billy Strayhorn at the piano. This exciting compilation closes with a series of Roost recordings from 1951 and 1952. Here Glenn teams up first with organist Bill Doggett and finally with the rock-solid rhythm section of Hank Jones, Milt Hinton, and Jo Jones.
Tracklist:
01. Mad Monk
02. Please Don't Talk About Me When I'm Gone
03. The Hour of Parting
04. I Can't Get Started
05. Billie's Bounce
06. I Surrender, Dear
07. Humoresque
08. Always
09. Poor Butterfly
10. My Melancholy Baby
11. My Melancholy Baby
12. Sweet Lorraine
13. Limehouse Blues
14. Always
15. Sultry Serenade
16. Dusty Serenade
17. Tell Me Why
18. Little White Cloud That Cried
19. Wrap Your Troubles in Dreams
20. Sugar
21. Sidewalks of New York
22. How Could You Do a Thing Like That

Total time: 01:03:16

EAC extraction logfile from 6. February 2008, 11:04 for CD
Tyree Glenn / 1947-1952

Used drive : SAMSUNG CD-R/RW SW-240B Adapter: 1 ID: 1
Read mode : Secure with NO C2, accurate stream, disable cache
Read offset correction : 97
Overread into Lead-In and Lead-Out : No

Used output format : C:\Program Files\Exact Audio Copy\FLAC\flac.exe (User Defined Encoder)
320 kBit/s
Additional command line options : -V -8 -T "artist=%a" -T "title=%t" -T "album=%g" -T "date=%y" -T "tracknumber=%n" -T "genre=%m" %s

Other options :
Fill up missing offset samples with silence : Yes
Delete leading and trailing silent blocks : No
Installed external ASPI interface


Track 1
Filename C:\Documents and Settings\tyree\01 - Mad Monk.wav

Pre-gap length 0:00:02.00

Peak level 86.0 %
Track quality 99.9 %
Test CRC B037B951
Copy CRC B037B951
Copy OK

Track 2
Filename C:\Documents and Settings\tyree\02 - Please Don't Talk About Me When I'm Gone.wav

Pre-gap length 0:00:02.13

Peak level 87.3 %
Track quality 99.9 %
Test CRC B8952B16
Copy CRC B8952B16
Copy OK

Track 3
Filename C:\Documents and Settings\tyree\03 - The Hour Of Parting.wav

Pre-gap length 0:00:02.13

Peak level 87.8 %
Track quality 99.9 %
Test CRC 4B045EAC
Copy CRC 4B045EAC
Copy OK

Track 4
Filename C:\Documents and Settings\tyree\04 - I Can't Get Started.wav

Pre-gap length 0:00:02.13

Peak level 87.6 %
Track quality 100.0 %
Test CRC DEB8A13D
Copy CRC DEB8A13D
Copy OK

Track 5
Filename C:\Documents and Settings\tyree\05 - Billie's Bounce.wav

Pre-gap length 0:00:02.13

Peak level 87.5 %
Track quality 99.9 %
Test CRC 15B9EF75
Copy CRC 15B9EF75
Copy OK

Track 6
Filename C:\Documents and Settings\tyree\06 - I Surrender, Dear.wav

Pre-gap length 0:00:02.13

Peak level 87.5 %
Track quality 100.0 %
Test CRC 33F468AC
Copy CRC 33F468AC
Copy OK

Track 7
Filename C:\Documents and Settings\tyree\07 - Humoresque.wav

Pre-gap length 0:00:02.13

Peak level 88.6 %
Track quality 100.0 %
Test CRC EEA2C1A3
Copy CRC EEA2C1A3
Copy OK

Track 8
Filename C:\Documents and Settings\tyree\08 - Always.wav

Pre-gap length 0:00:02.13

Peak level 88.6 %
Track quality 100.0 %
Test CRC 1AAAEDF0
Copy CRC 1AAAEDF0
Copy OK

Track 9
Filename C:\Documents and Settings\tyree\09 - Poor Butterfly.wav

Pre-gap length 0:00:02.13

Peak level 91.9 %
Track quality 100.0 %
Test CRC 9E78E8BC
Copy CRC 9E78E8BC
Copy OK

Track 10
Filename C:\Documents and Settings\tyree\10 - My Melancholy Baby.wav

Pre-gap length 0:00:02.13

Peak level 88.5 %
Track quality 100.0 %
Test CRC EF4EEC1E
Copy CRC EF4EEC1E
Copy OK

Track 11
Filename C:\Documents and Settings\tyree\11 - My Melancholy Baby.wav

Pre-gap length 0:00:02.13

Peak level 89.2 %
Track quality 100.0 %
Test CRC BE4D1FAA
Copy CRC BE4D1FAA
Copy OK

Track 12
Filename C:\Documents and Settings\tyree\12 - Sweet Lorraine.wav

Pre-gap length 0:00:02.13

Peak level 87.8 %
Track quality 100.0 %
Test CRC E02A06FD
Copy CRC E02A06FD
Copy OK

Track 13
Filename C:\Documents and Settings\tyree\13 - Limehouse Blues.wav

Pre-gap length 0:00:02.13

Peak level 86.8 %
Track quality 100.0 %
Test CRC 7AF5DF60
Copy CRC 7AF5DF60
Copy OK

Track 14
Filename C:\Documents and Settings\tyree\14 - Always.wav

Pre-gap length 0:00:02.13

Peak level 86.6 %
Track quality 100.0 %
Test CRC 00BE08D9
Copy CRC 00BE08D9
Copy OK

Track 15
Filename C:\Documents and Settings\tyree\15 - Sultry Serenade.wav

Pre-gap length 0:00:02.13

Peak level 87.8 %
Track quality 100.0 %
Test CRC 6091032B
Copy CRC 6091032B
Copy OK

Track 16
Filename C:\Documents and Settings\tyree\16 - Dusty Serenade.wav

Pre-gap length 0:00:02.13

Peak level 87.4 %
Track quality 100.0 %
Test CRC 0AA2ADA4
Copy CRC 0AA2ADA4
Copy OK

Track 17
Filename C:\Documents and Settings\tyree\17 - Tell Me Why.wav

Pre-gap length 0:00:02.13

Peak level 87.1 %
Track quality 99.9 %
Test CRC ADC38082
Copy CRC ADC38082
Copy OK

Track 18
Filename C:\Documents and Settings\tyree\18 - The Little White Cloud That Cried.wav

Pre-gap length 0:00:02.13

Peak level 86.1 %
Track quality 100.0 %
Test CRC 369AB499
Copy CRC 369AB499
Copy OK

Track 19
Filename C:\Documents and Settings\tyree\19 - Wrap Your Troubles In Dreams.wav

Pre-gap length 0:00:02.13

Peak level 89.2 %
Track quality 100.0 %
Test CRC BB501269
Copy CRC BB501269
Copy OK

Track 20
Filename C:\Documents and Settings\tyree\20 - Sugar.wav

Pre-gap length 0:00:02.13

Peak level 88.5 %
Track quality 100.0 %
Test CRC 8EE0FBB6
Copy CRC 8EE0FBB6
Copy OK

Track 21
Filename C:\Documents and Settings\tyree\21 - Sidewalks Of New York.wav

Pre-gap length 0:00:02.13

Peak level 86.2 %
Track quality 100.0 %
Test CRC DCE08978
Copy CRC DCE08978
Copy OK

Track 22
Filename C:\Documents and Settings\tyree\22 - How Could You Do A Thing Like That.wav

Pre-gap length 0:00:02.13

Peak level 87.0 %
Track quality 99.9 %
Test CRC D32453B4
Copy CRC D32453B4
Copy OK

No errors occured


End of status report

[CUETools log; Date: 13.06.2018 12:27:23; Version: 2.1.4]
[CTDB TOCID: oCeKUBURHRDQreynRP18GIE6jPU-] found.
Track | CTDB Status
1 | (1/1) Accurately ripped
2 | (1/1) Accurately ripped
3 | (1/1) Accurately ripped
4 | (1/1) Accurately ripped
5 | (1/1) Accurately ripped
6 | (1/1) Accurately ripped
7 | (1/1) Accurately ripped
8 | (1/1) Accurately ripped
9 | (1/1) Accurately ripped
10 | (1/1) Accurately ripped
11 | (1/1) Accurately ripped
12 | (1/1) Accurately ripped
13 | (1/1) Accurately ripped
14 | (1/1) Accurately ripped
15 | (1/1) Accurately ripped
16 | (1/1) Accurately ripped
17 | (1/1) Accurately ripped
18 | (1/1) Accurately ripped
19 | (1/1) Accurately ripped
20 | (1/1) Accurately ripped
21 | (1/1) Accurately ripped
22 | (1/1) Accurately ripped
[AccurateRip ID: 003346cc-0332408d-450ede16] found.
Track [ CRC | V2 ] Status
01 [c25e59f9|39027041] (1+1/2) Accurately ripped
02 [4e346015|2ff1dcc4] (1+1/2) Accurately ripped
03 [04d11761|87fed163] (1+1/2) Accurately ripped
04 [350da35d|058dedd6] (1+1/2) Accurately ripped
05 [f9d3c806|5c83f7a6] (1+1/2) Accurately ripped
06 [b71fc50a|37656ad6] (1+1/2) Accurately ripped
07 [8ffd88dc|ba975334] (1+1/2) Accurately ripped
08 [5ab27002|6e7af12a] (1+1/2) Accurately ripped
09 [5f96554f|88891b55] (1+1/2) Accurately ripped
10 [b6524a56|849f0698] (1+1/2) Accurately ripped
11 [6e1633c3|85feb18b] (1+1/2) Accurately ripped
12 [474f7635|591e237f] (1+1/2) Accurately ripped
13 [32f2f22a|bd3bef55] (1+1/2) Accurately ripped
14 [6cb7fcad|210ed216] (1+1/2) Accurately ripped
15 [552bc800|fe8385c8] (1+1/2) Accurately ripped
16 [7f81db91|2180042d] (1+1/2) Accurately ripped
17 [5056f528|3b8de13a] (1+1/2) Accurately ripped
18 [b71c22dd|52ea5be8] (1+1/2) Accurately ripped
19 [d0596192|d9dec49e] (1+1/2) Accurately ripped
20 [f573d858|8d6ecdc0] (1+1/2) Accurately ripped
21 [f96a02f7|a5ae5432] (1+1/2) Accurately ripped
22 [1c4a66de|a7b7dcb9] (1+1/2) Accurately ripped

Track Peak [ CRC32 ] [W/O NULL] [ LOG ]
– 91,9 [51729BE3] [A44A4E6E]
01 86,0 [B037B951] [5C672C4E] CRC32
02 87,3 [B8952B16] [E132BA43] CRC32
03 87,8 [4B045EAC] [5D39EC44] CRC32
04 87,6 [DEB8A13D] [98B451F8] CRC32
05 87,5 [15B9EF75] [8FFB9B65] CRC32
06 87,5 [33F468AC] [A8B48CC8] CRC32
07 88,6 [EEA2C1A3] [BBAB3CBF] CRC32
08 88,6 [1AAAEDF0] [839C9211] CRC32
09 91,9 [9E78E8BC] [8587F82D] CRC32
10 88,5 [EF4EEC1E] [7EEF1CBB] CRC32
11 89,2 [BE4D1FAA] [B88C7295] CRC32
12 87,8 [E02A06FD] [4541133C] CRC32
13 86,8 [7AF5DF60] [2AC90CD6] CRC32
14 86,6 [00BE08D9] [0904AB84] CRC32
15 87,8 [6091032B] [0274ECD2] CRC32
16 87,4 [0AA2ADA4] [1DF55C24] CRC32
17 87,1 [ADC38082] [C61EE103] CRC32
18 86,1 [369AB499] [5EAE9692] CRC32
19 89,2 [BB501269] [AF28BF2E] CRC32
20 88,5 [8EE0FBB6] [A1D48EC4] CRC32
21 86,2 [DCE08978] [437FD303] CRC32
22 87,0 [D32453B4] [5982D289] CRC32

Thanks to weejee