Subcategories

VA - Top Of The Pops 1976 (2018)

Posted By: ciklon5
VA - Top Of The Pops 1976 (2018)

VA - Top Of The Pops 1976 (2018)
FLAC (tracks+cue+log+covers) / MP3 CBR 320 kbps | 03:07:27 | 1,2 Gb / 430 Mb
Genre: Pop, Dance, Rock / Label: Universal Music

Universal Music Presents Top Of The Pops 1976 album original hits and the original artists genre Pop 70s. Includes tracks by ABBA, Billy Ocean, Donna Summer, Diana Ross and more.

Track List:

CD1
01. ABBA - Dancing Queen (3:50)
02. Billy Ocean - Love Really Hurts Without You (3:00)
03. Tavares - Don't Take Away The Music (3:40)
04. The Real Thing - You to Me Are Everything (3:29)
05. Candi Staton - Young Hearts Run Free (4:10)
06. Wild Cherry - Play That Funky Music (4:56)
07. Tina Charles - I Love To Love (But My Baby Loves to Dance) (3:18)
08. The Miracles - Love Machine (2:51)
09. Barry White - You See The Trouble With Me (3:25)
10. Tavares - Heaven Must Be Missing An Angel (3:31)
11. 5000 Volts - Dr Kiss Kiss (3:27)
12. Paul Nicholas - Dancing With The Captain (2:51)
13. Yvonne Elliman - Love Me (3:22)
14. The Stylistics - Sixteen Bars (3:39)
15. Donna Summer - Love To Love You Baby (4:57)
16. Diana Ross - Love Hangover (3:43)
17. Osibisa - Sunshine Day (4:57)

CD2
01. Bryan Ferry - Let's Stick Together (3:00)
02. David Dundas - Jeans On (3:18)
03. Johnny Wakelin - In Zaire (3:16)
04. Sailor - Girls Girls Girls (3:00)
05. Gallagher & Lyle - Heart On My Sleeve (3:21)
06. John Miles - Music (5:51)
07. 10cc - I'm Mandy Fly Me (5:23)
08. Sensational Alex Harvey Band - Boston Tea Party (4:37)
09. Thin Lizzy - The Boys Are Back In Town (4:24)
10. Bryan Ferry - The Price Of Love (3:24)
11. Status Quo - Mystery Song (3:57)
12. CW McCall - Convoy (3:49)
13. The Rubettes - You're The Reason Why (2:33)
14. Barbara Dickson - Answer Me (2:56)
15. Stretch - Why Did You Do It (3:32)
16. ABBA - Mamma Mia (3:32)
17. Barry White - Don't Make Me Wait Too Long (4:39)

CD3
01. Chicago - If You Leave Me Now (3:57)
02. Dr Hook - A Little Bit More (3:15)
03. The Manhattans - Kiss And Say Goodbye (4:26)
04. Diana Ross - Theme From 'Mahogany' (Do You Know Where You're Going To) (3:22)
05. Yvonne Fair - It Should Have Been Me (3:33)
06. Joan Armatrading - Love And Affection (4:29)
07. ABBA - Fernando (4:09)
08. Randy Edelman - Uptown Uptempo Woman (3:53)
09. Demis Roussos - Forever And Ever (3:35)
10. Barry White - Baby, We Better Try To Get It Together (4:25)
11. Gallagher & Lyle - I Wanna Stay With You (2:57)
12. Paul Nicholas - Reggae Like It Use To Be (2:41)
13. Peters & Lee - Hey Mr Music Man (3:01)
14. Manuel & His Music Of The Mountains - Rodrigo's Guitar Concerto de Aranjuez (3:59)
15. Robin Sarstedt - My Resistance Is Low (2:48)
16. Mike Oldfield - Portsmouth (1:59)
17. Johnny Mathis - When A Child Is Born (3:42)

Exact Audio Copy V1.3 from 2. September 2016

EAC extraction logfile from 23. May 2018, 23:58

Various Artists / Top Of The Pops: 1976 [CD 1]

Used drive : TSSTcorpBDDVDW SE-506BB Adapter: 1 ID: 0

Read mode : Secure
Utilize accurate stream : Yes
Defeat audio cache : Yes
Make use of C2 pointers : No

Read offset correction : 6
Overread into Lead-In and Lead-Out : No
Fill up missing offset samples with silence : Yes
Delete leading and trailing silent blocks : No
Null samples used in CRC calculations : Yes
Used interface : Native Win32 interface for Win NT & 2000
Gap handling : Appended to previous track

Used output format : User Defined Encoder
Selected bitrate : 896 kBit/s
Quality : High
Add ID3 tag : Yes
Command line compressor : C:\Program Files (x86)\Exact Audio Copy\Flac\flac.exe
Additional command line options : -6 -V -T "ARTIST=%artist%" -T "TITLE=%title%" -T "ALBUM=%albumtitle%" -T "DATE=%year%" -T "TRACKNUMBER=%tracknr%" -T "GENRE=%genre%" -T "COMMENT=%comment%" -T "BAND=%albuminterpret%" -T "ALBUMARTIST=%albuminterpret%" -T "COMPOSER=%composer%" %haslyrics%–tag-from-file=LYRICS="%lyricsfile%"%haslyrics% -T "DISCNUMBER=%cdnumber%" -T "TOTALDISCS=%totalcds%" -T "TOTALTRACKS=%numtracks%" %hascover%–picture="%coverfile%"%hascover% %source% -o %dest%


TOC of the extracted CD

Track | Start | Length | Start sector | End sector
––––––––––––––––––––––––––––-
1 | 0:00.00 | 3:50.35 | 0 | 17284
2 | 3:50.35 | 3:00.30 | 17285 | 30814
3 | 6:50.65 | 3:40.07 | 30815 | 47321
4 | 10:30.72 | 3:28.63 | 47322 | 62984
5 | 13:59.60 | 4:09.42 | 62985 | 81701
6 | 18:09.27 | 4:56.37 | 81702 | 103938
7 | 23:05.64 | 3:18.20 | 103939 | 118808
8 | 26:24.09 | 2:50.53 | 118809 | 131611
9 | 29:14.62 | 3:25.00 | 131612 | 146986
10 | 32:39.62 | 3:30.40 | 146987 | 162776
11 | 36:10.27 | 3:26.56 | 162777 | 178282
12 | 39:37.08 | 2:50.46 | 178283 | 191078
13 | 42:27.54 | 3:22.09 | 191079 | 206237
14 | 45:49.63 | 3:38.39 | 206238 | 222626
15 | 49:28.27 | 4:57.00 | 222627 | 244901
16 | 54:25.27 | 3:43.05 | 244902 | 261631
17 | 58:08.32 | 4:57.25 | 261632 | 283931


Track 1

Filename D:\EAC rips\VA - Top Of The Pops- 1976 [CD 1] (2018)\01. ABBA - Dancing Queen.wav

Pre-gap length 0:00:02.00

Peak level 98.2 %
Extraction speed 1.0 X
Track quality 99.9 %
Test CRC B1DE0E51
Copy CRC B1DE0E51
Track not present in AccurateRip database
Copy OK

Track 2

Filename D:\EAC rips\VA - Top Of The Pops- 1976 [CD 1] (2018)\02. Billy Ocean - Love Really Hurts Without You.wav

Peak level 94.4 %
Extraction speed 2.8 X
Track quality 100.0 %
Test CRC 936B38F3
Copy CRC 936B38F3
Track not present in AccurateRip database
Copy OK

Track 3

Filename D:\EAC rips\VA - Top Of The Pops- 1976 [CD 1] (2018)\03. Tavares - Don't Take Away The Music.wav

Peak level 86.9 %
Extraction speed 1.3 X
Track quality 99.8 %
Test CRC 211C6693
Copy CRC 211C6693
Track not present in AccurateRip database
Copy OK

Track 4

Filename D:\EAC rips\VA - Top Of The Pops- 1976 [CD 1] (2018)\04. The Real Thing - You to Me Are Everything.wav

Peak level 99.2 %
Extraction speed 2.0 X
Track quality 99.9 %
Test CRC 4719E006
Copy CRC 4719E006
Track not present in AccurateRip database
Copy OK

Track 5

Filename D:\EAC rips\VA - Top Of The Pops- 1976 [CD 1] (2018)\05. Candi Staton - Young Hearts Run Free.wav

Peak level 100.0 %
Extraction speed 2.3 X
Track quality 99.9 %
Test CRC A1000C42
Copy CRC A1000C42
Track not present in AccurateRip database
Copy OK

Track 6

Filename D:\EAC rips\VA - Top Of The Pops- 1976 [CD 1] (2018)\06. Wild Cherry - Play That Funky Music.wav

Peak level 98.2 %
Extraction speed 2.2 X
Track quality 99.9 %
Test CRC ED167370
Copy CRC ED167370
Track not present in AccurateRip database
Copy OK

Track 7

Filename D:\EAC rips\VA - Top Of The Pops- 1976 [CD 1] (2018)\07. Tina Charles - I Love To Love (But My Baby Loves to Dance).wav

Peak level 85.8 %
Extraction speed 2.6 X
Track quality 99.9 %
Test CRC 8E65839B
Copy CRC 8E65839B
Track not present in AccurateRip database
Copy OK

Track 8

Filename D:\EAC rips\VA - Top Of The Pops- 1976 [CD 1] (2018)\08. The Miracles - Love Machine.wav

Peak level 100.0 %
Extraction speed 1.5 X
Track quality 99.8 %
Test CRC 15A685FA
Copy CRC 15A685FA
Track not present in AccurateRip database
Copy OK

Track 9

Filename D:\EAC rips\VA - Top Of The Pops- 1976 [CD 1] (2018)\09. Barry White - You See The Trouble With Me.wav

Peak level 98.8 %
Extraction speed 1.5 X
Track quality 99.7 %
Test CRC 328DC8D8
Copy CRC 328DC8D8
Track not present in AccurateRip database
Copy OK

Track 10

Filename D:\EAC rips\VA - Top Of The Pops- 1976 [CD 1] (2018)\10. Tavares - Heaven Must Be Missing An Angel.wav

Peak level 88.6 %
Extraction speed 4.5 X
Track quality 100.0 %
Test CRC 0DA6B9AA
Copy CRC 0DA6B9AA
Track not present in AccurateRip database
Copy OK

Track 11

Filename D:\EAC rips\VA - Top Of The Pops- 1976 [CD 1] (2018)\11. 5000 Volts - Dr Kiss Kiss.wav

Peak level 100.0 %
Extraction speed 2.1 X
Track quality 99.8 %
Test CRC C178CB81
Copy CRC C178CB81
Track not present in AccurateRip database
Copy OK

Track 12

Filename D:\EAC rips\VA - Top Of The Pops- 1976 [CD 1] (2018)\12. Paul Nicholas - Dancing With The Captain.wav

Peak level 89.3 %
Extraction speed 2.3 X
Track quality 99.8 %
Test CRC 293E129F
Copy CRC 293E129F
Track not present in AccurateRip database
Copy OK

Track 13

Filename D:\EAC rips\VA - Top Of The Pops- 1976 [CD 1] (2018)\13. Yvonne Elliman - Love Me.wav

Peak level 85.7 %
Extraction speed 2.3 X
Track quality 99.8 %
Test CRC 1D1F4173
Copy CRC 1D1F4173
Track not present in AccurateRip database
Copy OK

Track 14

Filename D:\EAC rips\VA - Top Of The Pops- 1976 [CD 1] (2018)\14. The Stylistics - Sixteen Bars.wav

Peak level 98.2 %
Extraction speed 5.0 X
Track quality 100.0 %
Test CRC D5BE8052
Copy CRC D5BE8052
Track not present in AccurateRip database
Copy OK

Track 15

Filename D:\EAC rips\VA - Top Of The Pops- 1976 [CD 1] (2018)\15. Donna Summer - Love To Love You Baby.wav

Peak level 100.0 %
Extraction speed 2.1 X
Track quality 99.8 %
Test CRC FC0E6EFB
Copy CRC FC0E6EFB
Track not present in AccurateRip database
Copy OK

Track 16

Filename D:\EAC rips\VA - Top Of The Pops- 1976 [CD 1] (2018)\16. Diana Ross - Love Hangover.wav

Peak level 98.2 %
Extraction speed 2.4 X
Track quality 99.9 %
Test CRC 2AFEAB9D
Copy CRC 2AFEAB9D
Track not present in AccurateRip database
Copy OK

Track 17

Filename D:\EAC rips\VA - Top Of The Pops- 1976 [CD 1] (2018)\17. Osibisa - Sunshine Day.wav

Peak level 98.2 %
Extraction speed 2.7 X
Track quality 99.8 %
Test CRC 52EFFED8
Copy CRC 52EFFED8
Track not present in AccurateRip database
Copy OK


None of the tracks are present in the AccurateRip database

No errors occurred

End of status report

–– CUETools DB Plugin V2.1.6

[CTDB TOCID: kO.COIiaMKJwYawKS00_66rBKpE-] found
Submit result: kO.COIiaMKJwYawKS00_66rBKpE- has been confirmed
Track | CTDB Status
1 | (5/5) Accurately ripped
2 | (5/5) Accurately ripped
3 | (5/5) Accurately ripped
4 | (5/5) Accurately ripped
5 | (5/5) Accurately ripped
6 | (5/5) Accurately ripped
7 | (5/5) Accurately ripped
8 | (5/5) Accurately ripped
9 | (5/5) Accurately ripped
10 | (5/5) Accurately ripped
11 | (5/5) Accurately ripped
12 | (5/5) Accurately ripped
13 | (5/5) Accurately ripped
14 | (5/5) Accurately ripped
15 | (5/5) Accurately ripped
16 | (5/5) Accurately ripped
17 | (5/5) Accurately ripped


==== Log checksum EAAB505B8B971E7C1BCFDBD5BA6A27E140DD7EEC0D1EC47965D939D30347A496 ====

Exact Audio Copy V1.3 from 2. September 2016

EAC extraction logfile from 21. May 2018, 23:13

Various Artists / Top Of The Pops '76 CD2

Used drive : MATSHITADVD-RAM UJ-852S Adapter: 1 ID: 0

Read mode : Secure
Utilize accurate stream : Yes
Defeat audio cache : Yes
Make use of C2 pointers : No

Read offset correction : 102
Overread into Lead-In and Lead-Out : No
Fill up missing offset samples with silence : Yes
Delete leading and trailing silent blocks : No
Null samples used in CRC calculations : Yes
Used interface : Native Win32 interface for Win NT & 2000
Gap handling : Appended to previous track

Used output format : User Defined Encoder
Selected bitrate : 896 kBit/s
Quality : High
Add ID3 tag : No
Command line compressor : C:\Program Files (x86)\Exact Audio Copy\FLAC\FLAC.EXE
Additional command line options : -8 -V -T "ARTIST=%artist%" -T "TITLE=%title%" -T "ALBUM=%albumtitle%" -T "DATE=%year%" -T "TRACKNUMBER=%tracknr%" -T "GENRE=%genre%" -T "COMMENT=%comment%" -T "BAND=%albuminterpret%" -T "ALBUMARTIST=%albuminterpret%" -T "COMPOSER=%composer%" %haslyrics%–tag-from-file=LYRICS="%lyricsfile%"%haslyrics% -T "DISCNUMBER=%cdnumber%" -T "TOTALDISCS=%totalcds%" -T "TOTALTRACKS=%numtracks%" %hascover%–picture="%coverfile%"%hascover% %source% -o %dest%


TOC of the extracted CD

Track | Start | Length | Start sector | End sector
––––––––––––––––––––––––––––-
1 | 0:00.00 | 2:59.74 | 0 | 13498
2 | 2:59.74 | 3:18.00 | 13499 | 28348
3 | 6:17.74 | 3:16.16 | 28349 | 43064
4 | 9:34.15 | 3:00.11 | 43065 | 56575
5 | 12:34.26 | 3:20.67 | 56576 | 71642
6 | 15:55.18 | 5:50.56 | 71643 | 97948
7 | 21:45.74 | 5:22.59 | 97949 | 122157
8 | 27:08.58 | 4:36.45 | 122158 | 142902
9 | 31:45.28 | 4:24.35 | 142903 | 162737
10 | 36:09.63 | 3:23.56 | 162738 | 178018
11 | 39:33.44 | 3:57.21 | 178019 | 195814
12 | 43:30.65 | 3:49.19 | 195815 | 213008
13 | 47:20.09 | 2:33.00 | 213009 | 224483
14 | 49:53.09 | 2:56.18 | 224484 | 237701
15 | 52:49.27 | 3:31.72 | 237702 | 253598
16 | 56:21.24 | 3:32.18 | 253599 | 269516
17 | 59:53.42 | 4:39.24 | 269517 | 290465


Track 1

Filename C:\EAC rips\VA - Top Of The Pops '76 CD2\ 01. Bryan Ferry - Let's Stick Together.wav

Pre-gap length 0:00:02.00

Peak level 89.1 %
Extraction speed 1.4 X
Track quality 100.0 %
Test CRC 1529527F
Copy CRC 1529527F
Track not present in AccurateRip database
Copy OK

Track 2

Filename C:\EAC rips\VA - Top Of The Pops '76 CD2\ 02. David Dundas - Jeans On.wav

Peak level 98.2 %
Extraction speed 1.6 X
Track quality 100.0 %
Test CRC 919519D6
Copy CRC 919519D6
Track not present in AccurateRip database
Copy OK

Track 3

Filename C:\EAC rips\VA - Top Of The Pops '76 CD2\ 03. Johnny Wakelin - In Zaire.wav

Peak level 98.2 %
Extraction speed 1.4 X
Track quality 99.9 %
Test CRC E7B1008A
Copy CRC E7B1008A
Track not present in AccurateRip database
Copy OK

Track 4

Filename C:\EAC rips\VA - Top Of The Pops '76 CD2\ 04. Sailor - Girls Girls Girls.wav

Peak level 98.2 %
Extraction speed 1.7 X
Track quality 100.0 %
Test CRC F55B856A
Copy CRC F55B856A
Track not present in AccurateRip database
Copy OK

Track 5

Filename C:\EAC rips\VA - Top Of The Pops '76 CD2\ 05. Gallagher & Lyle - Heart On My Sleeve.wav

Peak level 98.2 %
Extraction speed 1.9 X
Track quality 100.0 %
Test CRC B214D014
Copy CRC B214D014
Track not present in AccurateRip database
Copy OK

Track 6

Filename C:\EAC rips\VA - Top Of The Pops '76 CD2\ 06. John Miles - Music.wav

Peak level 98.2 %
Extraction speed 2.2 X
Track quality 100.0 %
Test CRC 4A974050
Copy CRC 4A974050
Track not present in AccurateRip database
Copy OK

Track 7

Filename C:\EAC rips\VA - Top Of The Pops '76 CD2\ 07. 10cc - I'm Mandy Fly Me.wav

Peak level 98.2 %
Extraction speed 2.3 X
Track quality 100.0 %
Test CRC A06E0988
Copy CRC A06E0988
Track not present in AccurateRip database
Copy OK

Track 8

Filename C:\EAC rips\VA - Top Of The Pops '76 CD2\ 08. Sensational Alex Harvey Band - Boston Tea Party.wav

Peak level 98.2 %
Extraction speed 2.4 X
Track quality 100.0 %
Test CRC 22DDB730
Copy CRC 22DDB730
Track not present in AccurateRip database
Copy OK

Track 9

Filename C:\EAC rips\VA - Top Of The Pops '76 CD2\ 09. Thin Lizzy - The Boys Are Back In Town.wav

Peak level 98.2 %
Extraction speed 2.5 X
Track quality 100.0 %
Test CRC 00CCB416
Copy CRC 00CCB416
Track not present in AccurateRip database
Copy OK

Track 10

Filename C:\EAC rips\VA - Top Of The Pops '76 CD2\ 10. Bryan Ferry - The Price Of Love.wav

Peak level 98.2 %
Extraction speed 2.5 X
Track quality 100.0 %
Test CRC C1C538A2
Copy CRC C1C538A2
Track not present in AccurateRip database
Copy OK

Track 11

Filename C:\EAC rips\VA - Top Of The Pops '76 CD2\ 11. Status Quo - Mystery Song.wav

Peak level 98.2 %
Extraction speed 2.6 X
Track quality 100.0 %
Test CRC 51F3F28E
Copy CRC 51F3F28E
Track not present in AccurateRip database
Copy OK

Track 12

Filename C:\EAC rips\VA - Top Of The Pops '76 CD2\ 12. CW McCall - Convoy.wav

Peak level 98.2 %
Extraction speed 2.7 X
Track quality 100.0 %
Test CRC A0AB85C5
Copy CRC A0AB85C5
Track not present in AccurateRip database
Copy OK

Track 13

Filename C:\EAC rips\VA - Top Of The Pops '76 CD2\ 13. The Rubettes - You're The Reason Why.wav

Peak level 98.2 %
Extraction speed 2.6 X
Track quality 100.0 %
Test CRC 0818AC64
Copy CRC 0818AC64
Track not present in AccurateRip database
Copy OK

Track 14

Filename C:\EAC rips\VA - Top Of The Pops '76 CD2\ 14. Barbara Dickson - Answer Me.wav

Peak level 98.2 %
Extraction speed 2.7 X
Track quality 100.0 %
Test CRC 6ECA7F99
Copy CRC 6ECA7F99
Track not present in AccurateRip database
Copy OK

Track 15

Filename C:\EAC rips\VA - Top Of The Pops '76 CD2\ 15. Stretch - Why Did You Do It.wav

Peak level 100.0 %
Extraction speed 2.8 X
Track quality 100.0 %
Test CRC BD630B7E
Copy CRC BD630B7E
Track not present in AccurateRip database
Copy OK

Track 16

Filename C:\EAC rips\VA - Top Of The Pops '76 CD2\ 16. ABBA - Mamma Mia.wav

Peak level 98.2 %
Extraction speed 2.9 X
Track quality 100.0 %
Test CRC DB78CE86
Copy CRC DB78CE86
Track not present in AccurateRip database
Copy OK

Track 17

Filename C:\EAC rips\VA - Top Of The Pops '76 CD2\ 17. Barry White - Don't Make Me Wait Too Long.wav

Peak level 98.2 %
Extraction speed 3.1 X
Track quality 100.0 %
Test CRC 41730167
Copy CRC 41730167
Track not present in AccurateRip database
Copy OK


None of the tracks are present in the AccurateRip database

No errors occurred

End of status report

–– CUETools DB Plugin V2.1.6

[CTDB TOCID: XIgT95MePEGNQKl0KoewzMxHshM-] found
Submit result: XIgT95MePEGNQKl0KoewzMxHshM- has been confirmed
Track | CTDB Status
1 | (4/4) Accurately ripped
2 | (4/4) Accurately ripped
3 | (4/4) Accurately ripped
4 | (4/4) Accurately ripped
5 | (4/4) Accurately ripped
6 | (4/4) Accurately ripped
7 | (4/4) Accurately ripped
8 | (4/4) Accurately ripped
9 | (4/4) Accurately ripped
10 | (4/4) Accurately ripped
11 | (4/4) Accurately ripped
12 | (4/4) Accurately ripped
13 | (4/4) Accurately ripped
14 | (4/4) Accurately ripped
15 | (4/4) Accurately ripped
16 | (4/4) Accurately ripped
17 | (4/4) Accurately ripped


==== Log checksum 166FBEF84C021281A9756893A252BEE5FEC45AFFFDEA11DFDD24D63789EDB5DD ====

Exact Audio Copy V1.3 from 2. September 2016

EAC extraction logfile from 23. May 2018, 20:07

Various Artists / Top Of The Pops '76 CD3

Used drive : MATSHITADVD-RAM UJ-852S Adapter: 1 ID: 0

Read mode : Secure
Utilize accurate stream : Yes
Defeat audio cache : Yes
Make use of C2 pointers : No

Read offset correction : 102
Overread into Lead-In and Lead-Out : No
Fill up missing offset samples with silence : Yes
Delete leading and trailing silent blocks : No
Null samples used in CRC calculations : Yes
Used interface : Native Win32 interface for Win NT & 2000
Gap handling : Appended to previous track

Used output format : User Defined Encoder
Selected bitrate : 896 kBit/s
Quality : High
Add ID3 tag : No
Command line compressor : C:\Program Files (x86)\Exact Audio Copy\FLAC\FLAC.EXE
Additional command line options : -8 -V -T "ARTIST=%artist%" -T "TITLE=%title%" -T "ALBUM=%albumtitle%" -T "DATE=%year%" -T "TRACKNUMBER=%tracknr%" -T "GENRE=%genre%" -T "COMMENT=%comment%" -T "BAND=%albuminterpret%" -T "ALBUMARTIST=%albuminterpret%" -T "COMPOSER=%composer%" %haslyrics%–tag-from-file=LYRICS="%lyricsfile%"%haslyrics% -T "DISCNUMBER=%cdnumber%" -T "TOTALDISCS=%totalcds%" -T "TOTALTRACKS=%numtracks%" %hascover%–picture="%coverfile%"%hascover% %source% -o %dest%


TOC of the extracted CD

Track | Start | Length | Start sector | End sector
––––––––––––––––––––––––––––-
1 | 0:00.00 | 3:57.00 | 0 | 17774
2 | 3:57.00 | 3:15.27 | 17775 | 32426
3 | 7:12.27 | 4:25.62 | 32427 | 52363
4 | 11:38.14 | 3:22.32 | 52364 | 67545
5 | 15:00.46 | 3:33.18 | 67546 | 83538
6 | 18:33.64 | 4:29.18 | 83539 | 103731
7 | 23:03.07 | 4:08.74 | 103732 | 122405
8 | 27:12.06 | 3:52.71 | 122406 | 139876
9 | 31:05.02 | 3:35.07 | 139877 | 156008
10 | 34:40.09 | 4:24.60 | 156009 | 175868
11 | 39:04.69 | 2:57.34 | 175869 | 189177
12 | 42:02.28 | 2:40.38 | 189178 | 201215
13 | 44:42.66 | 3:00.61 | 201216 | 214776
14 | 47:43.52 | 3:59.31 | 214777 | 232732
15 | 51:43.08 | 2:47.54 | 232733 | 245311
16 | 54:30.62 | 1:59.21 | 245312 | 254257
17 | 56:30.08 | 3:41.52 | 254258 | 270884


Track 1

Filename C:\EAC rips\VA - Top Of The Pops '76 CD3\ 01. Chicago - If You Leave Me Now.wav

Pre-gap length 0:00:02.00

Peak level 100.0 %
Extraction speed 1.4 X
Track quality 100.0 %
Test CRC F5097646
Copy CRC F5097646
Track not present in AccurateRip database
Copy OK

Track 2

Filename C:\EAC rips\VA - Top Of The Pops '76 CD3\ 02. Dr Hook - A Little Bit More.wav

Peak level 98.2 %
Extraction speed 1.5 X
Track quality 100.0 %
Test CRC 6910DE2C
Copy CRC 6910DE2C
Track not present in AccurateRip database
Copy OK

Track 3

Filename C:\EAC rips\VA - Top Of The Pops '76 CD3\ 03. The Manhattans - Kiss And Say Goodbye.wav

Peak level 98.2 %
Extraction speed 1.7 X
Track quality 100.0 %
Test CRC 1B1DB844
Copy CRC 1B1DB844
Track not present in AccurateRip database
Copy OK

Track 4

Filename C:\EAC rips\VA - Top Of The Pops '76 CD3\ 04. Diana Ross - Theme From ''Mahogany'' (Do You Know Where You're Going To).wav

Peak level 97.0 %
Extraction speed 1.8 X
Track quality 100.0 %
Test CRC AAC15B3D
Copy CRC AAC15B3D
Track not present in AccurateRip database
Copy OK

Track 5

Filename C:\EAC rips\VA - Top Of The Pops '76 CD3\ 05. Yvonne Fair - It Should Have Been Me.wav

Peak level 98.2 %
Extraction speed 1.9 X
Track quality 100.0 %
Test CRC BB3DAF89
Copy CRC BB3DAF89
Track not present in AccurateRip database
Copy OK

Track 6

Filename C:\EAC rips\VA - Top Of The Pops '76 CD3\ 06. Joan Armatrading - Love And Affection.wav

Peak level 97.7 %
Extraction speed 1.8 X
Track quality 99.9 %
Test CRC 18FCF82F
Copy CRC 18FCF82F
Track not present in AccurateRip database
Copy OK

Track 7

Filename C:\EAC rips\VA - Top Of The Pops '76 CD3\ 07. ABBA - Fernando.wav

Peak level 98.2 %
Extraction speed 1.9 X
Track quality 99.9 %
Test CRC 3E465545
Copy CRC 3E465545
Track not present in AccurateRip database
Copy OK

Track 8

Filename C:\EAC rips\VA - Top Of The Pops '76 CD3\ 08. Randy Edelman - Uptown Uptempo Woman.wav

Peak level 100.0 %
Extraction speed 2.2 X
Track quality 100.0 %
Test CRC 5D578541
Copy CRC 5D578541
Track not present in AccurateRip database
Copy OK

Track 9

Filename C:\EAC rips\VA - Top Of The Pops '76 CD3\ 09. Demis Roussos - Forever And Ever.wav

Peak level 98.2 %
Extraction speed 2.0 X
Track quality 99.9 %
Test CRC A3765E79
Copy CRC A3765E79
Track not present in AccurateRip database
Copy OK

Track 10

Filename C:\EAC rips\VA - Top Of The Pops '76 CD3\ 10. Barry White - Baby, We Better Try To Get It Together.wav

Peak level 98.2 %
Extraction speed 2.5 X
Track quality 100.0 %
Test CRC E3706794
Copy CRC E3706794
Track not present in AccurateRip database
Copy OK

Track 11

Filename C:\EAC rips\VA - Top Of The Pops '76 CD3\ 11. Gallagher & Lyle - I Wanna Stay With You.wav

Peak level 98.2 %
Extraction speed 2.4 X
Track quality 100.0 %
Test CRC DA2605EF
Copy CRC DA2605EF
Track not present in AccurateRip database
Copy OK

Track 12

Filename C:\EAC rips\VA - Top Of The Pops '76 CD3\ 12. Paul Nicholas - Reggae Like It Use To Be.wav

Peak level 98.2 %
Extraction speed 2.4 X
Track quality 100.0 %
Test CRC 5EF6F8C7
Copy CRC 5EF6F8C7
Track not present in AccurateRip database
Copy OK

Track 13

Filename C:\EAC rips\VA - Top Of The Pops '76 CD3\ 13. Peters & Lee - Hey Mr Music Man.wav

Peak level 98.2 %
Extraction speed 2.5 X
Track quality 100.0 %
Test CRC 94C102BA
Copy CRC 94C102BA
Track not present in AccurateRip database
Copy OK

Track 14

Filename C:\EAC rips\VA - Top Of The Pops '76 CD3\ 14. Manuel & His Music Of The Mountains - Rodrigo's Guitar Concerto de Aranjuez.wav

Peak level 98.2 %
Extraction speed 2.7 X
Track quality 100.0 %
Test CRC CA3D1543
Copy CRC CA3D1543
Track not present in AccurateRip database
Copy OK

Track 15

Filename C:\EAC rips\VA - Top Of The Pops '76 CD3\ 15. Robin Sarstedt - My Resistance Is Low.wav

Peak level 98.2 %
Extraction speed 2.6 X
Track quality 100.0 %
Test CRC 5BB86D7C
Copy CRC 5BB86D7C
Track not present in AccurateRip database
Copy OK

Track 16

Filename C:\EAC rips\VA - Top Of The Pops '76 CD3\ 16. Mike Oldfield - Portsmouth.wav

Peak level 98.2 %
Extraction speed 2.5 X
Track quality 100.0 %
Test CRC B56A728B
Copy CRC B56A728B
Track not present in AccurateRip database
Copy OK

Track 17

Filename C:\EAC rips\VA - Top Of The Pops '76 CD3\ 17. Johnny Mathis - When A Child Is Born.wav

Peak level 98.2 %
Extraction speed 2.8 X
Track quality 100.0 %
Test CRC F93ECA85
Copy CRC F93ECA85
Track not present in AccurateRip database
Copy OK


None of the tracks are present in the AccurateRip database

No errors occurred

End of status report

–– CUETools DB Plugin V2.1.6

[CTDB TOCID: OjvaVG_My.xUZHCq__VwOh6i5ZU-] found
Submit result: OjvaVG_My.xUZHCq__VwOh6i5ZU- has been confirmed
Track | CTDB Status
1 | (4/4) Accurately ripped
2 | (4/4) Accurately ripped
3 | (4/4) Accurately ripped
4 | (4/4) Accurately ripped
5 | (4/4) Accurately ripped
6 | (4/4) Accurately ripped
7 | (4/4) Accurately ripped
8 | (4/4) Accurately ripped
9 | (4/4) Accurately ripped
10 | (4/4) Accurately ripped
11 | (4/4) Accurately ripped
12 | (4/4) Accurately ripped
13 | (4/4) Accurately ripped
14 | (4/4) Accurately ripped
15 | (4/4) Accurately ripped
16 | (4/4) Accurately ripped
17 | (4/4) Accurately ripped


==== Log checksum 14A31786BF89B448E3411BE54D2F37118D832EAED1DD4BD0B40354912568AA2A ====