Subcategories

V.A. - Best Of Chillout Lemongrassmusic (2011)

Posted By: gribovar
V.A. - Best Of Chillout Lemongrassmusic (2011)

V.A. - Best Of Chillout Lemongrassmusic (2011)
EAC Rip | FLAC (tracks+.cue+log) - 749 MB | MP3 CBR 320 kbps (LAME 3.93) - 278 MB | Covers - 106 MB
Genre: Chillout, Downtempo, Ambient | RAR 3% Rec. | Label: DreaMusic (ПРЗ CD03826)

Lemongrass, Faro, Moshang, Weathertunes, Five Season, Tafubar and more.
CD 1 Tracklist:
01. Faro - Shape Of Sense
02. Moshang - Padoga
03. Lemongrass - Star Child
04. Beach Hoppers - Lost Inside
05. Moshang - A Chance Meeting
06. Weathertunes - Forest
07. Five Season - La Isla
08. Beach Hoppers - One Love
09. Faro - Spiritual Guidance
10. Weathertunes - La Seine
11. Lemongrass - Voyager

Total time: 54:17

CD 2 Tracklist:
01. Beach Hoppers - Why Can't I Have You
02. Breakfast Brothers - Away
03. Five Season - Don't Go Home Yet
04. Lemongrass - Beaute
05. Synthpathic - Cocktail
06. Weatherthtunes - That's Right
07. Daniel Ray - Floodlight
08. Breakfarst Brothers - Heart Beats
09. Tafubar - Thagroover (Lemongrass Remix)
10. Daniel Ray - A Tale
11. Lemongrass - Celebrate
12. Tafubar - The Wicked Thought Of You
13. Eskadet - Into My Soul

Total time: 01:03:59

Exact Audio Copy V1.0 beta 1 from 15. November 2010

EAC extraction logfile from 8. July 2012, 21:50

Various / Lemongrassmusic CD1

Used drive : ASUS DRW-24B3ST Adapter: 3 ID: 0

Read mode : Secure
Utilize accurate stream : Yes
Defeat audio cache : Yes
Make use of C2 pointers : No

Read offset correction : 6
Overread into Lead-In and Lead-Out : No
Fill up missing offset samples with silence : Yes
Delete leading and trailing silent blocks : No
Null samples used in CRC calculations : Yes
Used interface : Native Win32 interface for Win NT & 2000
Gap handling : Appended to previous track

Used output format : User Defined Encoder
Selected bitrate : 1024 kBit/s
Quality : High
Add ID3 tag : No
Command line compressor : C:\Program Files\Exact Audio Copy\Flac\flac.exe
Additional command line options : -8 -V -T "ARTIST=%a" -T "TITLE=%t" -T "ALBUM=%g" -T "DATE=%y" -T "TRACKNUMBER=%n" -T "GENRE=%m" -T "COMMENT=ripped by Oleandris" %s


TOC of the extracted CD

Track | Start | Length | Start sector | End sector
––––––––––––––––––––––––––––-
1 | 0:00.00 | 6:01.46 | 0 | 27120
2 | 6:01.46 | 3:29.17 | 27121 | 42812
3 | 9:30.63 | 5:28.33 | 42813 | 67445
4 | 14:59.21 | 5:16.47 | 67446 | 91192
5 | 20:15.68 | 4:32.09 | 91193 | 111601
6 | 24:48.02 | 4:04.00 | 111602 | 129901
7 | 28:52.02 | 4:49.00 | 129902 | 151576
8 | 33:41.02 | 3:57.21 | 151577 | 169372
9 | 37:38.23 | 6:31.21 | 169373 | 198718
10 | 44:09.44 | 3:45.00 | 198719 | 215593
11 | 47:54.44 | 6:23.20 | 215594 | 244338


Track 1

Filename F:\ЗАГРУЗКИ\ Best Of Chillout - Lemongrassmusic 2CD (2011)\CD1\01. Faro - Shape Of Sense.wav

Pre-gap length 0:00:02.00

Peak level 95.6 %
Extraction speed 3.2 X
Track quality 99.9 %
Test CRC C000A08F
Copy CRC C000A08F
Track not present in AccurateRip database
Copy OK

Track 2

Filename F:\ЗАГРУЗКИ\ Best Of Chillout - Lemongrassmusic 2CD (2011)\CD1\02. Moshang - Padoga.wav

Peak level 97.7 %
Extraction speed 3.9 X
Track quality 100.0 %
Test CRC 02E32759
Copy CRC 02E32759
Track not present in AccurateRip database
Copy OK

Track 3

Filename F:\ЗАГРУЗКИ\ Best Of Chillout - Lemongrassmusic 2CD (2011)\CD1\03. Lemongrass - Star Child.wav

Peak level 98.6 %
Extraction speed 4.5 X
Track quality 100.0 %
Test CRC D8185176
Copy CRC D8185176
Track not present in AccurateRip database
Copy OK

Track 4

Filename F:\ЗАГРУЗКИ\ Best Of Chillout - Lemongrassmusic 2CD (2011)\CD1\04. Beach Hoppers - Lost Inside.wav

Peak level 94.4 %
Extraction speed 4.9 X
Track quality 100.0 %
Test CRC 45720E80
Copy CRC 45720E80
Track not present in AccurateRip database
Copy OK

Track 5

Filename F:\ЗАГРУЗКИ\ Best Of Chillout - Lemongrassmusic 2CD (2011)\CD1\05. Moshang - A Chance Meeting.wav

Peak level 97.7 %
Extraction speed 5.2 X
Track quality 100.0 %
Test CRC 9877E175
Copy CRC 9877E175
Track not present in AccurateRip database
Copy OK

Track 6

Filename F:\ЗАГРУЗКИ\ Best Of Chillout - Lemongrassmusic 2CD (2011)\CD1\06. Weathertunes - Forest.wav

Peak level 95.6 %
Extraction speed 5.4 X
Track quality 100.0 %
Test CRC 9F011629
Copy CRC 9F011629
Track not present in AccurateRip database
Copy OK

Track 7

Filename F:\ЗАГРУЗКИ\ Best Of Chillout - Lemongrassmusic 2CD (2011)\CD1\07. Five Season - La Isla.wav

Peak level 98.8 %
Extraction speed 5.8 X
Track quality 100.0 %
Test CRC 383AD005
Copy CRC 383AD005
Track not present in AccurateRip database
Copy OK

Track 8

Filename F:\ЗАГРУЗКИ\ Best Of Chillout - Lemongrassmusic 2CD (2011)\CD1\08. Beach Hoppers - One Love.wav

Peak level 100.0 %
Extraction speed 5.9 X
Track quality 100.0 %
Test CRC 3C9C82C3
Copy CRC 3C9C82C3
Track not present in AccurateRip database
Copy OK

Track 9

Filename F:\ЗАГРУЗКИ\ Best Of Chillout - Lemongrassmusic 2CD (2011)\CD1\09. Faro - Spiritual Guidance.wav

Peak level 96.3 %
Extraction speed 6.6 X
Track quality 100.0 %
Test CRC 2355CEC1
Copy CRC 2355CEC1
Track not present in AccurateRip database
Copy OK

Track 10

Filename F:\ЗАГРУЗКИ\ Best Of Chillout - Lemongrassmusic 2CD (2011)\CD1\10. Weathertunes - La Seine.wav

Peak level 98.8 %
Extraction speed 6.4 X
Track quality 100.0 %
Test CRC 60329D42
Copy CRC 60329D42
Track not present in AccurateRip database
Copy OK

Track 11

Filename F:\ЗАГРУЗКИ\ Best Of Chillout - Lemongrassmusic 2CD (2011)\CD1\11. Lemongrass - Voyager.wav

Peak level 98.5 %
Extraction speed 7.2 X
Track quality 100.0 %
Test CRC 6AC40185
Copy CRC 6AC40185
Track not present in AccurateRip database
Copy OK


None of the tracks are present in the AccurateRip database

No errors occurred

End of status report

==== Log checksum 1EE5040592725675B5832DA30CEC3B095DA783FCF3E82B29DF314DF86FD671DF ====

[CUETools log; Date: 13.06.2018 14:40:13; Version: 2.1.4]
[CTDB TOCID: LvnOpN45lYca7JLjkMtZjXIxjaA-] found.
Track | CTDB Status
1 | (3/3) Accurately ripped
2 | (3/3) Accurately ripped
3 | (3/3) Accurately ripped
4 | (2/3) Accurately ripped
5 | (3/3) Accurately ripped
6 | (3/3) Accurately ripped
7 | (3/3) Accurately ripped
8 | (3/3) Accurately ripped
9 | (3/3) Accurately ripped
10 | (3/3) Accurately ripped
11 | (3/3) Accurately ripped
[AccurateRip ID: 00161ecf-00bef732-840cb90b] found.
Track [ CRC | V2 ] Status
01 [4ce15eb5|70ebd66a] (0+6/6) Accurately ripped
02 [c58ec0af|21ee699b] (0+6/6) Accurately ripped
03 [204b6218|3fb16618] (0+6/6) Accurately ripped
04 [e1ca50fe|5576bce9] (0+4/6) Accurately ripped
05 [7faeebff|a92ab26f] (0+6/6) Accurately ripped
06 [a663481e|23e1a531] (0+6/6) Accurately ripped
07 [ac5cdc2f|cecd4d42] (0+6/6) Accurately ripped
08 [b95ccf03|ae14728e] (0+6/6) Accurately ripped
09 [eadf3220|ab4befca] (0+6/6) Accurately ripped
10 [0de901c2|fea9d54f] (0+6/6) Accurately ripped
11 [fce3bb67|461ce31a] (0+6/6) Accurately ripped

Track Peak [ CRC32 ] [W/O NULL] [ LOG ]
– 100,0 [C1815FC0] [12FCA38A]
01 95,6 [C000A08F] [9995ABFB] CRC32
02 97,7 [02E32759] [5DBB12B3] CRC32
03 98,6 [D8185176] [261A76F5] CRC32
04 94,4 [45720E80] [D2EECB17] CRC32
05 97,7 [9877E175] [952CFE46] CRC32
06 95,6 [9F011629] [F9F4F8A2] CRC32
07 98,8 [383AD005] [22A4D4B5] CRC32
08 100,0 [3C9C82C3] [10FD5593] CRC32
09 96,3 [2355CEC1] [8A065035] CRC32
10 98,8 [60329D42] [D9D38197] CRC32
11 98,5 [6AC40185] [D9743AB6] CRC32

Exact Audio Copy V1.0 beta 1 from 15. November 2010

EAC extraction logfile from 8. July 2012, 21:50

Various / Lemongrassmusic

Used drive : PLEXTOR DVDR PX-L890SA Adapter: 5 ID: 0

Read mode : Secure
Utilize accurate stream : Yes
Defeat audio cache : Yes
Make use of C2 pointers : No

Read offset correction : 6
Overread into Lead-In and Lead-Out : No
Fill up missing offset samples with silence : Yes
Delete leading and trailing silent blocks : No
Null samples used in CRC calculations : Yes
Used interface : Native Win32 interface for Win NT & 2000
Gap handling : Appended to previous track

Used output format : User Defined Encoder
Selected bitrate : 1024 kBit/s
Quality : High
Add ID3 tag : No
Command line compressor : C:\Program Files\Exact Audio Copy\Flac\flac.exe
Additional command line options : -8 -V -T "ARTIST=%a" -T "TITLE=%t" -T "ALBUM=%g" -T "DATE=%y" -T "TRACKNUMBER=%n" -T "GENRE=%m" -T "COMMENT=ripped by Oleandris" %s


TOC of the extracted CD

Track | Start | Length | Start sector | End sector
––––––––––––––––––––––––––––-
1 | 0:00.00 | 6:52.17 | 0 | 30916
2 | 6:52.17 | 3:55.50 | 30917 | 48591
3 | 10:47.67 | 4:35.48 | 48592 | 69264
4 | 15:23.40 | 4:05.18 | 69265 | 87657
5 | 19:28.58 | 5:02.18 | 87658 | 110325
6 | 24:31.01 | 3:56.12 | 110326 | 128037
7 | 28:27.13 | 5:48.00 | 128038 | 154137
8 | 34:15.13 | 3:37.52 | 154138 | 170464
9 | 37:52.65 | 3:44.00 | 170465 | 187264
10 | 41:36.65 | 5:13.45 | 187265 | 210784
11 | 46:50.35 | 4:15.56 | 210785 | 229965
12 | 51:06.16 | 5:59.00 | 229966 | 256890
13 | 57:05.16 | 6:54.00 | 256891 | 287940


Track 1

Filename F:\ЗАГРУЗКИ\ Best Of Chillout - Lemongrassmusic 2CD (2011)\CD2\01. Beach Hoppers - Why Can't I Have You.wav

Pre-gap length 0:00:02.00

Peak level 86.2 %
Extraction speed 4.0 X
Track quality 100.0 %
Test CRC 649E58DF
Copy CRC 649E58DF
Track not present in AccurateRip database
Copy OK

Track 2

Filename F:\ЗАГРУЗКИ\ Best Of Chillout - Lemongrassmusic 2CD (2011)\CD2\02. Breakfast brothers - Away.wav

Peak level 100.0 %
Extraction speed 4.3 X
Track quality 100.0 %
Test CRC FAD3F1A9
Copy CRC FAD3F1A9
Track not present in AccurateRip database
Copy OK

Track 3

Filename F:\ЗАГРУЗКИ\ Best Of Chillout - Lemongrassmusic 2CD (2011)\CD2\03. Five Season - Don't Go Home Yet.wav

Peak level 99.5 %
Extraction speed 4.7 X
Track quality 100.0 %
Test CRC 9C12E363
Copy CRC 9C12E363
Track not present in AccurateRip database
Copy OK

Track 4

Filename F:\ЗАГРУЗКИ\ Best Of Chillout - Lemongrassmusic 2CD (2011)\CD2\04. Lemongrass - Beaute.wav

Peak level 99.9 %
Extraction speed 5.0 X
Track quality 100.0 %
Test CRC BB9D6D28
Copy CRC BB9D6D28
Track not present in AccurateRip database
Copy OK

Track 5

Filename F:\ЗАГРУЗКИ\ Best Of Chillout - Lemongrassmusic 2CD (2011)\CD2\05. Synthpathic - Cocktail.wav

Peak level 99.9 %
Extraction speed 5.5 X
Track quality 100.0 %
Test CRC C5B66645
Copy CRC C5B66645
Track not present in AccurateRip database
Copy OK

Track 6

Filename F:\ЗАГРУЗКИ\ Best Of Chillout - Lemongrassmusic 2CD (2011)\CD2\06. Weatherthtunes - That's Right.wav

Peak level 98.8 %
Extraction speed 5.6 X
Track quality 100.0 %
Test CRC 4DA5318E
Copy CRC 4DA5318E
Track not present in AccurateRip database
Copy OK

Track 7

Filename F:\ЗАГРУЗКИ\ Best Of Chillout - Lemongrassmusic 2CD (2011)\CD2\07. Daniel Ray - Floodlight.wav

Peak level 95.6 %
Extraction speed 5.2 X
Track quality 99.9 %
Test CRC 152C3686
Copy CRC 152C3686
Track not present in AccurateRip database
Copy OK

Track 8

Filename F:\ЗАГРУЗКИ\ Best Of Chillout - Lemongrassmusic 2CD (2011)\CD2\08. Breakfarst Brothers - Heart Beats.wav

Peak level 100.0 %
Extraction speed 6.1 X
Track quality 100.0 %
Test CRC 5EAAFD70
Copy CRC 5EAAFD70
Track not present in AccurateRip database
Copy OK

Track 9

Filename F:\ЗАГРУЗКИ\ Best Of Chillout - Lemongrassmusic 2CD (2011)\CD2\09. Tafubar - Thagroover (Lemongrass Remix).wav

Peak level 84.0 %
Extraction speed 6.3 X
Track quality 100.0 %
Test CRC 2211D15B
Copy CRC 2211D15B
Track not present in AccurateRip database
Copy OK

Track 10

Filename F:\ЗАГРУЗКИ\ Best Of Chillout - Lemongrassmusic 2CD (2011)\CD2\10. Daniel Ray - A Tale.wav

Peak level 95.6 %
Extraction speed 7.0 X
Track quality 100.0 %
Test CRC D8CC9A2F
Copy CRC D8CC9A2F
Track not present in AccurateRip database
Copy OK

Track 11

Filename F:\ЗАГРУЗКИ\ Best Of Chillout - Lemongrassmusic 2CD (2011)\CD2\11. Lemongrass - Celebrate.wav

Peak level 83.0 %
Extraction speed 7.0 X
Track quality 100.0 %
Test CRC 68DC0EDF
Copy CRC 68DC0EDF
Track not present in AccurateRip database
Copy OK

Track 12

Filename F:\ЗАГРУЗКИ\ Best Of Chillout - Lemongrassmusic 2CD (2011)\CD2\12. Tafubar - The Wicked Thought Of You.wav

Peak level 82.6 %
Extraction speed 7.6 X
Track quality 100.0 %
Test CRC CE1AE348
Copy CRC CE1AE348
Track not present in AccurateRip database
Copy OK

Track 13

Filename F:\ЗАГРУЗКИ\ Best Of Chillout - Lemongrassmusic 2CD (2011)\CD2\13. Eskadet - Into My Soul.wav

Peak level 99.1 %
Extraction speed 8.0 X
Track quality 100.0 %
Test CRC 2E81921B
Copy CRC 2E81921B
Track not present in AccurateRip database
Copy OK


None of the tracks are present in the AccurateRip database

No errors occurred

End of status report

==== Log checksum 43008FE25BE983C0AE121A82887D2664B36E60B161ED8A045FD9057A68EFCA17 ====

[CUETools log; Date: 13.06.2018 14:40:52; Version: 2.1.4]
[CTDB TOCID: 0BUQMwsKZaK5by6neYl8UsM1Kg8-] found.
Track | CTDB Status
1 | (3/3) Accurately ripped
2 | (3/3) Accurately ripped
3 | (3/3) Accurately ripped
4 | (3/3) Accurately ripped
5 | (3/3) Accurately ripped
6 | (3/3) Accurately ripped
7 | (3/3) Accurately ripped
8 | (3/3) Accurately ripped
9 | (3/3) Accurately ripped
10 | (3/3) Accurately ripped
11 | (3/3) Accurately ripped
12 | (3/3) Accurately ripped
13 | (3/3) Accurately ripped
[AccurateRip ID: 001e1817-012a9dba-b90eff0d] found.
Track [ CRC | V2 ] Status
01 [86afbf9e|ceb5f530] (0+4/4) Accurately ripped
02 [a31f6742|a83b7f73] (0+4/4) Accurately ripped
03 [8d53794b|7434ade6] (0+4/4) Accurately ripped
04 [41416eb9|72badd9a] (0+4/4) Accurately ripped
05 [d4f471fd|64df7c42] (0+4/4) Accurately ripped
06 [29bf793e|a0c02be6] (0+4/4) Accurately ripped
07 [85a20124|0d642eaf] (0+4/4) Accurately ripped
08 [85248d0d|6a77985b] (0+4/4) Accurately ripped
09 [802bcbf4|89055649] (0+4/4) Accurately ripped
10 [e4904c10|ea031329] (0+4/4) Accurately ripped
11 [7d93fae1|b04231c6] (0+4/4) Accurately ripped
12 [8660412a|d2af9d92] (0+4/4) Accurately ripped
13 [22e1b207|7a997d94] (0+4/4) Accurately ripped

Track Peak [ CRC32 ] [W/O NULL] [ LOG ]
– 100,0 [053C22CD] [EA9875BA]
01 86,2 [649E58DF] [65BA1FBD] CRC32
02 99,9 [FAD3F1A9] [19F39B14] CRC32
03 99,5 [9C12E363] [3F95AFAD] CRC32
04 99,9 [BB9D6D28] [66D2CCFB] CRC32
05 99,9 [C5B66645] [3E011BF8] CRC32
06 98,8 [4DA5318E] [A982A9FE] CRC32
07 95,6 [152C3686] [2BFABFD3] CRC32
08 100,0 [5EAAFD70] [3A4490B4] CRC32
09 84,0 [2211D15B] [DE249B2D] CRC32
10 95,6 [D8CC9A2F] [6FF97A92] CRC32
11 83,0 [68DC0EDF] [E4606025] CRC32
12 82,6 [CE1AE348] [84E83AAC] CRC32
13 99,1 [2E81921B] [CD32D61E] CRC32

Thanks to Oleandris