Subcategories

Vic Damone - Albums Collection 1956-1965 (5CD) 10 Classic Albums on 5CDs, Remastered Reissue 1997-2003

Posted By: Designol
Vic Damone - Albums Collection 1956-1965 (5CD) 10 Classic Albums on 5CDs, Remastered Reissue 1997-2003

Vic Damone - Albums Collection 1956-1965 (5CD)
10 Classic Albums on 5CDs, Remastered Reissue 1997-2003

EAC | FLAC | Tracks (Cue&Log) ~ 1.9 Gb | Mp3 (CBR320) ~ 848 Mb | Scans includes
Genre: Vocal Jazz, Vocal Pop, Standarts | Time: 05:42:25

R.I.P. Mr. Vic Damone (June 12, 1928 – February 11, 2018)

Vic Damone was an American traditional pop and big band singer, actor, radio and television presenter, and entertainer who is best known for his performances of songs such as "You're Breaking My Heart" (a number one hit), the number four hit "On the Street Where You Live" (from My Fair Lady), and "My Heart Cries for You" (also No. 4).

One of the prototypical Italian-American crooners, Vic Damone parlayed a smooth, mellow baritone into big-time pop stardom during the '40s and '50s. Early in his career, his inflection and phrasing were clearly indebted to Frank Sinatra, who once famously called him "the best set of pipes in the business." Overall, though, Damone's style was softer than Sinatra's and owed less to the elasticity of jazz, especially since he was a solo performer who never served an apprenticeship with a swing orchestra. Very much the heartthrob in his heyday, his repertoire relied heavily on romantic ballads, though he did sprinkle in the occasional pop novelty or Italian folk song. He managed a parallel career as a film actor and, later, a TV variety host, and remained an active nightclub performer for decades after he disappeared from the charts.

Damone was born Vito Rocca Farinola in Brooklyn, NY, on June 12, 1928. His mother was a piano teacher and his father an electrician who also sang and played guitar, but it was Sinatra who provided his first musical awakening, and inspired him to start voice lessons. His first performances came in a youth choir and at school events. When his father was seriously injured in a work accident, young Vic was forced to drop out of school to help support the family, and got a job at the Paramount Theater in Manhattan as an usher and elevator operator. One night, while taking Perry Como up to his dressing room, Vic gave an impromptu performance and asked the singer if he had any talent; Como encouraged him, referred him to a local bandleader, and became something of a mentor to him.

Adopting his mother's maiden name, Damone won first place on the Arthur Godfrey's Talent Scouts show in 1947, which led to regular professional gigs on local radio. While on the set of the show, he also met Milton Berle, who helped him get gigs at the prominent nightclubs La Martinique and the Aquarium. All the attention landed the 19-year-old Damone a record deal with Mercury in fairly short order. His debut single, "I Have But One Heart," sold well, and the follow-ups, "You Do" and the Patti Page duet "Say Something Sweet to Your Sweetheart," were also successful. He began hosting his own radio show, Saturday Night Serenade, and played big New York venues like the Copa and the Paramount (where he'd once worked).

Damone scored his first runaway smash in 1949 with "Again," and followed it with the similarly successful "You're Breaking My Heart"; both singles sold over a million copies. A steady stream of new releases followed through 1950, with the biggest including "Vagabond Shoes," the Top Ten "Tzena, Tzena, Tzena" (a cover of the Weavers' adaptation of an Israeli folk song), "Cincinnati Dancing Pig," and the Top Five "My Heart Cries for You." The following year, he signed a film contract with MGM and appeared in two movies, The Strip and the musical Rich, Young and Pretty. He also returned to the Top Five with a version of Guy Mitchell's "My Truly, Truly Fair." However, he was drafted into the military late that year, and served through 1953. Mercury continued to issue previously recorded material during Damone's tour of duty, and in that time, he hit the Top Ten with "Here in My Heart" (a cover of Al Martino's debut smash), Les Baxter's "April in Portugal," and "Ebb Tide"; he also found some success with the Charlie Chaplin-penned "Eternally."

When Damone returned from the military, he resumed his film career and married actress Pier Angeli; over the next two years, he appeared in the likes of Athena, Deep in My Heart, Kismet, and Hit the Deck, as well as guesting on Berle's TV show. However, his run of hit singles was coasting to a stop, and when Mercury dropped him, he followed his former A&R man Mitch Miller to Columbia. In 1956, Damone overcame the advent of rock & roll to score a number four pop hit with the My Fair Lady tune "On the Street Where You Live." That year, he also issued his first proper 12" LP, That Towering Feeling!, which reached the Top 20 (all his previous LPs had been 10"s or movie soundtracks). Outside of the musical arena, Damone appeared in another film, Meet Me in Las Vegas, and landed the first of what would prove to be several variety-show hosting gigs; this initial TV series, The Vic Damone Show, lasted from 1956-1957. Unfortunately, his marriage to Angeli broke up in 1958.

Damone was initially able to dodge the rock & roll bullet, but his career momentum soon ground to a near-halt. He had only one more Top 20 single, 1957's "An Affair to Remember (Our Love Affair)," and he was slowly forced to try reinventing himself as an album artist and an interpretive singer for adult audiences. The consistency of his albums did improve, with the most notable result being 1961's On the Swingin' Side, but Columbia let Damone move over to Capitol afterward. Hoping that Damone could ease some of the sting of losing Sinatra, Capitol coaxed some of the singer's strongest LPs out of him, including 1962's romantic Linger Awhile With Vic Damone and The Lively Ones. Both charted in the Top 100, but failed to win the audience of, for example, latter-day Sinatra. Damone moved on to Warner Brothers for a one-off album, You Were Only Fooling, in 1965; its title cut gave Damone a last hurrah on the singles charts.

Damone next moved on to RCA and made a few recordings in the late '60s, but by this time he was primarily a TV personality and frequent variety-show guest. He staged a major concert in Las Vegas in 1971, where he became a regular on the casino circuit; this helped him iron out some financial problems that resulted in a brief period of bankruptcy in the early '70s. Damone subsequently enjoyed a steady career touring nightclubs and casinos around the country, and experienced something of a renaissance in the U.K. during the early '80s. He capitalized with extensive touring there, and also cut a few new albums for RCA during the first half of the decade. In 1987, he married actress Diahann Carroll (his fourth wife), which lasted until 1996. In addition to his live performances, he continued to record occasionally as well.

Steve Huey, Allmusic.com

Vic Damone - Albums Collection 1956-1965 (5CD) 10 Classic Albums on 5CDs, Remastered Reissue 1997-2003






Vic Damone - Albums Collection 1956-1965 (5CD) 10 Classic Albums on 5CDs, Remastered Reissue 1997-2003

Vic Damone - That Towering Feeling! (1956) + On The Swingin' Side (1960)
2 LP in 1 CD, Remastered Reissue 2000

EAC | FLAC | Tracks (Cue&Log) ~ 369 Mb | Mp3 (CBR320) ~ 198 Mb | Scans included
Label: Collectables/Sony | # COL 6467/A-27991 | 01:18:26

That Towering Feeling! (1956)

Vic Damone's first proper album for Columbia Records is still considered one of his finest efforts. A ballad session with a couple of Sinatra-style swingers thrown in for good measure, Damone's pure vocals float over a bed of subtle strings as jazz solos move in and out (trumpeter Buck Clayton and trombonist Urbie Green are the only musicians to get mentioned in the liner notes). Damone had such a naturally beautiful voice that he's often at his best when he isn't pushing too hard, as attested by his gorgeous interpretations of "The Touch of Your Lips" and "Time on My Hands" heard here. He's also loose and nimble on the upbeat numbers, and "swinging" isn't the first word generally associated with Vic Damone. Still considered one of the best vocal pop albums of the 1950s, That Towering Feeling! was a hit in Great Britain but never really caught fire stateside the way that Damone's singles for the label did. That's a shame, because it really is one of Damone's best, and his three jazz-etched Columbia albums (this one, On the Swingin' Side, and especially This Game of Love) were so much better than his concurrent singles for the label, many of which were overblown and melodramatic. Thankfully, after being a collector's item for years, the album is once again in print and is on compact disc for the first time, including on a number of two-for-one CD reissues which house it with other Damone albums of the same period.

Nick Dedina, Allmusic.com

On The Swingin' Side (1960)

On the Swingin' Side is an unadulterated up-tempo delight that deserves to be rediscovered. The charts are bright, Vic Damone is relaxed but never dull, and the mood finds a nice balance between romance and spirited humor.

Nick Dedina, Allmusic.com

Tracklist:

That Towering Feeling! (1956)

01. You Stepped Out Of A Dream (3:11)
02. Wait Till You See Her (3:21)
03. Out Of Nowhere (3:45)
04. The Song Is You (2:22)
05. Spring Is Here (3:32)
06. Lets Fall In Love (2:00)
07. (When Your Heart's On Fire) Smoke Gets In Your Eyes (3:51)
08. Time On My Hands (You In My Arms) (2:39)
09. I'm Glad There Is You (2:42)
10. The Touch Of Your Lips (2:26)
11. All The Things You Are (3:29)
12. Cheek To Cheek (2:30)

On The Swingin' Side (1960)

13. Falling In Love With Love (1:39)
14. It's All Right With Me (2:58)
15. When My Sugar Walks Down The Street (All The Little Birdies Go Tweet-Tweet-Tweet) (2:53)
16. Cry Me A River (3:14)
17. Home (2:13)
18. Swingin' Down The Lane (2:17)
19. I Cried For You (2:21)
20. Speak Low (2:21)
21. It's A Wonderful World (1:51)
22. Girl Of My Dreams (2:23)
23. Deep Purple (2:11)
24. Toot, Toot, Tootsie! (2:03)

Bonus tracks:
25. On The Street Where You Live (2:45)
26. War And Peace (3:04)
27. Do I Love You (Because You're Beautiful) (2:35)
28. An Affair To Remember (Our Love Affair) (2:49)
29. Gigi (3:03)


Exact Audio Copy V1.0 beta 3 from 29. August 2011

EAC extraction logfile from 7. December 2014, 17:17

Vic Damone / That Towering Feeling! / On the Swingin' Side

Used drive : hp CDDVDW TS-H653R Adapter: 5 ID: 0

Read mode : Secure
Utilize accurate stream : Yes
Defeat audio cache : Yes
Make use of C2 pointers : No

Read offset correction : 6
Overread into Lead-In and Lead-Out : No
Fill up missing offset samples with silence : Yes
Delete leading and trailing silent blocks : No
Null samples used in CRC calculations : Yes
Used interface : Installed external ASPI interface
Gap handling : Appended to previous track

Used output format : User Defined Encoder
Selected bitrate : 1024 kBit/s
Quality : High
Add ID3 tag : No
Command line compressor : C:\Program Files\FLAC\flac.exe
Additional command line options : -8 -V -T "ARTIST=%artist%" -T "TITLE=%title%" -T "ALBUM=%albumtitle%" -T "DATE=%year%" -T "TRACKNUMBER=%tracknr1%" -T "GENRE=%genre%" -T "PERFORMER=%albuminterpret%" -T "COMPOSER=%composer%" %haslyrics%–tag-from-file=LYRICS="%lyricsfile%"%haslyrics% -T "ALBUMARTIST=%albumartist%" -T "DISCNUMBER=%cdnumber%" -T "TOTALDISCS=%totalcds%" -T "TOTALTRACKS=%numtracks%" -T "COMMENT=%comment%" %source% -o %dest%


TOC of the extracted CD

Track | Start | Length | Start sector | End sector
––––––––––––––––––––––––––––-
1 | 0:00.00 | 3:11.05 | 0 | 14329
2 | 3:11.05 | 3:20.45 | 14330 | 29374
3 | 6:31.50 | 3:44.42 | 29375 | 46216
4 | 10:16.17 | 2:21.38 | 46217 | 56829
5 | 12:37.55 | 3:32.12 | 56830 | 72741
6 | 16:09.67 | 2:00.35 | 72742 | 81776
7 | 18:10.27 | 3:51.20 | 81777 | 99121
8 | 22:01.47 | 2:38.40 | 99122 | 111011
9 | 24:40.12 | 2:42.05 | 111012 | 123166
10 | 27:22.17 | 2:25.55 | 123167 | 134096
11 | 29:47.72 | 3:28.55 | 134097 | 149751
12 | 33:16.52 | 2:30.15 | 149752 | 161016
13 | 35:46.67 | 1:39.28 | 161017 | 168469
14 | 37:26.20 | 2:58.30 | 168470 | 181849
15 | 40:24.50 | 2:52.52 | 181850 | 194801
16 | 43:17.27 | 3:13.73 | 194802 | 209349
17 | 46:31.25 | 2:13.30 | 209350 | 219354
18 | 48:44.55 | 2:16.42 | 219355 | 229596
19 | 51:01.22 | 2:20.55 | 229597 | 240151
20 | 53:22.02 | 2:21.13 | 240152 | 250739
21 | 55:43.15 | 1:50.40 | 250740 | 259029
22 | 57:33.55 | 2:22.47 | 259030 | 269726
23 | 59:56.27 | 2:11.03 | 269727 | 279554
24 | 62:07.30 | 2:03.20 | 279555 | 288799
25 | 64:10.50 | 2:44.52 | 288800 | 301151
26 | 66:55.27 | 3:04.23 | 301152 | 314974
27 | 69:59.50 | 2:34.45 | 314975 | 326569
28 | 72:34.20 | 2:48.65 | 326570 | 339234
29 | 75:23.10 | 3:02.55 | 339235 | 352939


Track 1

Filename C:\EAC Rips\Vic Damone - That Towering Feeling! On the Swingin' Side (2000) [FLAC]\01 - You Stepped Out OF A Dream.wav

Pre-gap length 0:00:02.00

Peak level 83.7 %
Extraction speed 4.7 X
Track quality 100.0 %
Test CRC 488BFBD2
Copy CRC 488BFBD2
Accurately ripped (confidence 3) [B5F0ABB4] (AR v2)
Copy OK

Track 2

Filename C:\EAC Rips\Vic Damone - That Towering Feeling! On the Swingin' Side (2000) [FLAC]\02 - Wait Till You See Her.wav

Pre-gap length 0:00:02.17

Peak level 76.3 %
Extraction speed 5.1 X
Track quality 100.0 %
Test CRC 2FB2CFDE
Copy CRC 2FB2CFDE
Accurately ripped (confidence 3) [61467600] (AR v2)
Copy OK

Track 3

Filename C:\EAC Rips\Vic Damone - That Towering Feeling! On the Swingin' Side (2000) [FLAC]\03 - Out of Nowhere.wav

Pre-gap length 0:00:02.97

Peak level 88.2 %
Extraction speed 5.4 X
Track quality 100.0 %
Test CRC 5E8582B6
Copy CRC 5E8582B6
Accurately ripped (confidence 3) [61EB6889] (AR v2)
Copy OK

Track 4

Filename C:\EAC Rips\Vic Damone - That Towering Feeling! On the Swingin' Side (2000) [FLAC]\04 - The Song Is You.wav

Pre-gap length 0:00:03.13

Peak level 97.7 %
Extraction speed 5.3 X
Track quality 100.0 %
Test CRC 9B856FA5
Copy CRC 9B856FA5
Accurately ripped (confidence 3) [2FC2E867] (AR v2)
Copy OK

Track 5

Filename C:\EAC Rips\Vic Damone - That Towering Feeling! On the Swingin' Side (2000) [FLAC]\05 - Spring Is Here.wav

Pre-gap length 0:00:02.53

Peak level 79.5 %
Extraction speed 4.6 X
Track quality 99.9 %
Test CRC A870341E
Copy CRC A870341E
Accurately ripped (confidence 3) [B1918136] (AR v2)
Copy OK

Track 6

Filename C:\EAC Rips\Vic Damone - That Towering Feeling! On the Swingin' Side (2000) [FLAC]\06 - Lets Fall In Love.wav

Pre-gap length 0:00:02.53

Peak level 97.7 %
Extraction speed 3.7 X
Track quality 99.9 %
Test CRC 3BC92EED
Copy CRC 3BC92EED
Accurately ripped (confidence 3) [7FF5409E] (AR v2)
Copy OK

Track 7

Filename C:\EAC Rips\Vic Damone - That Towering Feeling! On the Swingin' Side (2000) [FLAC]\07 - (When your Heart's On Fire) Smoke Gets In Your Eyes.wav

Pre-gap length 0:00:02.73

Peak level 92.1 %
Extraction speed 6.6 X
Track quality 100.0 %
Test CRC BFDBB746
Copy CRC BFDBB746
Accurately ripped (confidence 3) [3D92AD91] (AR v2)
Copy OK

Track 8

Filename C:\EAC Rips\Vic Damone - That Towering Feeling! On the Swingin' Side (2000) [FLAC]\08 - Time On My Hands.wav

Pre-gap length 0:00:02.22

Peak level 82.0 %
Extraction speed 6.4 X
Track quality 100.0 %
Test CRC C6B49BC2
Copy CRC C6B49BC2
Accurately ripped (confidence 3) [8A554636] (AR v2)
Copy OK

Track 9

Filename C:\EAC Rips\Vic Damone - That Towering Feeling! On the Swingin' Side (2000) [FLAC]\09 - I'm Glad There Is You.wav

Pre-gap length 0:00:01.89

Peak level 94.2 %
Extraction speed 6.6 X
Track quality 100.0 %
Test CRC 69EDD1B6
Copy CRC 69EDD1B6
Accurately ripped (confidence 3) [464145C8] (AR v2)
Copy OK

Track 10

Filename C:\EAC Rips\Vic Damone - That Towering Feeling! On the Swingin' Side (2000) [FLAC]\10 - The Touch of Your Lips.wav

Pre-gap length 0:00:01.49

Peak level 85.3 %
Extraction speed 4.7 X
Track quality 99.9 %
Test CRC 4E104C8A
Copy CRC 4E104C8A
Accurately ripped (confidence 3) [89FBA83E] (AR v2)
Copy OK

Track 11

Filename C:\EAC Rips\Vic Damone - That Towering Feeling! On the Swingin' Side (2000) [FLAC]\11 - All The Things You Are.wav

Pre-gap length 0:00:02.46

Peak level 97.7 %
Extraction speed 7.2 X
Track quality 100.0 %
Test CRC C59CACD9
Copy CRC C59CACD9
Accurately ripped (confidence 3) [B2D98BA8] (AR v2)
Copy OK

Track 12

Filename C:\EAC Rips\Vic Damone - That Towering Feeling! On the Swingin' Side (2000) [FLAC]\12 - Cheek To Cheek.wav

Pre-gap length 0:00:02.42

Peak level 97.7 %
Extraction speed 7.0 X
Track quality 100.0 %
Test CRC AA6B9A6A
Copy CRC AA6B9A6A
Accurately ripped (confidence 3) [89274598] (AR v2)
Copy OK

Track 13

Filename C:\EAC Rips\Vic Damone - That Towering Feeling! On the Swingin' Side (2000) [FLAC]\13 - Falling In Love With Love.wav

Pre-gap length 0:00:02.86

Peak level 74.8 %
Extraction speed 6.5 X
Track quality 100.0 %
Test CRC 904281AE
Copy CRC 904281AE
Accurately ripped (confidence 3) [D17937B8] (AR v2)
Copy OK

Track 14

Filename C:\EAC Rips\Vic Damone - That Towering Feeling! On the Swingin' Side (2000) [FLAC]\14 - It's All Right With me.wav

Pre-gap length 0:00:02.04

Peak level 77.9 %
Extraction speed 7.6 X
Track quality 100.0 %
Test CRC 2CF52C92
Copy CRC 2CF52C92
Accurately ripped (confidence 3) [EFEBA8A9] (AR v2)
Copy OK

Track 15

Filename C:\EAC Rips\Vic Damone - That Towering Feeling! On the Swingin' Side (2000) [FLAC]\15 - When My Sugar Walks Down The Street.wav

Pre-gap length 0:00:02.04

Peak level 79.0 %
Extraction speed 7.6 X
Track quality 100.0 %
Test CRC 52A50228
Copy CRC 52A50228
Accurately ripped (confidence 3) [AACEE50B] (AR v2)
Copy OK

Track 16

Filename C:\EAC Rips\Vic Damone - That Towering Feeling! On the Swingin' Side (2000) [FLAC]\16 - Cry Me A River.wav

Pre-gap length 0:00:02.06

Peak level 90.5 %
Extraction speed 8.0 X
Track quality 100.0 %
Test CRC 23832787
Copy CRC 23832787
Accurately ripped (confidence 3) [BD94ADAF] (AR v2)
Copy OK

Track 17

Filename C:\EAC Rips\Vic Damone - That Towering Feeling! On the Swingin' Side (2000) [FLAC]\17 - Home.wav

Pre-gap length 0:00:02.26

Peak level 76.4 %
Extraction speed 7.4 X
Track quality 100.0 %
Test CRC 54C7A2A4
Copy CRC 54C7A2A4
Accurately ripped (confidence 3) [25BF3FEF] (AR v2)
Copy OK

Track 18

Filename C:\EAC Rips\Vic Damone - That Towering Feeling! On the Swingin' Side (2000) [FLAC]\18 - Swingin' Down The Lane.wav

Pre-gap length 0:00:02.04

Peak level 77.0 %
Extraction speed 7.8 X
Track quality 100.0 %
Test CRC 29BE1353
Copy CRC 29BE1353
Accurately ripped (confidence 3) [D4EEF82B] (AR v2)
Copy OK

Track 19

Filename C:\EAC Rips\Vic Damone - That Towering Feeling! On the Swingin' Side (2000) [FLAC]\19 - I Cried For You.wav

Pre-gap length 0:00:02.00

Peak level 88.7 %
Extraction speed 5.4 X
Track quality 99.9 %
Test CRC 627C85FC
Copy CRC 627C85FC
Accurately ripped (confidence 3) [4C90AC40] (AR v2)
Copy OK

Track 20

Filename C:\EAC Rips\Vic Damone - That Towering Feeling! On the Swingin' Side (2000) [FLAC]\20 - Speak Low.wav

Pre-gap length 0:00:02.22

Peak level 94.3 %
Extraction speed 8.1 X
Track quality 100.0 %
Test CRC F5316CF7
Copy CRC F5316CF7
Accurately ripped (confidence 3) [3FBF594E] (AR v2)
Copy OK

Track 21

Filename C:\EAC Rips\Vic Damone - That Towering Feeling! On the Swingin' Side (2000) [FLAC]\21 - It's A Wonderful World.wav

Pre-gap length 0:00:02.20

Peak level 97.7 %
Extraction speed 4.9 X
Track quality 99.9 %
Test CRC 9F48E302
Copy CRC 9F48E302
Accurately ripped (confidence 3) [657D55FB] (AR v2)
Copy OK

Track 22

Filename C:\EAC Rips\Vic Damone - That Towering Feeling! On the Swingin' Side (2000) [FLAC]\22 - Girl Of My Dreams.wav

Pre-gap length 0:00:01.97

Peak level 97.7 %
Extraction speed 8.2 X
Track quality 100.0 %
Test CRC FA7AA313
Copy CRC FA7AA313
Accurately ripped (confidence 3) [7AED9D60] (AR v2)
Copy OK

Track 23

Filename C:\EAC Rips\Vic Damone - That Towering Feeling! On the Swingin' Side (2000) [FLAC]\23 - Deep Purple.wav

Pre-gap length 0:00:02.16

Peak level 82.2 %
Extraction speed 8.2 X
Track quality 100.0 %
Test CRC D6CA511B
Copy CRC D6CA511B
Accurately ripped (confidence 3) [5CDDD06F] (AR v2)
Copy OK

Track 24

Filename C:\EAC Rips\Vic Damone - That Towering Feeling! On the Swingin' Side (2000) [FLAC]\24 - Toot, Toot, Tootsie!.wav

Pre-gap length 0:00:02.44

Peak level 82.6 %
Extraction speed 8.2 X
Track quality 100.0 %
Test CRC 363779EE
Copy CRC 363779EE
Accurately ripped (confidence 3) [3BC157A7] (AR v2)
Copy OK

Track 25

Filename C:\EAC Rips\Vic Damone - That Towering Feeling! On the Swingin' Side (2000) [FLAC]\25 - On The Street Where You Live.wav

Pre-gap length 0:00:02.37

Peak level 80.4 %
Extraction speed 6.3 X
Track quality 99.9 %
Test CRC 6CFBB064
Copy CRC 6CFBB064
Accurately ripped (confidence 3) [3EF778B5] (AR v2)
Copy OK

Track 26

Filename C:\EAC Rips\Vic Damone - That Towering Feeling! On the Swingin' Side (2000) [FLAC]\26 - War And Peace.wav

Pre-gap length 0:00:01.80

Peak level 97.7 %
Extraction speed 9.3 X
Track quality 100.0 %
Test CRC DBADFC16
Copy CRC DBADFC16
Accurately ripped (confidence 3) [626650C3] (AR v2)
Copy OK

Track 27

Filename C:\EAC Rips\Vic Damone - That Towering Feeling! On the Swingin' Side (2000) [FLAC]\27 - Do I Love You (Because Your're Beautiful).wav

Pre-gap length 0:00:01.77

Peak level 94.3 %
Extraction speed 8.9 X
Track quality 100.0 %
Test CRC 51EC8012
Copy CRC 51EC8012
Accurately ripped (confidence 3) [CE5A32D7] (AR v2)
Copy OK

Track 28

Filename C:\EAC Rips\Vic Damone - That Towering Feeling! On the Swingin' Side (2000) [FLAC]\28 - An Affair To Remember.wav

Pre-gap length 0:00:01.64

Peak level 97.7 %
Extraction speed 9.3 X
Track quality 100.0 %
Test CRC 88C0E72E
Copy CRC 88C0E72E
Accurately ripped (confidence 3) [1FB9107A] (AR v2)
Copy OK

Track 29

Filename C:\EAC Rips\Vic Damone - That Towering Feeling! On the Swingin' Side (2000) [FLAC]\29 - Gigi.wav

Pre-gap length 0:00:02.00

Peak level 97.7 %
Extraction speed 9.5 X
Track quality 100.0 %
Test CRC 0AF0DA56
Copy CRC 0AF0DA56
Accurately ripped (confidence 3) [D7E0EFF6] (AR v2)
Copy OK


All tracks accurately ripped

No errors occurred

End of status report

–– CUETools DB Plugin V2.1.3

[CTDB TOCID: ZMDxMT0ATyfkaLtRs1lHFY3mzow-] found, Submit result: ZMDxMT0ATyfkaLtRs1lHFY3mzow- has been confirmed
[fe4467e1] (2/4) No match
[81e64078] (2/4) Accurately ripped


==== Log checksum 12CCA3644CD3882282BA76A98D2C04C5596A235D36F9E56EA855E9BCB6781063 ====

[CUETools log; Date: 13.02.2018 22:43:21; Version: 2.1.4]
[CTDB TOCID: ZMDxMT0ATyfkaLtRs1lHFY3mzow-] found.
Track | CTDB Status
1 | ( 6/10) Accurately ripped
2 | ( 6/10) Accurately ripped
3 | ( 6/10) Accurately ripped
4 | ( 6/10) Accurately ripped
5 | ( 6/10) Accurately ripped
6 | ( 6/10) Accurately ripped
7 | ( 6/10) Accurately ripped
8 | ( 6/10) Accurately ripped
9 | ( 6/10) Accurately ripped
10 | ( 6/10) Accurately ripped
11 | ( 6/10) Accurately ripped
12 | ( 6/10) Accurately ripped
13 | ( 6/10) Accurately ripped
14 | ( 6/10) Accurately ripped
15 | ( 6/10) Accurately ripped
16 | ( 6/10) Accurately ripped
17 | ( 6/10) Accurately ripped
18 | ( 6/10) Accurately ripped
19 | ( 6/10) Accurately ripped
20 | ( 6/10) Accurately ripped
21 | ( 6/10) Accurately ripped
22 | ( 6/10) Accurately ripped
23 | ( 6/10) Accurately ripped
24 | ( 6/10) Accurately ripped
25 | ( 6/10) Accurately ripped
26 | ( 6/10) Accurately ripped
27 | ( 6/10) Accurately ripped
28 | ( 6/10) Accurately ripped
29 | ( 6/10) Accurately ripped
[AccurateRip ID: 005402ca-06aadd93-d312611d] found.
Track [ CRC | V2 ] Status
01 [09980537|b5f0abb4] (2+3/5) Accurately ripped
02 [16930382|61467600] (2+3/5) Accurately ripped
03 [f9e57713|61eb6889] (2+3/5) Accurately ripped
04 [6204cef4|2fc2e867] (2+3/5) Accurately ripped
05 [0642ee51|b1918136] (2+3/5) Accurately ripped
06 [a5a636ac|7ff5409e] (2+3/5) Accurately ripped
07 [f0d4d920|3d92ad91] (2+3/5) Accurately ripped
08 [c897f8bf|8a554636] (2+3/5) Accurately ripped
09 [bec0bd12|464145c8] (2+3/5) Accurately ripped
10 [14cf8b06|89fba83e] (2+3/5) Accurately ripped
11 [4e5c823b|b2d98ba8] (2+3/5) Accurately ripped
12 [d8f71ed4|89274598] (2+3/5) Accurately ripped
13 [0ddc5fa9|d17937b8] (2+3/5) Accurately ripped
14 [11035e43|efeba8a9] (2+3/5) Accurately ripped
15 [85546516|aacee50b] (2+3/5) Accurately ripped
16 [28f30df6|bd94adaf] (0+3/3) Accurately ripped
17 [912a9529|25bf3fef] (2+3/5) Accurately ripped
18 [755a447e|d4eef82b] (2+3/5) Accurately ripped
19 [7d3710bc|4c90ac40] (2+3/5) Accurately ripped
20 [296fe1c7|3fbf594e] (2+3/5) Accurately ripped
21 [c090f646|657d55fb] (2+3/5) Accurately ripped
22 [b162d36b|7aed9d60] (2+3/5) Accurately ripped
23 [82e09a2d|5cddd06f] (2+3/5) Accurately ripped
24 [ddaef266|3bc157a7] (2+3/5) Accurately ripped
25 [3a9d072d|3ef778b5] (2+3/5) Accurately ripped
26 [1682ef0b|626650c3] (2+3/5) Accurately ripped
27 [21a7f088|ce5a32d7] (2+3/5) Accurately ripped
28 [daebddfa|1fb9107a] (0+3/3) Accurately ripped
29 [217c2187|d7e0eff6] (2+3/5) Accurately ripped

Track Peak [ CRC32 ] [W/O NULL] [ LOG ]
– 97,7 [404595F0] [79EA357D]
01 83,7 [488BFBD2] [A64785AE] CRC32
02 76,3 [2FB2CFDE] [CD9F372A] CRC32
03 88,2 [5E8582B6] [662B9929] CRC32
04 97,7 [9B856FA5] [F54CC9D0] CRC32
05 79,5 [A870341E] [26CE7E4D] CRC32
06 97,7 [3BC92EED] [E1572ECD] CRC32
07 92,1 [BFDBB746] [EAFF1484] CRC32
08 82,0 [C6B49BC2] [F4D33F56] CRC32
09 94,2 [69EDD1B6] [A73FA21D] CRC32
10 85,3 [4E104C8A] [ED0D1C0F] CRC32
11 97,7 [C59CACD9] [1E1815FF] CRC32
12 97,7 [AA6B9A6A] [61400AE0] CRC32
13 74,8 [904281AE] [6BEDBCA3] CRC32
14 77,9 [2CF52C92] [B0555F83] CRC32
15 79,0 [52A50228] [AC1A84E1] CRC32
16 90,5 [23832787] [ACE3C591] CRC32
17 76,4 [54C7A2A4] [C9F07A1C] CRC32
18 77,0 [29BE1353] [4D3EBFB2] CRC32
19 88,7 [627C85FC] [DF3C3072] CRC32
20 94,3 [F5316CF7] [648A5A33] CRC32
21 97,7 [9F48E302] [1E1CD43F] CRC32
22 97,7 [FA7AA313] [3A9CB32F] CRC32
23 82,2 [D6CA511B] [814FC35E] CRC32
24 82,6 [363779EE] [3DC9C756] CRC32
25 80,4 [6CFBB064] [12D2C595] CRC32
26 97,7 [DBADFC16] [67F833D9] CRC32
27 94,3 [51EC8012] [06CBD061] CRC32
28 97,7 [88C0E72E] [40498648] CRC32
29 97,7 [0AF0DA56] [96C1F7D6] CRC32

foobar2000 1.2 / Dynamic Range Meter 1.1.1
log date: 2018-02-13 22:40:39

––––––––––––––––––––––––––––––––––––––––
Analyzed: Vic Damone / That Towering Feeling! (1956) • On The Swingin' Side (1960)
––––––––––––––––––––––––––––––––––––––––

DR Peak RMS Duration Track
––––––––––––––––––––––––––––––––––––––––
DR10 -1.54 dB -14.19 dB 3:11 01-You Stepped Out Of A Dream
DR11 -2.34 dB -17.00 dB 3:21 02-Wait Till You See Her
DR11 -1.08 dB -15.66 dB 3:45 03-Out Of Nowhere
DR11 -0.20 dB -13.81 dB 2:22 04-The Song Is You
DR9 -1.99 dB -15.10 dB 3:32 05-Spring Is Here
DR11 -0.20 dB -13.04 dB 2:00 06-Lets Fall In Love
DR11 -0.71 dB -15.62 dB 3:51 07-(When Your Heart's On Fire) Smoke Gets In Your Eyes
DR10 -1.71 dB -13.70 dB 2:39 08-Time On My Hands (You In My Arms)
DR12 -0.51 dB -18.21 dB 2:42 09-I'm Glad There Is You
DR11 -1.38 dB -13.66 dB 2:26 10-The Touch Of Your Lips
DR11 -0.20 dB -14.20 dB 3:29 11-All The Things You Are
DR12 -0.20 dB -13.80 dB 2:30 12-Cheek To Cheek
DR9 -2.52 dB -13.87 dB 1:39 13-Falling In Love With Love
DR10 -2.17 dB -15.58 dB 2:58 14-It's All Right With Me
DR9 -2.05 dB -14.68 dB 2:53 15-When My Sugar Walks Down The Street (All The Little Birdies Go Tweet-Tweet-Tweet)
DR11 -0.86 dB -14.32 dB 3:14 16-Cry Me A River
DR10 -2.34 dB -14.92 dB 2:13 17-Home
DR10 -2.26 dB -14.99 dB 2:17 18-Swingin' Down The Lane
DR11 -1.04 dB -14.63 dB 2:21 19-I Cried For You
DR10 -0.51 dB -14.44 dB 2:21 20-Speak Low
DR11 -0.20 dB -13.22 dB 1:51 21-It's A Wonderful World
DR10 -0.20 dB -12.96 dB 2:23 22-Girl Of My Dreams
DR10 -1.70 dB -14.82 dB 2:11 23-Deep Purple
DR11 -1.66 dB -14.88 dB 2:03 24-Toot, Toot, Tootsie!
DR9 -1.89 dB -13.98 dB 2:45 25-On The Street Where You Live
DR11 -0.20 dB -14.42 dB 3:04 26-War And Peace
DR10 -0.50 dB -15.21 dB 2:35 27-Do I Love You (Because You're Beautiful)
DR10 -0.20 dB -12.07 dB 2:49 28-An Affair To Remember (Our Love Affair)
DR11 -0.20 dB -13.37 dB 3:03 29-Gigi
––––––––––––––––––––––––––––––––––––––––

Number of tracks: 29
Official DR value: DR10

Samplerate: 44100 Hz
Channels: 2
Bits per sample: 16
Bitrate: 775 kbps
Codec: FLAC
================================================================================




Vic Damone - Albums Collection 1956-1965 (5CD) 10 Classic Albums on 5CDs, Remastered Reissue 1997-2003

Vic Damone - Closer Than A Kiss (1959) + This Game Of Love (1959)
2 LP in 1 CD, Remastered Reissue 1997

EAC | FLAC | Tracks (Cue&Log) ~ 467 Mb | Mp3 (CBR320) ~ 192 Mb
Label: Columbia | # 487190 2 | 01:17:28 | Scans included

This pairing of two of Vic Damone's Columbia albums spotlights both his strengths and weaknesses as a performer. Closer Than a Kiss showcases Damone's beautiful yet somewhat emotionally empty voice on a respectable but ultimately dull collection of standards. This Game of Love, however, may just be the best album that the crooner ever cut. Damone recorded the session with a small but superb jazz group that gives diverse backings to a strong selection of ballads and rhythm tunes. You wouldn't think that Vic Damone, the world's whitest white man, could be capable of spinning off a vibrant version of Fats Waller's "Ain't Misbehavin'," but he does. Thankfully, Damone and his crew of crack jazz musicians are as good on the rest of the album's 11 selections. Closer Than a Kiss may be far from essential, but This Game of Love is so good that vocal pop fans will still want to add this two-for-one CD to their collections.

Nick Dedina, Allmusic.com

Tracklist:

Closer Than A Kiss (1959)

01. Closer Than A Kiss (3:14)
02. Out Of Nowhere (3:44)
03. I Kiss Your Hand, Madame (3:41)
04. We Kiss In A Shadow (4:04)
05. Cuddle Up A Little Closer (3:22)
06. A Toujours (2:43)
07. You And The Night And The Music (3:28)
08. Prelude To A Kiss (3:29)
09. How Deep Is The Ocean (4:04)
10. Day By Day (3:14)
11. As Time Goes By (3:39)
12. Close As Pages In A Book (3:14)

This Game Of Love (1959)

13. Alone Together (2:03)
14. My Romance (2:20)
15. Ain't Misbehavin' (4:49)
16. But Beaultiful (3:29)
17. The End Of A Love Affair (2:54)
18. The Things We Did Last Summer (2:52)
19. Am I Blue (2:26)
20. I'll Be Around (3:38)
21. It's A Lonesome Old Town (3:01)
22. Me And My Shadow (2:32)
23. I Like The Likes Of You (2:52)
24. A Fellow Needs A Girl (2:34)


Exact Audio Copy V1.0 beta 3 from 29. August 2011

EAC extraction logfile from 7. December 2014, 16:45

Vic Damone / Closer Than a Kiss / This Game of Love

Used drive : hp CDDVDW TS-H653R Adapter: 5 ID: 0

Read mode : Secure
Utilize accurate stream : Yes
Defeat audio cache : Yes
Make use of C2 pointers : No

Read offset correction : 6
Overread into Lead-In and Lead-Out : No
Fill up missing offset samples with silence : Yes
Delete leading and trailing silent blocks : No
Null samples used in CRC calculations : Yes
Used interface : Installed external ASPI interface
Gap handling : Appended to previous track

Used output format : User Defined Encoder
Selected bitrate : 1024 kBit/s
Quality : High
Add ID3 tag : No
Command line compressor : C:\Program Files\FLAC\flac.exe
Additional command line options : -8 -V -T "ARTIST=%artist%" -T "TITLE=%title%" -T "ALBUM=%albumtitle%" -T "DATE=%year%" -T "TRACKNUMBER=%tracknr1%" -T "GENRE=%genre%" -T "PERFORMER=%albuminterpret%" -T "COMPOSER=%composer%" %haslyrics%–tag-from-file=LYRICS="%lyricsfile%"%haslyrics% -T "ALBUMARTIST=%albumartist%" -T "DISCNUMBER=%cdnumber%" -T "TOTALDISCS=%totalcds%" -T "TOTALTRACKS=%numtracks%" -T "COMMENT=%comment%" %source% -o %dest%


TOC of the extracted CD

Track | Start | Length | Start sector | End sector
––––––––––––––––––––––––––––-
1 | 0:00.00 | 3:13.60 | 0 | 14534
2 | 3:13.60 | 3:44.25 | 14535 | 31359
3 | 6:58.10 | 3:41.17 | 31360 | 47951
4 | 10:39.27 | 4:03.60 | 47952 | 66236
5 | 14:43.12 | 3:22.05 | 66237 | 81391
6 | 18:05.17 | 2:42.73 | 81392 | 93614
7 | 20:48.15 | 3:28.10 | 93615 | 109224
8 | 24:16.25 | 3:29.07 | 109225 | 124906
9 | 27:45.32 | 4:04.23 | 124907 | 143229
10 | 31:49.55 | 3:13.55 | 143230 | 157759
11 | 35:03.35 | 3:38.57 | 157760 | 174166
12 | 38:42.17 | 3:14.33 | 174167 | 188749
13 | 41:56.50 | 2:02.57 | 188750 | 197956
14 | 43:59.32 | 2:20.35 | 197957 | 208491
15 | 46:19.67 | 4:49.13 | 208492 | 230179
16 | 51:09.05 | 3:28.72 | 230180 | 245851
17 | 54:38.02 | 2:53.50 | 245852 | 258876
18 | 57:31.52 | 2:52.33 | 258877 | 271809
19 | 60:24.10 | 2:26.35 | 271810 | 282794
20 | 62:50.45 | 3:38.35 | 282795 | 299179
21 | 66:29.05 | 3:01.02 | 299180 | 312756
22 | 69:30.07 | 2:32.00 | 312757 | 324156
23 | 72:02.07 | 2:51.68 | 324157 | 337049
24 | 74:54.00 | 2:34.12 | 337050 | 348611


Track 1

Filename C:\EAC Rips\Vic Damone - Closer Than a Kiss This Game of Love (1997) [FLAC]\01 - Closer than a kiss.wav

Pre-gap length 0:00:02.00

Peak level 95.5 %
Extraction speed 4.6 X
Track quality 100.0 %
Test CRC 659A8510
Copy CRC 659A8510
Accurately ripped (confidence 1) [93147CB0] (AR v2)
Copy OK

Track 2

Filename C:\EAC Rips\Vic Damone - Closer Than a Kiss This Game of Love (1997) [FLAC]\02 - Out of nowhere.wav

Pre-gap length 0:00:05.04

Peak level 79.0 %
Extraction speed 5.2 X
Track quality 100.0 %
Test CRC 76DDD269
Copy CRC 76DDD269
Accurately ripped (confidence 1) [675ACBDF] (AR v2)
Copy OK

Track 3

Filename C:\EAC Rips\Vic Damone - Closer Than a Kiss This Game of Love (1997) [FLAC]\03 - I kiss your hand, madame.wav

Pre-gap length 0:00:04.86

Peak level 91.9 %
Extraction speed 5.6 X
Track quality 100.0 %
Test CRC F44750B0
Copy CRC F44750B0
Accurately ripped (confidence 2) [DB07FB51] (AR v2)
Copy OK

Track 4

Filename C:\EAC Rips\Vic Damone - Closer Than a Kiss This Game of Love (1997) [FLAC]\04 - We kiss in a shadow.wav

Pre-gap length 0:00:04.89

Peak level 92.9 %
Extraction speed 6.0 X
Track quality 100.0 %
Test CRC C82C4128
Copy CRC C82C4128
Accurately ripped (confidence 2) [BAEF4C82] (AR v2)
Copy OK

Track 5

Filename C:\EAC Rips\Vic Damone - Closer Than a Kiss This Game of Love (1997) [FLAC]\05 - Cuddle up a little closer.wav

Pre-gap length 0:00:04.85

Peak level 91.5 %
Extraction speed 6.1 X
Track quality 100.0 %
Test CRC 0D87EA34
Copy CRC 0D87EA34
Accurately ripped (confidence 2) [F9D10AA1] (AR v2)
Copy OK

Track 6

Filename C:\EAC Rips\Vic Damone - Closer Than a Kiss This Game of Love (1997) [FLAC]\06 - A toujours.wav

Pre-gap length 0:00:05.01

Peak level 86.1 %
Extraction speed 4.4 X
Track quality 99.9 %
Test CRC EC009D3A
Copy CRC EC009D3A
Accurately ripped (confidence 2) [DEEFCC2C] (AR v2)
Copy OK

Track 7

Filename C:\EAC Rips\Vic Damone - Closer Than a Kiss This Game of Love (1997) [FLAC]\07 - You and the night and the music.wav

Pre-gap length 0:00:03.96

Peak level 93.4 %
Extraction speed 5.1 X
Track quality 99.9 %
Test CRC B0996F7C
Copy CRC B0996F7C
Accurately ripped (confidence 2) [E5D4AD91] (AR v2)
Copy OK

Track 8

Filename C:\EAC Rips\Vic Damone - Closer Than a Kiss This Game of Love (1997) [FLAC]\08 - Prelude to a kiss.wav

Pre-gap length 0:00:04.85

Peak level 87.0 %
Extraction speed 6.9 X
Track quality 100.0 %
Test CRC F74B52EF
Copy CRC F74B52EF
Accurately ripped (confidence 2) [6D15D0AB] (AR v2)
Copy OK

Track 9

Filename C:\EAC Rips\Vic Damone - Closer Than a Kiss This Game of Love (1997) [FLAC]\09 - How deep is the ocean.wav

Pre-gap length 0:00:04.69

Peak level 90.4 %
Extraction speed 7.3 X
Track quality 100.0 %
Test CRC 130B7CAB
Copy CRC 130B7CAB
Accurately ripped (confidence 2) [3BD0A760] (AR v2)
Copy OK

Track 10

Filename C:\EAC Rips\Vic Damone - Closer Than a Kiss This Game of Love (1997) [FLAC]\10 - Day by day.wav

Pre-gap length 0:00:04.98

Peak level 85.9 %
Extraction speed 7.3 X
Track quality 100.0 %
Test CRC A0CC2F4B
Copy CRC A0CC2F4B
Accurately ripped (confidence 2) [AAB9A1A4] (AR v2)
Copy OK

Track 11

Filename C:\EAC Rips\Vic Damone - Closer Than a Kiss This Game of Love (1997) [FLAC]\11 - As time goes by.wav

Pre-gap length 0:00:04.74

Peak level 91.8 %
Extraction speed 6.0 X
Track quality 99.9 %
Test CRC 6EAE7CD3
Copy CRC 6EAE7CD3
Accurately ripped (confidence 2) [48FB8D27] (AR v2)
Copy OK

Track 12

Filename C:\EAC Rips\Vic Damone - Closer Than a Kiss This Game of Love (1997) [FLAC]\12 - Close as pages in a book.wav

Pre-gap length 0:00:04.93

Peak level 83.4 %
Extraction speed 7.7 X
Track quality 100.0 %
Test CRC 05D9DFAA
Copy CRC 05D9DFAA
Accurately ripped (confidence 2) [D8B5705D] (AR v2)
Copy OK

Track 13

Filename C:\EAC Rips\Vic Damone - Closer Than a Kiss This Game of Love (1997) [FLAC]\13 - Alone together.wav

Pre-gap length 0:00:01.45

Peak level 100.0 %
Extraction speed 7.2 X
Track quality 100.0 %
Test CRC 2C6FF799
Copy CRC 2C6FF799
Accurately ripped (confidence 2) [5119EF65] (AR v2)
Copy OK

Track 14

Filename C:\EAC Rips\Vic Damone - Closer Than a Kiss This Game of Love (1997) [FLAC]\14 - My romance.wav

Pre-gap length 0:00:03.74

Peak level 85.0 %
Extraction speed 7.6 X
Track quality 100.0 %
Test CRC 3F540F8F
Copy CRC 3F540F8F
Accurately ripped (confidence 2) [98CE271B] (AR v2)
Copy OK

Track 15

Filename C:\EAC Rips\Vic Damone - Closer Than a Kiss This Game of Love (1997) [FLAC]\15 - Ain´t Misbehavin.wav

Pre-gap length 0:00:04.09

Peak level 88.7 %
Extraction speed 7.0 X
Track quality 99.9 %
Test CRC 1DDCE6F2
Copy CRC 1DDCE6F2
Accurately ripped (confidence 2) [65412F64] (AR v2)
Copy OK

Track 16

Filename C:\EAC Rips\Vic Damone - Closer Than a Kiss This Game of Love (1997) [FLAC]\16 - But beaultiful.wav

Pre-gap length 0:00:03.84

Peak level 100.0 %
Extraction speed 8.6 X
Track quality 100.0 %
Test CRC 581C0DB1
Copy CRC 581C0DB1
Accurately ripped (confidence 2) [AF1973C2] (AR v2)
Copy OK

Track 17

Filename C:\EAC Rips\Vic Damone - Closer Than a Kiss This Game of Love (1997) [FLAC]\17 - The end of a love affair.wav

Pre-gap length 0:00:03.69

Peak level 100.0 %
Extraction speed 8.4 X
Track quality 100.0 %
Test CRC A6AAD5F8
Copy CRC A6AAD5F8
Accurately ripped (confidence 2) [E25CB5DD] (AR v2)
Copy OK

Track 18

Filename C:\EAC Rips\Vic Damone - Closer Than a Kiss This Game of Love (1997) [FLAC]\18 - The things we did last summer.wav

Pre-gap length 0:00:03.85

Peak level 80.8 %
Extraction speed 8.7 X
Track quality 100.0 %
Test CRC 7B6D14E8
Copy CRC 7B6D14E8
Accurately ripped (confidence 2) [A59DECF1] (AR v2)
Copy OK

Track 19

Filename C:\EAC Rips\Vic Damone - Closer Than a Kiss This Game of Love (1997) [FLAC]\19 - Am I blue.wav

Pre-gap length 0:00:02.96

Peak level 94.5 %
Extraction speed 8.5 X
Track quality 100.0 %
Test CRC D08C6AF3
Copy CRC D08C6AF3
Accurately ripped (confidence 2) [5EAEC7F7] (AR v2)
Copy OK

Track 20

Filename C:\EAC Rips\Vic Damone - Closer Than a Kiss This Game of Love (1997) [FLAC]\20 - I´ll be around.wav

Pre-gap length 0:00:03.74

Peak level 95.1 %
Extraction speed 7.0 X
Track quality 99.9 %
Test CRC 31464B2A
Copy CRC 31464B2A
Accurately ripped (confidence 2) [76A45020] (AR v2)
Copy OK

Track 21

Filename C:\EAC Rips\Vic Damone - Closer Than a Kiss This Game of Love (1997) [FLAC]\21 - It´s a lonesome old town.wav

Pre-gap length 0:00:04.10

Peak level 86.0 %
Extraction speed 9.1 X
Track quality 100.0 %
Test CRC 8D5A23A3
Copy CRC 8D5A23A3
Accurately ripped (confidence 2) [C6484D04] (AR v2)
Copy OK

Track 22

Filename C:\EAC Rips\Vic Damone - Closer Than a Kiss This Game of Love (1997) [FLAC]\22 - Me and my shadow.wav

Pre-gap length 0:00:04.02

Peak level 100.0 %
Extraction speed 9.0 X
Track quality 100.0 %
Test CRC E697FF78
Copy CRC E697FF78
Accurately ripped (confidence 2) [85C129BF] (AR v2)
Copy OK

Track 23

Filename C:\EAC Rips\Vic Damone - Closer Than a Kiss This Game of Love (1997) [FLAC]\23 - I like the likes of you.wav

Pre-gap length 0:00:04.16

Peak level 100.0 %
Extraction speed 9.2 X
Track quality 100.0 %
Test CRC 3B78D1CF
Copy CRC 3B78D1CF
Accurately ripped (confidence 2) [87420F7D] (AR v2)
Copy OK

Track 24

Filename C:\EAC Rips\Vic Damone - Closer Than a Kiss This Game of Love (1997) [FLAC]\24 - A fellow needs a girl.wav

Pre-gap length 0:00:03.97

Peak level 95.2 %
Extraction speed 9.3 X
Track quality 100.0 %
Test CRC F227B415
Copy CRC F227B415
Accurately ripped (confidence 2) [5EBE0E90] (AR v2)
Copy OK


All tracks accurately ripped

No errors occurred

End of status report

–– CUETools DB Plugin V2.1.3

[CTDB TOCID: lRms7mQT7fePHPBopRjcdeg73HY-] disk not present in database, Submit result: lRms7mQT7fePHPBopRjcdeg73HY- has been uploaded


==== Log checksum 5821E315EDD4EA4F22563F331A1EB3DADA2969F4D60761C0D6DEA2460EC7AC47 ====

[CUETools log; Date: 13.02.2018 22:42:44; Version: 2.1.4]
[CTDB TOCID: lRms7mQT7fePHPBopRjcdeg73HY-] found.
Track | CTDB Status
1 | (1/1) Accurately ripped
2 | (1/1) Accurately ripped
3 | (1/1) Accurately ripped
4 | (1/1) Accurately ripped
5 | (1/1) Accurately ripped
6 | (1/1) Accurately ripped
7 | (1/1) Accurately ripped
8 | (1/1) Accurately ripped
9 | (1/1) Accurately ripped
10 | (1/1) Accurately ripped
11 | (1/1) Accurately ripped
12 | (1/1) Accurately ripped
13 | (1/1) Accurately ripped
14 | (1/1) Accurately ripped
15 | (1/1) Accurately ripped
16 | (1/1) Accurately ripped
17 | (1/1) Accurately ripped
18 | (1/1) Accurately ripped
19 | (1/1) Accurately ripped
20 | (1/1) Accurately ripped
21 | (1/1) Accurately ripped
22 | (1/1) Accurately ripped
23 | (1/1) Accurately ripped
24 | (1/1) Accurately ripped
[AccurateRip ID: 004570c1-04a8afe5-57122818] found.
Track [ CRC | V2 ] Status
01 [bc6b0360|93147cb0] (1+1/3) Accurately ripped
02 [148f3fe0|675acbdf] (1+1/3) Accurately ripped
03 [c4291f09|db07fb51] (0+2/2) Accurately ripped
04 [93c1c295|baef4c82] (0+2/2) Accurately ripped
05 [cb588ab4|f9d10aa1] (0+2/2) Accurately ripped
06 [b765f303|deefcc2c] (0+2/2) Accurately ripped
07 [4c4011ef|e5d4ad91] (0+2/2) Accurately ripped
08 [c05a1401|6d15d0ab] (0+2/2) Accurately ripped
09 [63219158|3bd0a760] (0+2/2) Accurately ripped
10 [30e606ba|aab9a1a4] (0+2/2) Accurately ripped
11 [4a01a917|48fb8d27] (0+2/2) Accurately ripped
12 [25b5db35|d8b5705d] (0+2/2) Accurately ripped
13 [456722e6|5119ef65] (0+2/2) Accurately ripped
14 [40f1b8f5|98ce271b] (0+2/2) Accurately ripped
15 [b14166cb|65412f64] (0+2/2) Accurately ripped
16 [aae11300|af1973c2] (0+2/2) Accurately ripped
17 [d1be9093|e25cb5dd] (0+2/2) Accurately ripped
18 [937fffac|a59decf1] (0+2/2) Accurately ripped
19 [b88dbce5|5eaec7f7] (0+2/2) Accurately ripped
20 [f0baa0f0|76a45020] (0+2/2) Accurately ripped
21 [58d09f4e|c6484d04] (0+2/2) Accurately ripped
22 [0d25a015|85c129bf] (0+2/2) Accurately ripped
23 [79c89fa3|87420f7d] (0+2/2) Accurately ripped
24 [13259064|5ebe0e90] (0+2/2) Accurately ripped

Track Peak [ CRC32 ] [W/O NULL] [ LOG ]
– 100,0 [CA64ACE9] [4411D38E]
01 95,5 [659A8510] [0C03FEC5] CRC32
02 79,0 [76DDD269] [92A66AFC] CRC32
03 91,9 [F44750B0] [7C9CA323] CRC32
04 92,9 [C82C4128] [26CC82EE] CRC32
05 91,5 [0D87EA34] [608ABFF9] CRC32
06 86,1 [EC009D3A] [99EA5B08] CRC32
07 93,4 [B0996F7C] [531831CE] CRC32
08 87,0 [F74B52EF] [2943C23F] CRC32
09 90,4 [130B7CAB] [6D57CD8A] CRC32
10 85,9 [A0CC2F4B] [A2D620AE] CRC32
11 91,8 [6EAE7CD3] [414391B2] CRC32
12 83,4 [05D9DFAA] [9445E032] CRC32
13 100,0 [2C6FF799] [9B3AA9BA] CRC32
14 85,0 [3F540F8F] [81A39D9B] CRC32
15 88,7 [1DDCE6F2] [3F470F32] CRC32
16 100,0 [581C0DB1] [FC31BD54] CRC32
17 100,0 [A6AAD5F8] [E13A4BE5] CRC32
18 80,8 [7B6D14E8] [E4473255] CRC32
19 94,5 [D08C6AF3] [B8691300] CRC32
20 95,1 [31464B2A] [EB4B3946] CRC32
21 86,0 [8D5A23A3] [658E0658] CRC32
22 100,0 [E697FF78] [9C2487E5] CRC32
23 100,0 [3B78D1CF] [56DC54A9] CRC32
24 95,2 [F227B415] [35969F06] CRC32

foobar2000 1.2 / Dynamic Range Meter 1.1.1
log date: 2018-02-13 22:50:26

––––––––––––––––––––––––––––––––––––––––
Analyzed: Vic Damone / Closer Than A Kiss (1959) • This Game Of Love (1959)
––––––––––––––––––––––––––––––––––––––––

DR Peak RMS Duration Track
––––––––––––––––––––––––––––––––––––––––
DR11 -0.40 dB -15.84 dB 3:14 01-Closer Than A Kiss
DR10 -2.04 dB -15.52 dB 3:44 02-Out Of Nowhere
DR12 -0.73 dB -16.33 dB 3:41 03-I Kiss Your Hand, Madame
DR11 -0.64 dB -16.07 dB 4:04 04-We Kiss In A Shadow
DR12 -0.76 dB -16.43 dB 3:22 05-Cuddle Up A Little Closer
DR11 -1.30 dB -16.73 dB 2:43 06-A Toujours
DR11 -0.59 dB -15.70 dB 3:28 07-You And The Night And The Music
DR14 -1.21 dB -19.05 dB 3:29 08-Prelude To A Kiss
DR11 -0.87 dB -16.86 dB 4:04 09-How Deep Is The Ocean
DR12 -1.31 dB -17.65 dB 3:14 10-Day By Day
DR12 -0.74 dB -16.31 dB 3:39 11-As Time Goes By
DR11 -1.57 dB -16.71 dB 3:14 12-Close As Pages In A Book
DR12 0.00 dB -15.67 dB 2:03 13-Alone Together
DR11 -1.40 dB -16.74 dB 2:20 14-My Romance
DR11 -1.04 dB -16.07 dB 4:49 15-Ain't Misbehavin'
DR13 0.00 dB -17.70 dB 3:29 16-But Beaultiful
DR12 0.00 dB -15.50 dB 2:54 17-The End Of A Love Affair
DR12 -1.85 dB -17.70 dB 2:52 18-The Things We Did Last Summer
DR11 -0.49 dB -14.36 dB 2:26 19-Am I Blue
DR12 -0.43 dB -16.74 dB 3:38 20-I'll Be Around
DR12 -1.30 dB -16.55 dB 3:01 21-It's A Lonesome Old Town
DR11 0.00 dB -14.22 dB 2:32 22-Me And My Shadow
DR12 0.00 dB -14.55 dB 2:52 23-I Like The Likes Of You
DR13 -0.43 dB -16.87 dB 2:34 24-A Fellow Needs A Girl
––––––––––––––––––––––––––––––––––––––––

Number of tracks: 24
Official DR value: DR12

Samplerate: 44100 Hz
Channels: 2
Bits per sample: 16
Bitrate: 808 kbps
Codec: FLAC
================================================================================




Vic Damone - Albums Collection 1956-1965 (5CD) 10 Classic Albums on 5CDs, Remastered Reissue 1997-2003

Vic Damone - Linger Awhile With… (1962) + My Baby Loves To Swing (1963)
2 LP in 1 CD, Remastered Reissue 1997

EAC | FLAC | Tracks (Cue&Log) ~ 362 Mb | Mp3 (CBR320) ~ 149 Mb
Label: Capitol/EMI | # 7243 8 59957 2 9 | 00:57:46 | Scans included

Vic Damone had a relatively good career while at Columbia Records in the 1950s and he even had his fair share of chart successes. But he always seemed to be on the verge of being a major star without ever actually becoming one. While Columbia was geared toward trying to get artists hit singles, Capitol Records concentrated more on having its roster attempt to cut hit albums. Kids buy singles and adults buy albums and kids were getting into rock & roll, so Damone made the jump to Capitol in 1962 in hopes of getting the same upscale action that Frank Sinatra and Nat King Cole enjoyed. While he didn't earn major sales while at the label, Damone did release a string of good albums while at Capitol and this CD features two of his best. Both albums feature energetic, jazz-flavored, medium-tempo swing arrangements by Jack Marshall. Linger Awhile With Vic Damone is high-class makeout music that uses the Sinatra/Riddle "heartbeat rhythm" sound as its starting point. Damone often sounded relaxed, but on this session, he's relaxed and swinging. My Baby Loves to Swing uses the same approach with songs that have "baby" in the title with "Alright, OK, You Win" blindly thrown into the mix – at least it's a good rhythm tune. Vic Damone's sessions are always good but they can be a little lifeless, so these two bright, breezy albums are great to have on one CD.

Nick Dedina, Allmusic.com

Tracklist:

Linger Awhile With… (1962)

01. Linger Awhile (2:00)
02. Close Your Eyes (2:09)
03. Stella By Starlight (2:04)
04. Change Partners (2:29)
05. After The Lights Go Down (2:24)
06. Let's Face The Music And Dance (2:25)
07. Soft Lights And Sweet Music (2:08)
08. Deep Night (2:59)
09. One Love (2:07)
10. There! I've Said It Again (3:04)
11. When Lights Are Low (2:22)
12. In The Still Of The Night (2:25)

My Baby Loves To Swing (1963)

13. I'm Nobody's Baby (2:18)
14. Everybody Loves My Baby (2:27)
15. You Must Have Been A Beautiful Baby (1:48)
16. Alright, Okay, You Win (2:26)
17. My Melancholy Baby (2:25)
18. Let's Sit This One Out (3:09)
19. My Baby Loves To Swing (2:52)
20. My Baby Just Cares For Me (2:11)
21. Is You Is, Or Is You Ain't (2:14)
22. Baby, Baby All The Time (2:32)
23. Baby Won't You Please Come Home (1:57)
24. Make This A Slow Goodbye (2:49)


Exact Audio Copy V1.0 beta 3 from 29. August 2011

EAC extraction logfile from 7. December 2014, 18:18

Vic Damone / Linger Awhile With… / My Baby Loves To Swing

Used drive : hp CDDVDW TS-H653R Adapter: 5 ID: 0

Read mode : Secure
Utilize accurate stream : Yes
Defeat audio cache : Yes
Make use of C2 pointers : No

Read offset correction : 6
Overread into Lead-In and Lead-Out : No
Fill up missing offset samples with silence : Yes
Delete leading and trailing silent blocks : No
Null samples used in CRC calculations : Yes
Used interface : Installed external ASPI interface
Gap handling : Appended to previous track

Used output format : User Defined Encoder
Selected bitrate : 1024 kBit/s
Quality : High
Add ID3 tag : No
Command line compressor : C:\Program Files\FLAC\flac.exe
Additional command line options : -8 -V -T "ARTIST=%artist%" -T "TITLE=%title%" -T "ALBUM=%albumtitle%" -T "DATE=%year%" -T "TRACKNUMBER=%tracknr1%" -T "GENRE=%genre%" -T "PERFORMER=%albuminterpret%" -T "COMPOSER=%composer%" %haslyrics%–tag-from-file=LYRICS="%lyricsfile%"%haslyrics% -T "ALBUMARTIST=%albumartist%" -T "DISCNUMBER=%cdnumber%" -T "TOTALDISCS=%totalcds%" -T "TOTALTRACKS=%numtracks%" -T "COMMENT=%comment%" %source% -o %dest%


TOC of the extracted CD

Track | Start | Length | Start sector | End sector
––––––––––––––––––––––––––––-
1 | 0:00.00 | 1:59.72 | 0 | 8996
2 | 1:59.72 | 2:09.00 | 8997 | 18671
3 | 4:08.72 | 2:03.58 | 18672 | 27954
4 | 6:12.55 | 2:28.65 | 27955 | 39119
5 | 8:41.45 | 2:24.15 | 39120 | 49934
6 | 11:05.60 | 2:25.30 | 49935 | 60839
7 | 13:31.15 | 2:08.35 | 60840 | 70474
8 | 15:39.50 | 2:59.32 | 70475 | 83931
9 | 18:39.07 | 2:07.10 | 83932 | 93466
10 | 20:46.17 | 3:04.33 | 93467 | 107299
11 | 23:50.50 | 2:21.57 | 107300 | 117931
12 | 26:12.32 | 2:24.38 | 117932 | 128769
13 | 28:36.70 | 2:18.12 | 128770 | 139131
14 | 30:55.07 | 2:26.53 | 139132 | 150134
15 | 33:21.60 | 1:48.10 | 150135 | 158244
16 | 35:09.70 | 2:25.50 | 158245 | 169169
17 | 37:35.45 | 2:24.50 | 169170 | 180019
18 | 40:00.20 | 3:09.12 | 180020 | 194206
19 | 43:09.32 | 2:52.33 | 194207 | 207139
20 | 46:01.65 | 2:11.02 | 207140 | 216966
21 | 48:12.67 | 2:13.58 | 216967 | 226999
22 | 50:26.50 | 2:32.30 | 227000 | 238429
23 | 52:59.05 | 1:57.35 | 238430 | 247239
24 | 54:56.40 | 2:49.12 | 247240 | 259926


Track 1

Filename C:\EAC Rips\Vic Damone - Linger Awhile With… - My Baby Loves to Swing (1997) [FLAC]\01 - Linger Awhile.wav

Pre-gap length 0:00:02.00

Peak level 88.2 %
Extraction speed 3.9 X
Track quality 100.0 %
Test CRC E4540A88
Copy CRC E4540A88
Accurately ripped (confidence 1) [DF466186] (AR v2)
Copy OK

Track 2

Filename C:\EAC Rips\Vic Damone - Linger Awhile With… - My Baby Loves to Swing (1997) [FLAC]\02 - Close Your Eyes.wav

Pre-gap length 0:00:01.56

Peak level 97.9 %
Extraction speed 4.2 X
Track quality 100.0 %
Test CRC 46DA2A7E
Copy CRC 46DA2A7E
Accurately ripped (confidence 1) [29369876] (AR v2)
Copy OK

Track 3

Filename C:\EAC Rips\Vic Damone - Linger Awhile With… - My Baby Loves to Swing (1997) [FLAC]\03 - Stella By Starlight.wav

Pre-gap length 0:00:02.33

Peak level 98.0 %
Extraction speed 4.4 X
Track quality 100.0 %
Test CRC C86EBA1F
Copy CRC C86EBA1F
Accurately ripped (confidence 1) [9FB79393] (AR v2)
Copy OK

Track 4

Filename C:\EAC Rips\Vic Damone - Linger Awhile With… - My Baby Loves to Swing (1997) [FLAC]\04 - Change Partners.wav

Pre-gap length 0:00:02.13

Peak level 94.9 %
Extraction speed 4.9 X
Track quality 100.0 %
Test CRC BB0EA5CA
Copy CRC BB0EA5CA
Accurately ripped (confidence 1) [CBD0AA2E] (AR v2)
Copy OK

Track 5

Filename C:\EAC Rips\Vic Damone - Linger Awhile With… - My Baby Loves to Swing (1997) [FLAC]\05 - After The Lights Go Down.wav

Pre-gap length 0:00:01.97

Peak level 98.5 %
Extraction speed 5.1 X
Track quality 100.0 %
Test CRC D3128E99
Copy CRC D3128E99
Accurately ripped (confidence 1) [E74EBB2A] (AR v2)
Copy OK

Track 6

Filename C:\EAC Rips\Vic Damone - Linger Awhile With… - My Baby Loves to Swing (1997) [FLAC]\06 - Let's Face The Music And Dance.wav

Pre-gap length 0:00:02.66

Peak level 97.9 %
Extraction speed 3.8 X
Track quality 99.9 %
Test CRC D211E21E
Copy CRC D211E21E
Accurately ripped (confidence 1) [196230FD] (AR v2)
Copy OK

Track 7

Filename C:\EAC Rips\Vic Damone - Linger Awhile With… - My Baby Loves to Swing (1997) [FLAC]\07 - Soft Lights And Sweet Music.wav

Pre-gap length 0:00:02.44

Peak level 97.9 %
Extraction speed 3.7 X
Track quality 99.9 %
Test CRC EE87EF86
Copy CRC EE87EF86
Accurately ripped (confidence 1) [34E4C239] (AR v2)
Copy OK

Track 8

Filename C:\EAC Rips\Vic Damone - Linger Awhile With… - My Baby Loves to Swing (1997) [FLAC]\08 - Deep Night.wav

Pre-gap length 0:00:01.97

Peak level 91.9 %
Extraction speed 6.1 X
Track quality 100.0 %
Test CRC 867600EF
Copy CRC 867600EF
Accurately ripped (confidence 1) [8A225F36] (AR v2)
Copy OK

Track 9

Filename C:\EAC Rips\Vic Damone - Linger Awhile With… - My Baby Loves to Swing (1997) [FLAC]\09 - One Love.wav

Pre-gap length 0:00:02.56

Peak level 87.9 %
Extraction speed 3.9 X
Track quality 99.9 %
Test CRC 9BFC2492
Copy CRC 9BFC2492
Accurately ripped (confidence 1) [1BD70A80] (AR v2)
Copy OK

Track 10

Filename C:\EAC Rips\Vic Damone - Linger Awhile With… - My Baby Loves to Swing (1997) [FLAC]\10 - There! I've Said It Again.wav

Pre-gap length 0:00:01.76

Peak level 79.9 %
Extraction speed 6.4 X
Track quality 100.0 %
Test CRC E4C206E3
Copy CRC E4C206E3
Accurately ripped (confidence 1) [22DA4953] (AR v2)
Copy OK

Track 11

Filename C:\EAC Rips\Vic Damone - Linger Awhile With… - My Baby Loves to Swing (1997) [FLAC]\11 - When Lights Are Low.wav

Pre-gap length 0:00:02.24

Peak level 88.7 %
Extraction speed 4.4 X
Track quality 99.9 %
Test CRC BBF1874F
Copy CRC BBF1874F
Accurately ripped (confidence 1) [96C90167] (AR v2)
Copy OK

Track 12

Filename C:\EAC Rips\Vic Damone - Linger Awhile With… - My Baby Loves to Swing (1997) [FLAC]\12 - In The Still Of The Night.wav

Pre-gap length 0:00:02.33

Peak level 84.6 %
Extraction speed 6.5 X
Track quality 100.0 %
Test CRC EC01CBE9
Copy CRC EC01CBE9
Accurately ripped (confidence 1) [C17A9C81] (AR v2)
Copy OK

Track 13

Filename C:\EAC Rips\Vic Damone - Linger Awhile With… - My Baby Loves to Swing (1997) [FLAC]\13 - I'm Nobody's Baby.wav

Pre-gap length 0:00:02.50

Peak level 98.4 %
Extraction speed 6.4 X
Track quality 100.0 %
Test CRC 20012D2D
Copy CRC 20012D2D
Accurately ripped (confidence 1) [0C82459B] (AR v2)
Copy OK

Track 14

Filename C:\EAC Rips\Vic Damone - Linger Awhile With… - My Baby Loves to Swing (1997) [FLAC]\14 - Everybody Loves My Baby.wav

Pre-gap length 0:00:01.76

Peak level 92.1 %
Extraction speed 4.8 X
Track quality 99.9 %
Test CRC FD7BA6F8
Copy CRC FD7BA6F8
Accurately ripped (confidence 1) [9557C4B3] (AR v2)
Copy OK

Track 15

Filename C:\EAC Rips\Vic Damone - Linger Awhile With… - My Baby Loves to Swing (1997) [FLAC]\15 - You Must Have Been A Beautiful Baby.wav

Pre-gap length 0:00:01.86

Peak level 97.9 %
Extraction speed 6.1 X
Track quality 100.0 %
Test CRC 224BED3E
Copy CRC 224BED3E
Accurately ripped (confidence 1) [BF48E5C6] (AR v2)
Copy OK

Track 16

Filename C:\EAC Rips\Vic Damone - Linger Awhile With… - My Baby Loves to Swing (1997) [FLAC]\16 - Alright, Okay, You Win.wav

Pre-gap length 0:00:02.00

Peak level 97.9 %
Extraction speed 7.0 X
Track quality 100.0 %
Test CRC 08CA5F73
Copy CRC 08CA5F73
Accurately ripped (confidence 1) [66577C31] (AR v2)
Copy OK

Track 17

Filename C:\EAC Rips\Vic Damone - Linger Awhile With… - My Baby Loves to Swing (1997) [FLAC]\17 - My Melancholy Baby.wav

Pre-gap length 0:00:02.04

Peak level 88.6 %
Extraction speed 7.3 X
Track quality 100.0 %
Test CRC 1D314CAE
Copy CRC 1D314CAE
Accurately ripped (confidence 1) [B7816831] (AR v2)
Copy OK

Track 18

Filename C:\EAC Rips\Vic Damone - Linger Awhile With… - My Baby Loves to Swing (1997) [FLAC]\18 - Let's Sit This One Out.wav

Pre-gap length 0:00:02.10

Peak level 92.7 %
Extraction speed 7.5 X
Track quality 100.0 %
Test CRC 83954BD7
Copy CRC 83954BD7
Accurately ripped (confidence 1) [574F5B54] (AR v2)
Copy OK

Track 19

Filename C:\EAC Rips\Vic Damone - Linger Awhile With… - My Baby Loves to Swing (1997) [FLAC]\19 - My Baby Loves To Swing.wav

Pre-gap length 0:00:02.16

Peak level 98.0 %
Extraction speed 7.8 X
Track quality 100.0 %
Test CRC D78B09C3
Copy CRC D78B09C3
Accurately ripped (confidence 1) [AFCBBA86] (AR v2)
Copy OK

Track 20

Filename C:\EAC Rips\Vic Damone - Linger Awhile With… - My Baby Loves to Swing (1997) [FLAC]\20 - My Baby Just Cares For Me.wav

Pre-gap length 0:00:01.97

Peak level 97.8 %
Extraction speed 7.3 X
Track quality 100.0 %
Test CRC DECD9A31
Copy CRC DECD9A31
Accurately ripped (confidence 1) [CBF7CB14] (AR v2)
Copy OK

Track 21

Filename C:\EAC Rips\Vic Damone - Linger Awhile With… - My Baby Loves to Swing (1997) [FLAC]\21 - Is You Is or Is You Ain't.wav

Pre-gap length 0:00:02.00

Peak level 97.6 %
Extraction speed 5.1 X
Track quality 99.9 %
Test CRC 911892DA
Copy CRC 911892DA
Accurately ripped (confidence 1) [0F796B71] (AR v2)
Copy OK

Track 22

Filename C:\EAC Rips\Vic Damone - Linger Awhile With… - My Baby Loves to Swing (1997) [FLAC]\22 - Baby, Baby All The Time.wav

Pre-gap length 0:00:01.90

Peak level 87.9 %
Extraction speed 5.7 X
Track quality 99.9 %
Test CRC 2F0C7529
Copy CRC 2F0C7529
Accurately ripped (confidence 1) [BA6D9A96] (AR v2)
Copy OK

Track 23

Filename C:\EAC Rips\Vic Damone - Linger Awhile With… - My Baby Loves to Swing (1997) [FLAC]\23 - Baby Won't You Please Come Home.wav

Pre-gap length 0:00:01.97

Peak level 95.3 %
Extraction speed 7.7 X
Track quality 100.0 %
Test CRC 8554C9EE
Copy CRC 8554C9EE
Accurately ripped (confidence 1) [A6A2C31B] (AR v2)
Copy OK

Track 24

Filename C:\EAC Rips\Vic Damone - Linger Awhile With… - My Baby Loves to Swing (1997) [FLAC]\24 - Make This A Slow Goodbye.wav

Pre-gap length 0:00:01.33

Peak level 91.5 %
Extraction speed 8.5 X
Track quality 100.0 %
Test CRC 833B33CC
Copy CRC 833B33CC
Accurately ripped (confidence 1) [A6D2ADEB] (AR v2)
Copy OK


All tracks accurately ripped

No errors occurred

End of status report

–– CUETools DB Plugin V2.1.3

[CTDB TOCID: K.AAiPFQHvDrUBa28b.qRVbLLnY-] disk not present in database, Submit result: K.AAiPFQHvDrUBa28b.qRVbLLnY- has been uploaded


==== Log checksum 3CDFABCD026967D1204D0866AA98666B6DE43ABD93E51AFA57F15832D5A76EA1 ====

[CUETools log; Date: 13.02.2018 22:43:00; Version: 2.1.4]
[CTDB TOCID: K.AAiPFQHvDrUBa28b.qRVbLLnY-] found.
Track | CTDB Status
1 | (3/3) Accurately ripped
2 | (3/3) Accurately ripped
3 | (3/3) Accurately ripped
4 | (3/3) Accurately ripped
5 | (3/3) Accurately ripped
6 | (3/3) Accurately ripped
7 | (3/3) Accurately ripped
8 | (3/3) Accurately ripped
9 | (3/3) Accurately ripped
10 | (3/3) Accurately ripped
11 | (3/3) Accurately ripped
12 | (3/3) Accurately ripped
13 | (3/3) Accurately ripped
14 | (3/3) Accurately ripped
15 | (3/3) Accurately ripped
16 | (3/3) Accurately ripped
17 | (3/3) Accurately ripped
18 | (3/3) Accurately ripped
19 | (3/3) Accurately ripped
20 | (3/3) Accurately ripped
21 | (3/3) Accurately ripped
22 | (3/3) Accurately ripped
23 | (3/3) Accurately ripped
24 | (3/3) Accurately ripped
[AccurateRip ID: 0030c080-0353179d-340d8918] found.
Track [ CRC | V2 ] Status
01 [b51c77bd|df466186] (0+3/3) Accurately ripped
02 [3493df5a|29369876] (0+3/3) Accurately ripped
03 [f354ff31|9fb79393] (0+3/3) Accurately ripped
04 [08ce73f6|cbd0aa2e] (0+3/3) Accurately ripped
05 [4f87b201|e74ebb2a] (0+3/3) Accurately ripped
06 [72b284b3|196230fd] (0+3/3) Accurately ripped
07 [2be194b6|34e4c239] (0+3/3) Accurately ripped
08 [c894b544|8a225f36] (0+3/3) Accurately ripped
09 [b8893c30|1bd70a80] (0+3/3) Accurately ripped
10 [d98f4c33|22da4953] (0+3/3) Accurately ripped
11 [1dfb82e4|96c90167] (0+3/3) Accurately ripped
12 [263c9128|c17a9c81] (0+3/3) Accurately ripped
13 [1b2e5ebd|0c82459b] (0+3/3) Accurately ripped
14 [4ee5c7b3|9557c4b3] (0+3/3) Accurately ripped
15 [13106ad4|bf48e5c6] (0+3/3) Accurately ripped
16 [4dc93fad|66577c31] (0+3/3) Accurately ripped
17 [dfca748a|b7816831] (0+3/3) Accurately ripped
18 [cc555523|574f5b54] (0+3/3) Accurately ripped
19 [be1f0980|afcbba86] (0+3/3) Accurately ripped
20 [ca007217|cbf7cb14] (0+3/3) Accurately ripped
21 [fdbe4544|0f796b71] (0+3/3) Accurately ripped
22 [9485fbf8|ba6d9a96] (0+3/3) Accurately ripped
23 [16f4c996|a6a2c31b] (0+3/3) Accurately ripped
24 [7bc5fce9|a6d2adeb] (0+3/3) Accurately ripped

Track Peak [ CRC32 ] [W/O NULL] [ LOG ]
– 98,5 [1C9DF93A] [8B510173]
01 88,2 [E4540A88] [BD5FA09B] CRC32
02 97,9 [46DA2A7E] [6A488A12] CRC32
03 98,0 [C86EBA1F] [AB802FF1] CRC32
04 94,9 [BB0EA5CA] [90C21A5A] CRC32
05 98,5 [D3128E99] [694D11A1] CRC32
06 97,9 [D211E21E] [13C1AB34] CRC32
07 97,9 [EE87EF86] [9A680119] CRC32
08 91,9 [867600EF] [4BD19914] CRC32
09 87,9 [9BFC2492] [A6E9ABD4] CRC32
10 79,9 [E4C206E3] [488F42BB] CRC32
11 88,7 [BBF1874F] [E3E472AE] CRC32
12 84,6 [EC01CBE9] [B63FCC24] CRC32
13 98,4 [20012D2D] [95CF68D4] CRC32
14 92,1 [FD7BA6F8] [B5918224] CRC32
15 97,9 [224BED3E] [ACAFA4C8] CRC32
16 97,9 [08CA5F73] [C90C5245] CRC32
17 88,6 [1D314CAE] [13DE29E5] CRC32
18 92,7 [83954BD7] [13EA4ACA] CRC32
19 98,0 [D78B09C3] [65505E82] CRC32
20 97,8 [DECD9A31] [4A3F6433] CRC32
21 97,6 [911892DA] [BAA3A170] CRC32
22 87,9 [2F0C7529] [FCB54020] CRC32
23 95,3 [8554C9EE] [5C7BBFB2] CRC32
24 91,5 [833B33CC] [24E1B245] CRC32

foobar2000 1.2 / Dynamic Range Meter 1.1.1
log date: 2018-02-13 23:01:26

––––––––––––––––––––––––––––––––––––––––
Analyzed: Vic Damone / Linger Awhile With… (1962) • My Baby Loves To Swing (1963)
––––––––––––––––––––––––––––––––––––––––

DR Peak RMS Duration Track
––––––––––––––––––––––––––––––––––––––––
DR10 -1.09 dB -15.22 dB 2:00 01-Linger Awhile
DR11 -0.18 dB -14.42 dB 2:09 02-Close Your Eyes
DR10 -0.18 dB -13.56 dB 2:04 03-Stella By Starlight
DR11 -0.45 dB -14.74 dB 2:29 04-Change Partners
DR11 -0.13 dB -14.79 dB 2:24 05-After The Lights Go Down
DR11 -0.18 dB -14.51 dB 2:25 06-Let's Face The Music And Dance
DR12 -0.18 dB -15.41 dB 2:08 07-Soft Lights And Sweet Music
DR10 -0.73 dB -13.75 dB 2:59 08-Deep Night
DR10 -1.11 dB -14.53 dB 2:07 09-One Love
DR11 -1.94 dB -16.40 dB 3:04 10-There! I've Said It Again
DR11 -1.04 dB -15.07 dB 2:22 11-When Lights Are Low
DR10 -1.45 dB -14.69 dB 2:25 12-In The Still Of The Night
DR13 -0.14 dB -16.28 dB 2:18 13-I'm Nobody's Baby
DR12 -0.71 dB -15.32 dB 2:27 14-Everybody Loves My Baby
DR11 -0.18 dB -13.77 dB 1:48 15-You Must Have Been A Beautiful Baby
DR11 -0.18 dB -15.07 dB 2:26 16-Alright, Okay, You Win
DR11 -1.05 dB -16.61 dB 2:25 17-My Melancholy Baby
DR14 -0.66 dB -18.47 dB 3:09 18-Let's Sit This One Out
DR11 -0.18 dB -14.64 dB 2:52 19-My Baby Loves To Swing
DR11 -0.19 dB -15.27 dB 2:11 20-My Baby Just Cares For Me
DR12 -0.21 dB -14.35 dB 2:14 21-Is You Is, Or Is You Ain't
DR11 -1.12 dB -15.81 dB 2:32 22-Baby, Baby All The Time
DR12 -0.42 dB -15.78 dB 1:57 23-Baby Won't You Please Come Home
DR12 -0.77 dB -18.27 dB 2:49 24-Make This A Slow Goodbye
––––––––––––––––––––––––––––––––––––––––

Number of tracks: 24
Official DR value: DR11

Samplerate: 44100 Hz
Channels: 2
Bits per sample: 16
Bitrate: 850 kbps
Codec: FLAC
================================================================================




Vic Damone - Albums Collection 1956-1965 (5CD) 10 Classic Albums on 5CDs, Remastered Reissue 1997-2003

Vic Damone - On The Street Where You Live (1964) + The Liveliest (1963)
2 LP in 1 CD, Remastered Reissue 2003

EAC | FLAC | Tracks (Cue&Log) ~ 381 Mb | Mp3 (CBR320) ~ 158 Mb
Label: EMI | # 7243 5 92658 2 7 | 01:07:55 | Scans included

While Vic Damone was always a pleasant and talented singer, he wasn't particularly hip or jazz-influenced in the way Frank Sinatra was. That said, he always surrounded himself with excellent musicians and swinging arrangements that made the best of his abilities. EMI's two-fer On The Street Where You Live/The Liveliest combines two of Damone's best albums. On The Street Where You Live is a well-produced, mid-'60s date centered around the popular title track, with Damone's relaxed and clear-toned voice framed nicely by punchy horns, lush strings, and a swinging rhythm section. Similarly, The Liveliest is a stellar live club date from '63 at Basin Street East in New York City. Starting coolly with a dramatic version of "You and the Night and the Music," Damone really shines on the Scott Walker-esque ballad "What Kind of Fool Am I?"

Matt Collar, Allmusic.com

Tracklist:

On The Street Where You Live (1964)

01. On The Street Where You Live (2:39)
02. I Am In Love (2:27)
03. Younger Than Springtime (3:20)
04. Tonight (2:33)
05. I Could Write A Book (2:34)
06. Till There Was You (2:35)
07. Maria (3:58)
08. The Sound Of Music (3:30)
09. Something's Coming (2:30)
10. Lost In The Stars (3:40)
11. She Loves Me (2:37)

The Liveliest (1963)

12. You and the Night and the Music (2:35)
13. When Your Lover Has Gone (3:51)
14. What Kind of Fool Am I? (3:56)
15. At Long Last Love (3:00)
16. Fascinating Rhythm (1:45)
17. They Can't Take That Away From Me (2:35)
18. The Most Beautiful Girl In The World (2:11)
19. Adios (3:35)
20. I Left My Heart In San Francisco (2:43)
21. A Lot of Livin' To Do (3:02)
22. You're Nobody 'Til Somebody Loves You (3:16)
23. On The Street Where You Live (2:54)


Exact Audio Copy V1.0 beta 1 from 15. November 2010

EAC extraction logfile from 13. March 2011, 12:43

Vic Damone / On The Street Where You Live / The Liveliest

Used drive : ASUS DRW-1608P3S Adapter: 1 ID: 0

Read mode : Secure
Utilize accurate stream : Yes
Defeat audio cache : Yes
Make use of C2 pointers : No

Read offset correction : 48
Overread into Lead-In and Lead-Out : No
Fill up missing offset samples with silence : Yes
Delete leading and trailing silent blocks : No
Null samples used in CRC calculations : Yes
Used interface : Native Win32 interface for Win NT & 2000
Gap handling : Appended to previous track

Used output format : User Defined Encoder
Selected bitrate : 640 kBit/s
Quality : High
Add ID3 tag : No
Command line compressor : C:\Program Files (x86)\Exact Audio Copy\Flac\flac.exe
Additional command line options : -8 -V -T "ARTIST=%a" -T "TITLE=%t" -T "ALBUM=%g" -T "DATE=%y" -T "TRACKNUMBER=%n" -T "GENRE=%m" -T "COMMENT=EAC FLAC -8" %s


TOC of the extracted CD

Track | Start | Length | Start sector | End sector
––––––––––––––––––––––––––––-
1 | 0:00.00 | 2:39.35 | 0 | 11959
2 | 2:39.35 | 2:27.15 | 11960 | 22999
3 | 5:06.50 | 3:20.07 | 23000 | 38006
4 | 8:26.57 | 2:33.38 | 38007 | 49519
5 | 11:00.20 | 2:34.07 | 49520 | 61076
6 | 13:34.27 | 2:35.45 | 61077 | 72746
7 | 16:09.72 | 3:58.50 | 72747 | 90646
8 | 20:08.47 | 3:29.70 | 90647 | 106391
9 | 23:38.42 | 2:30.25 | 106392 | 117666
10 | 26:08.67 | 3:40.15 | 117667 | 134181
11 | 29:49.07 | 2:37.38 | 134182 | 145994
12 | 32:26.45 | 2:35.35 | 145995 | 157654
13 | 35:02.05 | 3:51.40 | 157655 | 175019
14 | 38:53.45 | 3:56.20 | 175020 | 192739
15 | 42:49.65 | 3:00.37 | 192740 | 206276
16 | 45:50.27 | 1:45.10 | 206277 | 214161
17 | 47:35.37 | 2:34.70 | 214162 | 225781
18 | 50:10.32 | 2:11.35 | 225782 | 235641
19 | 52:21.67 | 3:35.50 | 235642 | 251816
20 | 55:57.42 | 2:43.68 | 251817 | 264109
21 | 58:41.35 | 3:02.40 | 264110 | 277799
22 | 61:44.00 | 3:16.65 | 277800 | 292564
23 | 65:00.65 | 2:54.42 | 292565 | 305656


Track 1

Filename C:\Users\Дмитрий\Documents\Vic Damone - On The Street Where You Live (1964) & The Liveliest (1963) FLAC\01. Vic Damone – On The Street Where You Live.wav

Pre-gap length 0:00:02.00

Peak level 83.4 %
Extraction speed 4.4 X
Track quality 100.0 %
Test CRC 06C3D102
Copy CRC 06C3D102
Track not present in AccurateRip database
Copy OK

Track 2

Filename C:\Users\Дмитрий\Documents\Vic Damone - On The Street Where You Live (1964) & The Liveliest (1963) FLAC\02. Vic Damone – I Am In Love.wav

Pre-gap length 0:00:02.48

Peak level 97.1 %
Extraction speed 4.6 X
Track quality 100.0 %
Test CRC 7521862B
Copy CRC 7521862B
Track not present in AccurateRip database
Copy OK

Track 3

Filename C:\Users\Дмитрий\Documents\Vic Damone - On The Street Where You Live (1964) & The Liveliest (1963) FLAC\03. Vic Damone – Younger Than Springtime.wav

Pre-gap length 0:00:02.48

Peak level 83.8 %
Extraction speed 5.2 X
Track quality 100.0 %
Test CRC 13B6C77E
Copy CRC 13B6C77E
Track not present in AccurateRip database
Copy OK

Track 4

Filename C:\Users\Дмитрий\Documents\Vic Damone - On The Street Where You Live (1964) & The Liveliest (1963) FLAC\04. Vic Damone – Tonight.wav

Pre-gap length 0:00:02.47

Peak level 86.4 %
Extraction speed 5.2 X
Track quality 100.0 %
Test CRC 679EA649
Copy CRC 679EA649
Track not present in AccurateRip database
Copy OK

Track 5

Filename C:\Users\Дмитрий\Documents\Vic Damone - On The Street Where You Live (1964) & The Liveliest (1963) FLAC\05. Vic Damone – I Could Write A Book.wav

Pre-gap length 0:00:02.48

Peak level 94.4 %
Extraction speed 5.4 X
Track quality 100.0 %
Test CRC 6FE3F582
Copy CRC 6FE3F582
Track not present in AccurateRip database
Copy OK

Track 6

Filename C:\Users\Дмитрий\Documents\Vic Damone - On The Street Where You Live (1964) & The Liveliest (1963) FLAC\06. Vic Damone – Till There Was You.wav

Pre-gap length 0:00:02.47

Peak level 77.0 %
Extraction speed 5.6 X
Track quality 100.0 %
Test CRC ACB3BAED
Copy CRC ACB3BAED
Track not present in AccurateRip database
Copy OK

Track 7

Filename C:\Users\Дмитрий\Documents\Vic Damone - On The Street Where You Live (1964) & The Liveliest (1963) FLAC\07. Vic Damone – Maria.wav

Pre-gap length 0:00:02.47

Peak level 86.4 %
Extraction speed 6.3 X
Track quality 100.0 %
Test CRC 9EF8177C
Copy CRC 9EF8177C
Track not present in AccurateRip database
Copy OK

Track 8

Filename C:\Users\Дмитрий\Documents\Vic Damone - On The Street Where You Live (1964) & The Liveliest (1963) FLAC\08. Vic Damone – The Sound Of Music.wav

Pre-gap length 0:00:02.47

Peak level 83.1 %
Extraction speed 6.5 X
Track quality 100.0 %
Test CRC 6DD40F1A
Copy CRC 6DD40F1A
Track not present in AccurateRip database
Copy OK

Track 9

Filename C:\Users\Дмитрий\Documents\Vic Damone - On The Street Where You Live (1964) & The Liveliest (1963) FLAC\09. Vic Damone – Something's Coming.wav

Pre-gap length 0:00:02.45

Peak level 86.7 %
Extraction speed 6.3 X
Track quality 100.0 %
Test CRC 1FD880ED
Copy CRC 1FD880ED
Track not present in AccurateRip database
Copy OK

Track 10

Filename C:\Users\Дмитрий\Documents\Vic Damone - On The Street Where You Live (1964) & The Liveliest (1963) FLAC\10. Vic Damone – Lost In The Stars.wav

Pre-gap length 0:00:02.47

Peak level 82.2 %
Extraction speed 7.0 X
Track quality 100.0 %
Test CRC 373EB0CD
Copy CRC 373EB0CD
Track not present in AccurateRip database
Copy OK

Track 11

Filename C:\Users\Дмитрий\Documents\Vic Damone - On The Street Where You Live (1964) & The Liveliest (1963) FLAC\11. Vic Damone – She Loves Me.wav

Pre-gap length 0:00:02.47

Peak level 89.8 %
Extraction speed 6.8 X
Track quality 100.0 %
Test CRC 7AA636C5
Copy CRC 7AA636C5
Track not present in AccurateRip database
Copy OK

Track 12

Filename C:\Users\Дмитрий\Documents\Vic Damone - On The Street Where You Live (1964) & The Liveliest (1963) FLAC\12. Vic Damone – You and the Night and the Music.wav

Pre-gap length 0:00:02.48

Peak level 89.0 %
Extraction speed 6.9 X
Track quality 100.0 %
Test CRC B614B9A5
Copy CRC B614B9A5
Track not present in AccurateRip database
Copy OK

Track 13

Filename C:\Users\Дмитрий\Documents\Vic Damone - On The Street Where You Live (1964) & The Liveliest (1963) FLAC\13. Vic Damone – When Your Lover Has Gone.wav

Peak level 88.6 %
Extraction speed 7.6 X
Track quality 100.0 %
Test CRC A94309AF
Copy CRC A94309AF
Track not present in AccurateRip database
Copy OK

Track 14

Filename C:\Users\Дмитрий\Documents\Vic Damone - On The Street Where You Live (1964) & The Liveliest (1963) FLAC\14. Vic Damone – What Kind of Fool Am I.wav

Peak level 87.1 %
Extraction speed 7.9 X
Track quality 100.0 %
Test CRC 37BDD4C6
Copy CRC 37BDD4C6
Track not present in AccurateRip database
Copy OK

Track 15

Filename C:\Users\Дмитрий\Documents\Vic Damone - On The Street Where You Live (1964) & The Liveliest (1963) FLAC\15. Vic Damone – At Long Last Love.wav

Peak level 95.4 %
Extraction speed 7.8 X
Track quality 100.0 %
Test CRC FA0E1E76
Copy CRC FA0E1E76
Track not present in AccurateRip database
Copy OK

Track 16

Filename C:\Users\Дмитрий\Documents\Vic Damone - On The Street Where You Live (1964) & The Liveliest (1963) FLAC\16. Vic Damone – Fascinating Rhythm.wav

Peak level 87.4 %
Extraction speed 6.9 X
Track quality 100.0 %
Test CRC A43FFC7D
Copy CRC A43FFC7D
Track not present in AccurateRip database
Copy OK

Track 17

Filename C:\Users\Дмитрий\Documents\Vic Damone - On The Street Where You Live (1964) & The Liveliest (1963) FLAC\17. Vic Damone – They Can't Take That Away From Me.wav

Peak level 94.5 %
Extraction speed 7.8 X
Track quality 100.0 %
Test CRC 176EB851
Copy CRC 176EB851
Track not present in AccurateRip database
Copy OK

Track 18

Filename C:\Users\Дмитрий\Documents\Vic Damone - On The Street Where You Live (1964) & The Liveliest (1963) FLAC\18. Vic Damone – The Most Beautiful Girl In The World.wav

Pre-gap length 0:00:02.47

Peak level 95.1 %
Extraction speed 7.7 X
Track quality 100.0 %
Test CRC 86AF1B74
Copy CRC 86AF1B74
Track not present in AccurateRip database
Copy OK

Track 19

Filename C:\Users\Дмитрий\Documents\Vic Damone - On The Street Where You Live (1964) & The Liveliest (1963) FLAC\19. Vic Damone – Adios.wav

Peak level 97.5 %
Extraction speed 8.5 X
Track quality 100.0 %
Test CRC E79D52EB
Copy CRC E79D52EB
Track not present in AccurateRip database
Copy OK

Track 20

Filename C:\Users\Дмитрий\Documents\Vic Damone - On The Street Where You Live (1964) & The Liveliest (1963) FLAC\20. Vic Damone – I Left My Heart In San Francisco.wav

Peak level 100.0 %
Extraction speed 8.2 X
Track quality 100.0 %
Test CRC 0AEF57C1
Copy CRC 0AEF57C1
Track not present in AccurateRip database
Copy OK

Track 21

Filename C:\Users\Дмитрий\Documents\Vic Damone - On The Street Where You Live (1964) & The Liveliest (1963) FLAC\21. Vic Damone – A Lot of Livin' To Do.wav

Peak level 100.0 %
Extraction speed 8.5 X
Track quality 100.0 %
Test CRC DC592F25
Copy CRC DC592F25
Track not present in AccurateRip database
Copy OK

Track 22

Filename C:\Users\Дмитрий\Documents\Vic Damone - On The Street Where You Live (1964) & The Liveliest (1963) FLAC\22. Vic Damone – You're Nobody 'Til Somebody Loves You.wav

Peak level 100.0 %
Extraction speed 8.8 X
Track quality 100.0 %
Test CRC 0220851C
Copy CRC 0220851C
Track not present in AccurateRip database
Copy OK

Track 23

Filename C:\Users\Дмитрий\Documents\Vic Damone - On The Street Where You Live (1964) & The Liveliest (1963) FLAC\23. Vic Damone – On The Street Where You Live.wav

Peak level 100.0 %
Extraction speed 8.8 X
Track quality 100.0 %
Test CRC D208867E
Copy CRC D208867E
Track not present in AccurateRip database
Copy OK


None of the tracks are present in the AccurateRip database

No errors occurred

End of status report

[CUETools log; Date: 13.02.2018 22:42:22; Version: 2.1.4]
[CTDB TOCID: vWFpCV_jjmizL7lzSNf58aGovJA-] found.
Track | CTDB Status
1 | (1/1) Accurately ripped
2 | (1/1) Accurately ripped
3 | (1/1) Accurately ripped
4 | (1/1) Accurately ripped
5 | (1/1) Accurately ripped
6 | (1/1) Accurately ripped
7 | (1/1) Accurately ripped
8 | (1/1) Accurately ripped
9 | (1/1) Accurately ripped
10 | (1/1) Accurately ripped
11 | (1/1) Accurately ripped
12 | (1/1) Accurately ripped
13 | (1/1) Accurately ripped
14 | (1/1) Accurately ripped
15 | (1/1) Accurately ripped
16 | (1/1) Accurately ripped
17 | (1/1) Accurately ripped
18 | (1/1) Accurately ripped
19 | (1/1) Accurately ripped
20 | (1/1) Accurately ripped
21 | (1/1) Accurately ripped
22 | (1/1) Accurately ripped
23 | (1/1) Accurately ripped
[AccurateRip ID: 0037b375-03a420b4-2a0feb17] found.
Track [ CRC | V2 ] Status
01 [5dad035d|fd513540] (0+0/1) No match
02 [af7ee3cc|fce16143] (0+0/1) No match
03 [eda8924f|25f0b1af] (0+0/1) No match
04 [25480da4|b5eb2ecc] (0+0/1) No match
05 [8a851c09|1d2bf782] (0+0/1) No match
06 [e2f82ec7|bc81d7a1] (0+0/1) No match
07 [8c29096e|11792c62] (0+0/1) No match
08 [1a23892d|ace695ab] (0+0/1) No match
09 [0a4fa758|2f65cf7f] (0+0/1) No match
10 [668af449|aa1f707b] (0+0/1) No match
11 [17c7b5f2|dba438eb] (0+0/1) No match
12 [4066b25a|b293a7a2] (0+0/1) No match
13 [50219d3f|c3114b37] (0+0/1) No match
14 [8359dba8|92c43a4d] (0+0/1) No match
15 [cc8980ad|621697ce] (0+0/1) No match
16 [4fdd408b|e88d6e72] (0+0/1) No match
17 [98e71ece|28176562] (0+0/1) No match
18 [bb7628fd|8b0813e2] (0+0/1) No match
19 [0c2efae2|d2b1eb9e] (0+0/1) No match
20 [aaf9baa1|c72ff135] (0+0/1) No match
21 [b0e3bd68|b08ebc56] (0+0/1) No match
22 [1e5f766c|42b07e84] (0+0/1) No match
23 [e58b5819|93dcf68f] (0+0/1) No match
Offsetted by 676:
01 [2ac5752d] (0/1) No match (V2 was not tested)
02 [04934f9c] (0/1) No match (V2 was not tested)
03 [d4000ba3] (0/1) No match (V2 was not tested)
04 [2a183e58] (0/1) No match (V2 was not tested)
05 [ca2fb79d] (0/1) No match (V2 was not tested)
06 [f970cceb] (0/1) No match (V2 was not tested)
07 [954a998a] (0/1) No match (V2 was not tested)
08 [34b960c1] (0/1) No match (V2 was not tested)
09 [a0bfca9c] (0/1) No match (V2 was not tested)
10 [052c9ae5] (0/1) No match (V2 was not tested)
11 [56cda4d6] (0/1) No match (V2 was not tested)
12 [25f8542e] (0/1) No match (V2 was not tested)
13 [bbabeb98] (0/1) No match (V2 was not tested)
14 [f79050b5] (0/1) No match (V2 was not tested)
15 [0e51538a] (0/1) No match (V2 was not tested)
16 [95a28920] (0/1) No match (V2 was not tested)
17 [79eaab3a] (0/1) No match (V2 was not tested)
18 [37fb8550] (0/1) No match (V2 was not tested)
19 [f1184254] (0/1) No match (V2 was not tested)
20 [800b5aae] (0/1) No match (V2 was not tested)
21 [1c5872e2] (0/1) No match (V2 was not tested)
22 [2bebe737] (0/1) No match (V2 was not tested)
23 [06e580ca] (0/1) No match (V2 was not tested)

Track Peak [ CRC32 ] [W/O NULL] [ LOG ]
– 100,0 [96BB78AC] [0B1CABFF]
01 83,4 [06C3D102] [8B23DFFA] CRC32
02 97,1 [7521862B] [68AE6E06] CRC32
03 83,8 [13B6C77E] [724EB677] CRC32
04 86,4 [679EA649] [153B604E] CRC32
05 94,4 [6FE3F582] [F4CAEE78] CRC32
06 77,0 [ACB3BAED] [C2155E22] CRC32
07 86,4 [9EF8177C] [E0953E73] CRC32
08 83,1 [6DD40F1A] [9A680759] CRC32
09 86,7 [1FD880ED] [82361755] CRC32
10 82,2 [373EB0CD] [3281996B] CRC32
11 89,8 [7AA636C5] [1A67B48A] CRC32
12 89,0 [B614B9A5] [259E29B9] CRC32
13 88,6 [A94309AF] [7B771296] CRC32
14 87,1 [37BDD4C6] [C8363745] CRC32
15 95,4 [FA0E1E76] [E8286414] CRC32
16 87,4 [A43FFC7D] [720F8C06] CRC32
17 94,5 [176EB851] [A47800B4] CRC32
18 95,1 [86AF1B74] [4E028251] CRC32
19 97,5 [E79D52EB] [44375299] CRC32
20 100,0 [0AEF57C1] [49A2C1F1] CRC32
21 100,0 [DC592F25] [B587F88E] CRC32
22 100,0 [0220851C] [7D43F001] CRC32
23 100,0 [D208867E] [0FF498B7] CRC32

foobar2000 1.2 / Dynamic Range Meter 1.1.1
log date: 2018-02-13 23:30:18

––––––––––––––––––––––––––––––––––––––––
Analyzed: Vic Damone / On The Street Where You Live / The Liveliest
––––––––––––––––––––––––––––––––––––––––

DR Peak RMS Duration Track
––––––––––––––––––––––––––––––––––––––––
DR9 -1.57 dB -13.43 dB 2:39 01-On The Street Where You Live
DR10 -0.25 dB -13.92 dB 2:27 02-I Am In Love
DR10 -1.53 dB -15.21 dB 3:20 03-Younger Than Springtime
DR9 -1.26 dB -14.04 dB 2:34 04-Tonight
DR10 -0.50 dB -13.57 dB 2:34 05-I Could Write A Book
DR9 -2.26 dB -14.71 dB 2:36 06-Till There Was You
DR10 -1.27 dB -15.35 dB 3:59 07-Maria
DR9 -1.60 dB -14.75 dB 3:30 08-The Sound Of Music
DR11 -1.23 dB -14.80 dB 2:30 09-Something's Coming
DR10 -1.69 dB -15.57 dB 3:40 10-Lost In The Stars
DR10 -0.93 dB -14.61 dB 2:38 11-She Loves Me
DR10 -1.01 dB -13.55 dB 2:35 12-You and the Night and the Music
DR10 -1.05 dB -14.39 dB 3:52 13-When Your Lover Has Gone
DR9 -1.20 dB -15.33 dB 3:56 14-What Kind of Fool Am I?
DR10 -0.40 dB -13.81 dB 3:00 15-At Long Last Love
DR11 -1.16 dB -14.00 dB 1:45 16-Fascinating Rhythm
DR10 -0.49 dB -13.49 dB 2:35 17-They Can't Take That Away From Me
DR9 -0.44 dB -11.48 dB 2:11 18-The Most Beautiful Girl In The World
DR9 -0.22 dB -14.14 dB 3:36 19-Adios
DR9 0.00 dB -12.87 dB 2:44 20-I Left My Heart In San Francisco
DR9 0.00 dB -11.02 dB 3:03 21-A Lot of Livin' To Do
DR9 0.00 dB -11.12 dB 3:17 22-You're Nobody 'Til Somebody Loves You
DR9 0.00 dB -11.22 dB 2:55 23-On The Street Where You Live
––––––––––––––––––––––––––––––––––––––––

Number of tracks: 23
Official DR value: DR10

Samplerate: 44100 Hz
Channels: 2
Bits per sample: 16
Bitrate: 914 kbps
Codec: FLAC
================================================================================




Vic Damone - Albums Collection 1956-1965 (5CD) 10 Classic Albums on 5CDs, Remastered Reissue 1997-2003

Vic Damone - You Were Only Fooling (1965) + Country Love Songs (1965)
2 LP in 1 CD, Remastered Reissue 2003

EAC | FLAC | Tracks (Cue&Log) ~ 360 Mb | Mp3 (CBR320) ~ 149 Mb
Label: Collectors' Choice Music | # CCM-364-2 | 01:10:49 | Scans included

Here ideally coupled are two of the better albums Dean Martin and Ray Price never made, Damone's entire Warners 1965 discography–a brief interregnum at his vocal peak. Damone began in a Tony Martin mode as a casual but natural singles crooner for Mercury, became an album artist at Columbia (where he made his sole Italian treasury) and graduated to full concept-album mastery (cf. Mr. Sinatra) at Capitol in swinging collaborations with the imprint's better arranger-conductors, notably Billy May and Jack Marshall. This WB interlude preceded Damone's final major-label stint, at RCA and further fine work with Nelson Riddle.

The singer was not yet 40 when he made the varied, Dinoesque and very commercial title album, longer than but inferior to the very idiomatic Nashville ballads set that exactly parallels Ray Price's extremely sophisticated countrypolitan albums from this period. Damone was his own man, however, with the Italianate crooning style Sinatra so admired, and although Damone, reinventing his recordmaking persona, is at the mercy of his producers here the albums are not derivative.

Ernie Freeman conducted the pop album in Hollywood in his Dean Martin mode, and the aggressive drum thwacks in "You were only fooling" unsuccessfully drown out the singer who scored a mid-career chart success (here Damone's career intersects the great Kay Starr, who made the song a hit in 1948). The remainder is assorted and very eclectic, Damone covering Tom Jones and Perry Como, channeling Connie Francis with "For Mama" and delivering obscure balladeer romantica in "Stranger in the world," "And roses and roses" and "Careless hands." It's a louder and more commercial album than need be but beautifully produced and almost entirely enjoyable.

The better album of country torch songs was conducted by veteran Bill Justis ("Raunchy") in Nashville Sound mode, but omitting steel guitar and any nasality or twang by the sophisticated vocalist. The short playlist is extremely choice, with no filler or duds, and Damone's urbane and impassioned takes on several quality standards–"A fool such as I," "Room full of roses," "Together again," "Faded love" and "You don't know me"–are particularly memorable and worth replaying, all leading up to Damone's killer version of "You win again." The album title misleads, as these are not optimistic happy songs but wistful torch songs of loss and regret, universally confessional and done full justice by an interpreter as suave and knowing as Vic Damone. If there is any tendency to assign Damone to second-tier crooner status, this stunning achievement in unexpected repertoire silences any doubts.

Damone the WB popster is agreeable enough and a pleasure to your ears, but the country album is a real masterpiece–and this is uptown country crooning such as Damone's admirer Sinatra would never attempt. Bravo for the singer's ambitious artistic reach, fulfilled quite gloriously in the Nashville set.

Cody Robert at Spokane

Tracklist:

You Were Only Fooling (1965)

01. You Were Only Fooling (2:34)
02. I'll Never Find Another You (2:48)
03. The Thrill Of Lovin' You (2:29)
04. Stranger In The World (2:44)
05. For Mama (3:12)
06. It's Not Unusual (2:28)
07. And Roses And Roses (2:29)
08. Why Don't You Believe Me (2:31)
09. Please Help Me, I'm Falling (2:09)
10. Careless Hands (2:37)
11. I've Been Looking (2:16)
12. Dream On Little Dreamer (2:31)

Country Love Songs (1965)

13. Someday (2:35)
14. A Fool Such As I (3:06)
15. Room Full Of Roses (3:25)
16. Together Again (2:33)
17. I Really Don't Want To Know (3:02)
18. Faded Love (2:33)
19. You Don't Know Me (3:39)
20. Bouquet Of Roses (2:57)
21. Crazy (3:13)
22. You Win Again (2:57)


Exact Audio Copy V1.0 beta 3 from 29. August 2011

EAC extraction logfile from 7. December 2014, 22:29

Vic Damone / We Were Only Fooling / Country Love Songs

Used drive : hp CDDVDW TS-H653R Adapter: 5 ID: 0

Read mode : Secure
Utilize accurate stream : Yes
Defeat audio cache : Yes
Make use of C2 pointers : No

Read offset correction : 6
Overread into Lead-In and Lead-Out : No
Fill up missing offset samples with silence : Yes
Delete leading and trailing silent blocks : No
Null samples used in CRC calculations : Yes
Used interface : Installed external ASPI interface
Gap handling : Appended to previous track

Used output format : User Defined Encoder
Selected bitrate : 1024 kBit/s
Quality : High
Add ID3 tag : No
Command line compressor : C:\Program Files\FLAC\flac.exe
Additional command line options : -8 -V -T "ARTIST=%artist%" -T "TITLE=%title%" -T "ALBUM=%albumtitle%" -T "DATE=%year%" -T "TRACKNUMBER=%tracknr1%" -T "GENRE=%genre%" -T "PERFORMER=%albuminterpret%" -T "COMPOSER=%composer%" %haslyrics%–tag-from-file=LYRICS="%lyricsfile%"%haslyrics% -T "ALBUMARTIST=%albumartist%" -T "DISCNUMBER=%cdnumber%" -T "TOTALDISCS=%totalcds%" -T "TOTALTRACKS=%numtracks%" -T "COMMENT=%comment%" %source% -o %dest%


TOC of the extracted CD

Track | Start | Length | Start sector | End sector
––––––––––––––––––––––––––––-
1 | 0:00.00 | 2:34.11 | 0 | 11560
2 | 2:34.11 | 2:47.45 | 11561 | 24130
3 | 5:21.56 | 2:28.60 | 24131 | 35290
4 | 7:50.41 | 2:44.05 | 35291 | 47595
5 | 10:34.46 | 3:12.13 | 47596 | 62008
6 | 13:46.59 | 2:28.36 | 62009 | 73144
7 | 16:15.20 | 2:28.43 | 73145 | 84287
8 | 18:43.63 | 2:30.50 | 84288 | 95587
9 | 21:14.38 | 2:09.35 | 95588 | 105297
10 | 23:23.73 | 2:36.43 | 105298 | 117040
11 | 26:00.41 | 2:16.32 | 117041 | 127272
12 | 28:16.73 | 2:31.33 | 127273 | 138630
13 | 30:48.31 | 2:35.09 | 138631 | 150264
14 | 33:23.40 | 3:05.55 | 150265 | 164194
15 | 36:29.20 | 3:24.70 | 164195 | 179564
16 | 39:54.15 | 2:33.20 | 179565 | 191059
17 | 42:27.35 | 3:02.33 | 191060 | 204742
18 | 45:29.68 | 2:33.08 | 204743 | 216225
19 | 48:03.01 | 3:39.33 | 216226 | 232683
20 | 51:42.34 | 2:57.14 | 232684 | 245972
21 | 54:39.48 | 3:12.66 | 245973 | 260438
22 | 57:52.39 | 2:56.63 | 260439 | 273701


Track 1

Filename C:\EAC Rips\Vic Damone - We Were Only Fooling - Country Love Songs (2003) [FLAC]\01 - You were only fooling.wav

Pre-gap length 0:00:02.00

Peak level 93.7 %
Extraction speed 4.1 X
Track quality 100.0 %
Test CRC 924B22E5
Copy CRC 924B22E5
Accurately ripped (confidence 1) [2257F22E] (AR v2)
Copy OK

Track 2

Filename C:\EAC Rips\Vic Damone - We Were Only Fooling - Country Love Songs (2003) [FLAC]\02 - I'll never find another you.wav

Pre-gap length 0:00:02.45

Peak level 100.0 %
Extraction speed 4.5 X
Track quality 100.0 %
Test CRC 2EE47E8C
Copy CRC 2EE47E8C
Accurately ripped (confidence 1) [4B333D49] (AR v2)
Copy OK

Track 3

Filename C:\EAC Rips\Vic Damone - We Were Only Fooling - Country Love Songs (2003) [FLAC]\03 - The thrill of lovin' you.wav

Pre-gap length 0:00:02.66

Peak level 85.5 %
Extraction speed 4.7 X
Track quality 100.0 %
Test CRC 51F65001
Copy CRC 51F65001
Accurately ripped (confidence 1) [8C7414EF] (AR v2)
Copy OK

Track 4

Filename C:\EAC Rips\Vic Damone - We Were Only Fooling - Country Love Songs (2003) [FLAC]\04 - Stranger in the world.wav

Pre-gap length 0:00:02.54

Peak level 88.8 %
Extraction speed 5.1 X
Track quality 100.0 %
Test CRC 8A111D0D
Copy CRC 8A111D0D
Accurately ripped (confidence 1) [56D4F9F5] (AR v2)
Copy OK

Track 5

Filename C:\EAC Rips\Vic Damone - We Were Only Fooling - Country Love Songs (2003) [FLAC]\05 - For mama.wav

Pre-gap length 0:00:02.42

Peak level 86.3 %
Extraction speed 5.5 X
Track quality 100.0 %
Test CRC 33F855D6
Copy CRC 33F855D6
Accurately ripped (confidence 1) [6FD59DA7] (AR v2)
Copy OK

Track 6

Filename C:\EAC Rips\Vic Damone - We Were Only Fooling - Country Love Songs (2003) [FLAC]\06 - It's not unusual.wav

Pre-gap length 0:00:02.81

Peak level 99.8 %
Extraction speed 5.4 X
Track quality 100.0 %
Test CRC 02CBAAE7
Copy CRC 02CBAAE7
Accurately ripped (confidence 1) [1DCA196E] (AR v2)
Copy OK

Track 7

Filename C:\EAC Rips\Vic Damone - We Were Only Fooling - Country Love Songs (2003) [FLAC]\07 - And roses and roses.wav

Pre-gap length 0:00:02.05

Peak level 77.2 %
Extraction speed 5.5 X
Track quality 100.0 %
Test CRC 3051838A
Copy CRC 3051838A
Accurately ripped (confidence 1) [CC378DFE] (AR v2)
Copy OK

Track 8

Filename C:\EAC Rips\Vic Damone - We Were Only Fooling - Country Love Songs (2003) [FLAC]\08 - Why don't you believe me.wav

Peak level 75.7 %
Extraction speed 5.6 X
Track quality 100.0 %
Test CRC 9AA0E3AC
Copy CRC 9AA0E3AC
Accurately ripped (confidence 1) [72D5FC99] (AR v2)
Copy OK

Track 9

Filename C:\EAC Rips\Vic Damone - We Were Only Fooling - Country Love Songs (2003) [FLAC]\09 - Please help, me I'm falling.wav

Pre-gap length 0:00:02.50

Peak level 87.9 %
Extraction speed 3.8 X
Track quality 99.9 %
Test CRC 0DEABDBF
Copy CRC 0DEABDBF
Accurately ripped (confidence 1) [E109D005] (AR v2)
Copy OK

Track 10

Filename C:\EAC Rips\Vic Damone - We Were Only Fooling - Country Love Songs (2003) [FLAC]\10 - Careless hands.wav

Pre-gap length 0:00:02.65

Peak level 98.5 %
Extraction speed 6.0 X
Track quality 100.0 %
Test CRC E9407E57
Copy CRC E9407E57
Accurately ripped (confidence 1) [92EFB24E] (AR v2)
Copy OK

Track 11

Filename C:\EAC Rips\Vic Damone - We Were Only Fooling - Country Love Songs (2003) [FLAC]\11 - I've been looking.wav

Pre-gap length 0:00:02.70

Peak level 95.2 %
Extraction speed 4.2 X
Track quality 99.9 %
Test CRC 94B81EB5
Copy CRC 94B81EB5
Accurately ripped (confidence 1) [C674E0B1] (AR v2)
Copy OK

Track 12

Filename C:\EAC Rips\Vic Damone - We Were Only Fooling - Country Love Songs (2003) [FLAC]\12 - Dream on little dreamer.wav

Pre-gap length 0:00:02.65

Peak level 86.1 %
Extraction speed 6.2 X
Track quality 100.0 %
Test CRC 6A9C942E
Copy CRC 6A9C942E
Accurately ripped (confidence 1) [BABF2F49] (AR v2)
Copy OK

Track 13

Filename C:\EAC Rips\Vic Damone - We Were Only Fooling - Country Love Songs (2003) [FLAC]\13 - Someday.wav

Pre-gap length 0:00:01.13

Peak level 75.8 %
Extraction speed 6.5 X
Track quality 100.0 %
Test CRC 1C8DBB41
Copy CRC 1C8DBB41
Accurately ripped (confidence 1) [7784DB6D] (AR v2)
Copy OK

Track 14

Filename C:\EAC Rips\Vic Damone - We Were Only Fooling - Country Love Songs (2003) [FLAC]\14 - A fool such as I.wav

Pre-gap length 0:00:02.66

Peak level 88.6 %
Extraction speed 7.3 X
Track quality 100.0 %
Test CRC C31F9AEE
Copy CRC C31F9AEE
Accurately ripped (confidence 1) [D57B3506] (AR v2)
Copy OK

Track 15

Filename C:\EAC Rips\Vic Damone - We Were Only Fooling - Country Love Songs (2003) [FLAC]\15 - Room Full of roses.wav

Pre-gap length 0:00:02.72

Peak level 86.3 %
Extraction speed 7.5 X
Track quality 100.0 %
Test CRC E4E3E785
Copy CRC E4E3E785
Accurately ripped (confidence 1) [57398B82] (AR v2)
Copy OK

Track 16

Filename C:\EAC Rips\Vic Damone - We Were Only Fooling - Country Love Songs (2003) [FLAC]\16 - Together again.wav

Pre-gap length 0:00:02.70

Peak level 81.7 %
Extraction speed 7.1 X
Track quality 100.0 %
Test CRC 5172B0A7
Copy CRC 5172B0A7
Accurately ripped (confidence 1) [88548F22] (AR v2)
Copy OK

Track 17

Filename C:\EAC Rips\Vic Damone - We Were Only Fooling - Country Love Songs (2003) [FLAC]\17 - I really don't want to know.wav

Pre-gap length 0:00:02.68

Peak level 71.6 %
Extraction speed 7.5 X
Track quality 100.0 %
Test CRC 4612A3E8
Copy CRC 4612A3E8
Accurately ripped (confidence 1) [BE4CFA06] (AR v2)
Copy OK

Track 18

Filename C:\EAC Rips\Vic Damone - We Were Only Fooling - Country Love Songs (2003) [FLAC]\18 - Faded love.wav

Pre-gap length 0:00:02.24

Peak level 86.6 %
Extraction speed 7.4 X
Track quality 100.0 %
Test CRC D607B3C8
Copy CRC D607B3C8
Accurately ripped (confidence 1) [F192514A] (AR v2)
Copy OK

Track 19

Filename C:\EAC Rips\Vic Damone - We Were Only Fooling - Country Love Songs (2003) [FLAC]\19 - You don't know me.wav

Pre-gap length 0:00:02.57

Peak level 79.6 %
Extraction speed 6.1 X
Track quality 99.9 %
Test CRC EC54F2A7
Copy CRC EC54F2A7
Accurately ripped (confidence 1) [E5A2EBE2] (AR v2)
Copy OK

Track 20

Filename C:\EAC Rips\Vic Damone - We Were Only Fooling - Country Love Songs (2003) [FLAC]\20 - Bouquet of roses.wav

Pre-gap length 0:00:02.69

Peak level 61.2 %
Extraction speed 7.4 X
Track quality 100.0 %
Test CRC AA0E01DE
Copy CRC AA0E01DE
Accurately ripped (confidence 1) [C8F87C91] (AR v2)
Copy OK

Track 21

Filename C:\EAC Rips\Vic Damone - We Were Only Fooling - Country Love Songs (2003) [FLAC]\21 - Crazy.wav

Pre-gap length 0:00:02.68

Peak level 73.7 %
Extraction speed 6.2 X
Track quality 99.9 %
Test CRC 3CDAD3DF
Copy CRC 3CDAD3DF
Accurately ripped (confidence 1) [B6FD5850] (AR v2)
Copy OK

Track 22

Filename C:\EAC Rips\Vic Damone - We Were Only Fooling - Country Love Songs (2003) [FLAC]\22 - You win again.wav

Pre-gap length 0:00:02.77

Peak level 99.9 %
Extraction speed 8.6 X
Track quality 100.0 %
Test CRC 494AA4F7
Copy CRC 494AA4F7
Accurately ripped (confidence 1) [ED821290] (AR v2)
Copy OK


All tracks accurately ripped

No errors occurred

End of status report

–– CUETools DB Plugin V2.1.3

[CTDB TOCID: 7RvNg5P9ZN5jtWCrBc0i4elfbDs-] disk not present in database, Submit result: 7RvNg5P9ZN5jtWCrBc0i4elfbDs- has been uploaded


==== Log checksum 2C88E5DA69235F6C5AEBBACF0817F5CD85598EA49B3A648339CB84943B5CA58F ====

[CUETools log; Date: 13.02.2018 22:43:38; Version: 2.1.4]
[CTDB TOCID: 7RvNg5P9ZN5jtWCrBc0i4elfbDs-] found.
Track | CTDB Status
1 | (1/1) Accurately ripped
2 | (1/1) Accurately ripped
3 | (1/1) Accurately ripped
4 | (1/1) Accurately ripped
5 | (1/1) Accurately ripped
6 | (1/1) Accurately ripped
7 | (1/1) Accurately ripped
8 | (1/1) Accurately ripped
9 | (1/1) Accurately ripped
10 | (1/1) Accurately ripped
11 | (1/1) Accurately ripped
12 | (1/1) Accurately ripped
13 | (1/1) Accurately ripped
14 | (1/1) Accurately ripped
15 | (1/1) Accurately ripped
16 | (1/1) Accurately ripped
17 | (1/1) Accurately ripped
18 | (1/1) Accurately ripped
19 | (1/1) Accurately ripped
20 | (1/1) Accurately ripped
21 | (1/1) Accurately ripped
22 | (1/1) Accurately ripped
[AccurateRip ID: 002e65c0-02e9fac3-3b0e4116] found.
Track [ CRC | V2 ] Status
01 [b3850767|2257f22e] (0+1/1) Accurately ripped
02 [57c67b82|4b333d49] (0+1/1) Accurately ripped
03 [2df375e0|8c7414ef] (0+1/1) Accurately ripped
04 [198cd5eb|56d4f9f5] (0+1/1) Accurately ripped
05 [b32224d1|6fd59da7] (0+1/1) Accurately ripped
06 [21988150|1dca196e] (0+1/1) Accurately ripped
07 [af622bcd|cc378dfe] (0+1/1) Accurately ripped
08 [3363856a|72d5fc99] (0+1/1) Accurately ripped
09 [414bdd00|e109d005] (0+1/1) Accurately ripped
10 [2561339b|92efb24e] (0+1/1) Accurately ripped
11 [86df79b2|c674e0b1] (0+1/1) Accurately ripped
12 [d1fb87fa|babf2f49] (0+1/1) Accurately ripped
13 [81fc3c7e|7784db6d] (0+1/1) Accurately ripped
14 [7e8aaa7f|d57b3506] (0+1/1) Accurately ripped
15 [d9bd952f|57398b82] (0+1/1) Accurately ripped
16 [0ce23b2d|88548f22] (0+1/1) Accurately ripped
17 [9331661b|be4cfa06] (0+1/1) Accurately ripped
18 [9ee88e04|f192514a] (0+1/1) Accurately ripped
19 [606db84e|e5a2ebe2] (0+1/1) Accurately ripped
20 [755e3b0b|c8f87c91] (0+1/1) Accurately ripped
21 [b7bcef0a|b6fd5850] (0+1/1) Accurately ripped
22 [9411bba9|ed821290] (0+1/1) Accurately ripped

Track Peak [ CRC32 ] [W/O NULL] [ LOG ]
– 99,9 [B9EEAA6F] [167E6661]
01 93,6 [924B22E5] [8A5C46BE] CRC32
02 99,9 [2EE47E8C] [E5C7804B] CRC32
03 85,5 [51F65001] [EAF36822] CRC32
04 88,8 [8A111D0D] [EA8AE23B] CRC32
05 86,3 [33F855D6] [D6B3DABA] CRC32
06 99,8 [02CBAAE7] [552C5C38] CRC32
07 77,2 [3051838A] [E6619D56] CRC32
08 75,7 [9AA0E3AC] [A7F2A884] CRC32
09 87,9 [0DEABDBF] [CA354B94] CRC32
10 98,5 [E9407E57] [D27B77DE] CRC32
11 95,2 [94B81EB5] [0479F198] CRC32
12 86,1 [6A9C942E] [24756304] CRC32
13 75,8 [1C8DBB41] [A75CBA79] CRC32
14 88,6 [C31F9AEE] [D37A002C] CRC32
15 86,3 [E4E3E785] [B28ACE16] CRC32
16 81,7 [5172B0A7] [37BEBBEC] CRC32
17 71,6 [4612A3E8] [D4EBC21A] CRC32
18 86,6 [D607B3C8] [3EF61457] CRC32
19 79,6 [EC54F2A7] [634BF54D] CRC32
20 61,2 [AA0E01DE] [2B203708] CRC32
21 73,7 [3CDAD3DF] [0485ACAB] CRC32
22 99,9 [494AA4F7] [757AC365] CRC32

foobar2000 1.2 / Dynamic Range Meter 1.1.1
log date: 2018-02-13 23:16:15

––––––––––––––––––––––––––––––––––––––––
Analyzed: Vic Damone / We Were Only Fooling (1965) • Country Love Songs (1965)
––––––––––––––––––––––––––––––––––––––––

DR Peak RMS Duration Track
––––––––––––––––––––––––––––––––––––––––
DR11 -0.57 dB -15.18 dB 2:34 01-You Were Only Fooling
DR12 0.00 dB -16.12 dB 2:48 02-I'll Never Find Another You
DR11 -1.35 dB -15.39 dB 2:29 03-The Thrill Of Lovin' You
DR11 -1.03 dB -15.85 dB 2:44 04-Stranger In The World
DR12 -1.27 dB -18.18 dB 3:12 05-For Mama
DR11 -0.01 dB -15.13 dB 2:28 06-It's Not Unusual
DR11 -2.25 dB -17.88 dB 2:29 07-And Roses And Roses
DR11 -2.41 dB -16.16 dB 2:31 08-Why Don't You Believe Me
DR12 -1.12 dB -16.61 dB 2:09 09-Please Help Me, I'm Falling
DR12 -0.13 dB -16.93 dB 2:37 10-Careless Hands
DR13 -0.42 dB -17.20 dB 2:16 11-I've Been Looking
DR12 -1.30 dB -17.39 dB 2:31 12-Dream On Little Dreamer
DR11 -2.40 dB -18.67 dB 2:35 13-Someday
DR13 -1.04 dB -20.01 dB 3:06 14-A Fool Such As I
DR13 -1.27 dB -20.35 dB 3:25 15-Room Full Of Roses
DR11 -1.75 dB -18.60 dB 2:33 16-Together Again
DR13 -2.90 dB -20.61 dB 3:02 17-I Really Don't Want To Know
DR11 -1.24 dB -17.37 dB 2:33 18-Faded Love
DR12 -1.98 dB -19.46 dB 3:39 19-You Don't Know Me
DR12 -4.26 dB -21.04 dB 2:57 20-Bouquet Of Roses
DR12 -2.65 dB -19.87 dB 3:13 21-Crazy
DR12 0.00 dB -18.41 dB 2:57 22-You Win Again
––––––––––––––––––––––––––––––––––––––––

Number of tracks: 22
Official DR value: DR12

Samplerate: 44100 Hz
Channels: 2
Bits per sample: 16
Bitrate: 806 kbps
Codec: FLAC
================================================================================





All thanks to original releasers

More interesting music in My Blog