Subcategories

Vic Mizzy - Original Music From The Addams Family (1965) {1991 RCA}

Posted By: TestTickles
Vic Mizzy - Original Music From The Addams Family (1965) {1991 RCA}

Vic Mizzy - Original Music From The Addams Family (1965) {1991 RCA}
EAC Rip | FLAC with CUE and log | scans | 153 mb
MP3 CBR 320kbps | RAR | 64 mb
Genre: soundtrack

Vic Mizzy is the man behind the music on the American television show The Addams Family. Original Music From The Addams Family is the album he did for RCA Victor in 1965 and this is a compact disc version of it released in 1991.

01. The Addams Family - Main Theme
02. Uncle Fester's Blues
03. Gomez
04. Morticia's Theme
05. Lurch's Theme
06. One Little, Two Little, Three Little Tombstones
07. Thing
08. Laugh I Thought I'd Die!
09. On Shroud No. 9
10. The Addams House
11. Hide And Shriek
12. The Anxiety Tango
13. The Addams Family - Main Theme (Vocal)

EAC extraction logfile from 5. June 2008, 16:19 for CD
Vic Mizzy / Original Music From The Addams Family

Used drive : HP DVD Writer 740b Adapter: 5 ID: 0
Read mode : Secure with NO C2, accurate stream, NO disable cache
Read offset correction : 102
Overread into Lead-In and Lead-Out : No

Used output format : C:\Program Files\Exact Audio Copy\flac.exe. User Defined Encoder)
192 kBit/s
Additional command line options : -V -5 -T "artist=%a" -T "title=%t" -T "album=%g" -T "date=%y" -T "tracknumber=%n" -T "genre=%m" %s

Other options :
Fill up missing offset samples with silence : Yes
Delete leading and trailing silent blocks : No
Installed external ASPI interface


Track 1
Filename C:\FLAC\Vic Mizzy - Original Music From The Addams Family 1965 - [FLAC] {1991 RCA}\01 - The Addams Family - Main Theme.wav

Peak level 85.8 %
Track quality 100.0 %
Test CRC 219015EB
Copy CRC 219015EB
Copy OK

Track 2
Filename C:\FLAC\Vic Mizzy - Original Music From The Addams Family 1965 - [FLAC] {1991 RCA}\02 - Uncle Fester's Blues.wav

Peak level 80.7 %
Track quality 100.0 %
Test CRC 2841C7D1
Copy CRC 2841C7D1
Copy OK

Track 3
Filename C:\FLAC\Vic Mizzy - Original Music From The Addams Family 1965 - [FLAC] {1991 RCA}\03 - Gomez.wav

Peak level 89.0 %
Track quality 100.0 %
Test CRC 7C94DD17
Copy CRC 7C94DD17
Copy OK

Track 4
Filename C:\FLAC\Vic Mizzy - Original Music From The Addams Family 1965 - [FLAC] {1991 RCA}\04 - Morticia's Theme.wav

Peak level 85.1 %
Track quality 100.0 %
Test CRC D27A57C3
Copy CRC D27A57C3
Copy OK

Track 5
Filename C:\FLAC\Vic Mizzy - Original Music From The Addams Family 1965 - [FLAC] {1991 RCA}\05 - Lurch's Theme.wav

Peak level 89.7 %
Track quality 100.0 %
Test CRC 39D9F09E
Copy CRC 39D9F09E
Copy OK

Track 6
Filename C:\FLAC\Vic Mizzy - Original Music From The Addams Family 1965 - [FLAC] {1991 RCA}\06 - One Little, Two Little,Three Little Tombstones.wav

Peak level 83.9 %
Track quality 100.0 %
Test CRC 194F175C
Copy CRC 194F175C
Copy OK

Track 7
Filename C:\FLAC\Vic Mizzy - Original Music From The Addams Family 1965 - [FLAC] {1991 RCA}\07 - Thing.wav

Peak level 86.4 %
Track quality 100.0 %
Test CRC 9B7D4714
Copy CRC 9B7D4714
Copy OK

Track 8
Filename C:\FLAC\Vic Mizzy - Original Music From The Addams Family 1965 - [FLAC] {1991 RCA}\08 - Laugh I Thought I'd Die!.wav

Peak level 87.7 %
Track quality 100.0 %
Test CRC F7D18BF3
Copy CRC F7D18BF3
Copy OK

Track 9
Filename C:\FLAC\Vic Mizzy - Original Music From The Addams Family 1965 - [FLAC] {1991 RCA}\09 - On Shroud No. 9.wav

Peak level 88.0 %
Track quality 100.0 %
Test CRC D1A3F6E0
Copy CRC D1A3F6E0
Copy OK

Track 10
Filename C:\FLAC\Vic Mizzy - Original Music From The Addams Family 1965 - [FLAC] {1991 RCA}\10 - The Addams House.wav

Peak level 83.2 %
Track quality 100.0 %
Test CRC C449C0D8
Copy CRC C449C0D8
Copy OK

Track 11
Filename C:\FLAC\Vic Mizzy - Original Music From The Addams Family 1965 - [FLAC] {1991 RCA}\11 - Hide And Shiriek.wav

Peak level 83.4 %
Track quality 100.0 %
Test CRC B037AD4D
Copy CRC B037AD4D
Copy OK

Track 12
Filename C:\FLAC\Vic Mizzy - Original Music From The Addams Family 1965 - [FLAC] {1991 RCA}\12 - The Anxiety Tango.wav

Peak level 85.3 %
Track quality 99.9 %
Test CRC B3A48462
Copy CRC B3A48462
Copy OK

Track 13
Filename C:\FLAC\Vic Mizzy - Original Music From The Addams Family 1965 - [FLAC] {1991 RCA}\13 - The Addams Family - Main Theme (Vocal).wav

Peak level 86.4 %
Track quality 100.0 %
Test CRC 9669E02C
Copy CRC 9669E02C
Copy OK

No errors occured


End of status report


Vic Mizzy - Original Music From The Addams Family (1965) {1991 RCA}


Thank you to the original uploader