Subcategories

Vondelpark - Seabed (2013)

Posted By: Designol
Vondelpark - Seabed (2013)

Vondelpark - Seabed (2013)
EAC | FLAC | Image (Cue&Log) ~ 277 Mb | Mp3 (CBR320) ~ 123 Mb | Scans included
Indie Pop, Electronic, R&B | Label: R&S Records | # RS1306CD | Time: 00:46:41

The UK R&B trio Vondelpark mix indie-pop vulnerability with sonic luxuriance. Arriving after a couple of EPs, their debut LP is the fullest realization of the project's immersive smoothness.

Vondelpark learned the virtues of patience the hard way. In 2009, when the UK trio's members were still well within their teens, their melodramatically doomy band Lion Club scored what must've felt like a huge break: Converse picked them to be the subjects of a 50-minute documentary on the travails of being in an emerging rock group. It isn't clear exactly what happened next, but tastes change, talent matures, and by August 2010, Vice posted a (no-longer-online) interview cheekily titled, "Vondelpark Has No MySpace, So You Can Only Learn About Him Here." A few months later, Vondelpark released the first of two EPs.

I bring up this history to reinforce how impressive Vondelpark's transformation has been. When singer, multi-instrumentalist, and producer Lewis Rainsbury told Pitchfork's Ryan Dombal that Rainsbury, guitarist/bassist Alex Bailey, and keyboardist Matt Law are "really the first band" on electronic-oriented Belgian label R&S, he wasn't kidding about the band part. Seabed is the fullest realization yet of the project's immersive smoothness, but what helps Vondelpark's debut album stand out in a deluge of "Radiohead quietstorm" is that full-band quality, the organic fluidity of a unit who've been playing together for years.

These days Vondelpark are so unhurried it's almost counterproductive. Seabed arrives at a time when late-night, half-lit, occasionally blue-eyed R&B, often with the disembodied samples and digital silences of UK bass music, has grown so abundant it wouldn't be entirely unreasonable to throw up your hands and go back to old Sade and Burial records instead. But Vondelpark's gradually acquired sense of restraint is so crucial to the album that its slightly overdue release timing feels symbolically appropriate, like the bass that falls behind the beat throughout D'Angelo's surrealistic-soul touchstone Voodoo. When you're eyeing the long haul, there's no rush.

Michael McDonald Rates Mac DeMarco, Nipple Piercings, and Golf

Seabed stretches out in a state of ecstatically aching limbo, gazing at the groove instead of shoes. The record's expansive sense of chronology manifests its in the first seconds of swaying ethereal opener "Quest", as Rainsbury, in his mumbly croon, keeps doubling back over his thoughts about growing old and flying to the moon. The title track describes a melancholy romantic holding pattern– "I won't say it, if you won't say it … You will realize"– as subdued synth-funk cycles toward its own just-out-of-reach epiphany. The largely beatless "Closer", where Rainsbury vows he's "never getting off this rollercoaster," conjures a weightlessness that's more astronaut than amusement-park free-fall.

In true Vondelpark style, Seabed is less a vast improvement on its predecessors than a subtle refinement. "California Analog Dream", reworked from 2010's Sauna EP, adds ghostly harmonica and a more pristinely recorded acoustic guitar, bringing the song's San Diego fantasy closer to classic 1980s UK indie-pop. But the dubwise horns and beatific bongos of 2011's nyc stuff and nyc bags EP, itself more polished than the debut, quite rightly led Pitchfork's Hari Ashurst to cite the sadly defunct Air France, who also mixed indie-pop vulnerability with sonic luxuriance. The pacific glow of Aretha Franklin-sampling "Bananas (On My Biceps)" has little more than a title in common with Sauna's grittier "Backflip (In the Sauna)", but the clean keys and distended drums of "Outro 4 Ariel" wouldn't be out of place on nyc stuff's "Outro for NYC".

Rainsbury, Bailey, and Law showed long ago that they could draw a crowd with a bold gesture, but Seabed's appeal after multiple listens is in its details. Bailey told London in Stereo his favorite song on the record is "Blue Again", a mood piece with melismatic, near-incomprehensible vocals, a crisp drum pattern that comes perilously close to smooth jazz, and a strangely familiar, pinging sound that's like an Apple computer telling you the cursor has gone too far. "Dracula", which submerges itself in sub-bass-y self-loathing, is no less appealing. But the most enduring track might also be the record's most overtly romantic: "Always Forever", a Drake-inspired dip into Mellow Mellow territory, where lyrical "tripping" suggests lovestruck clumsiness as much as psychedelics, and Rainsbury's "just saying" that you're having, he's having, a time (the time?) "of your life," so "go on." Much the same could be hoped for this studied young band.

Review by Marc Hogan, Pitchfork.com

Vondelpark - Seabed (2013)



Tracklist:

01. Quest (3:35)
02. Blue Again (5:06)
03. Dracula (4:36)
04. Come On (4:58)
05. Always Forever (2:51)
06. California Analog Dream (5:52)
07. Closer (4:34)
08. Seabed (5:33)
09. Bananas (On My Biceps) (4:07)
10. Outro 4 Ariel (5:30)


Exact Audio Copy V1.3 from 2. September 2016

Отчёт EAC об извлечении, выполненном 12. февраля 2017, 18:11

Vondelpark / Seabed

Дисковод: PIONEER BD-RW BDR-208M Adapter: 1 ID: 0

Режим чтения : Достоверность
Использование точного потока : Да
Отключение кэша аудио : Да
Использование указателей C2 : Нет

Коррекция смещения при чтении : 667
Способность читать области Lead-in и Lead-out : Нет
Заполнение пропущенных сэмплов тишиной : Да
Удаление блоков с тишиной в начале и конце : Нет
При вычислениях CRC использовались нулевые сэмплы : Да
Интерфейс : Встроенный Win32-интерфейс для Win NT/2000

Выходной формат : Пользовательский кодировщик
Выбранный битрейт : 1024 kBit/s
Качество : Высокий
Добавление ID3-тега : Да
Утилита сжатия : C:\Program Files\Exact Audio Copy\Flac\flac.exe
Дополнительные параметры : -V -8 -T "Date=%year%" -T "Genre=%genre%" %source%


TOC извлечённого CD

Трек | Старт | Длительность | Начальный сектор | Конечный сектор
––––––––––––––––––––––––––––––––––-
1 | 0:00.00 | 3:35.04 | 0 | 16128
2 | 3:35.04 | 5:06.21 | 16129 | 39099
3 | 8:41.25 | 4:35.57 | 39100 | 59781
4 | 13:17.07 | 4:58.24 | 59782 | 82155
5 | 18:15.31 | 2:50.39 | 82156 | 94944
6 | 21:05.70 | 5:52.34 | 94945 | 121378
7 | 26:58.29 | 4:33.52 | 121379 | 141905
8 | 31:32.06 | 5:32.55 | 141906 | 166860
9 | 37:04.61 | 4:06.53 | 166861 | 185363
10 | 41:11.39 | 5:29.45 | 185364 | 210083


Характеристики диапазона извлечения и сообщения об ошибках

Выбранный диапазон

Имя файла Z:\Музыка\Vondelpark\Vondelpark - Seabed\Vondelpark - Seabed.wav

Пиковый уровень 100.0 %
Скорость извлечения 6.4 X
Качество диапазона 99.9 %
CRC теста D8B601D6
CRC копии D8B601D6
Копирование… OK

Ошибок не произошло


AccurateRip: сводка

Трек 1 : извлечено точно (доверие 10) [7704DE80] (AR v2)
Трек 2 : извлечено точно (доверие 10) [7F455FEC] (AR v2)
Трек 3 : извлечено точно (доверие 10) [51CFFDCA] (AR v2)
Трек 4 : извлечено точно (доверие 10) [F17F6A25] (AR v2)
Трек 5 : извлечено точно (доверие 10) [3E47BEC6] (AR v2)
Трек 6 : извлечено точно (доверие 10) [3273791E] (AR v2)
Трек 7 : извлечено точно (доверие 10) [7CA2B04D] (AR v2)
Трек 8 : извлечено точно (доверие 10) [379448F1] (AR v2)
Трек 9 : извлечено точно (доверие 10) [A8AF7551] (AR v2)
Трек 10 : извлечено точно (доверие 10) [C25BE646] (AR v2)

Все треки извлечены точно

Конец отчёта

==== Контрольная сумма отчёта EB2BDC56FEAE04417EFD68FA50F1D0C83C5463B9DC7AF8E42AF985555B7361B0 ====

foobar2000 1.2 / Dynamic Range Meter 1.1.1
log date: 2017-11-15 03:04:51

––––––––––––––––––––––––––––––––––––––––
Analyzed: Vondelpark / Seabed
––––––––––––––––––––––––––––––––––––––––

DR Peak RMS Duration Track
––––––––––––––––––––––––––––––––––––––––
DR6 0.00 dB -8.97 dB 3:35 01-Quest
DR6 0.00 dB -9.08 dB 5:06 02-Blue Again
DR7 0.00 dB -9.16 dB 4:36 03-Dracula
DR7 0.00 dB -9.43 dB 4:58 04-Come On
DR8 0.00 dB -11.15 dB 2:51 05-Always Forever
DR6 0.00 dB -8.20 dB 5:52 06-California Analog Dream
DR8 0.00 dB -11.67 dB 4:34 07-Closer
DR9 0.00 dB -11.40 dB 5:33 08-Seabed
DR5 0.00 dB -8.51 dB 4:07 09-Bananas (On My Biceps)
DR7 0.00 dB -10.59 dB 5:30 10-Outro 4 Ariel
––––––––––––––––––––––––––––––––––––––––

Number of tracks: 10
Official DR value: DR7

Samplerate: 44100 Hz
Channels: 2
Bits per sample: 16
Bitrate: 783 kbps
Codec: FLAC
================================================================================

Vondelpark - Seabed (2013)

Vondelpark - Seabed (2013)

All thanks to original releaser - veingray

More interesting music in My Blog