VA - Warner Archives Sampler (1993) **[RE-UP]**

Posted By: TestTickles
VA - Warner Archives Sampler (1993) **[RE-UP]**

VA - Warner Archives Sampler (1993)
EAC Rip | FLAC with CUE and log | scans | 330 mb
MP3 CBR 320kbps | RAR | 130 mb
Genre: pop, soul, R&B, classic rock, bossa nova, art rock, jazz, vocal jazz

Warner Archives Sampler is a 1993 sampler CD released by Warner Bros. Records for their then-new reissue label Warner Archives, dedicated to material from their archives. Founded by Gregg Geller, it contains highlights from the first batch of their compilations and reissues/remasters.

1. The Everly Brothers - Cathy's Clown (2:22)
2. Tony Joe White - Polk Salad Annie (3:41)
3. Charles Wright and The Watts 103rd Street Rhythm Band - Express Yourself (3:51)
4. Faces - Stay With Me (4:37)
5. Lowell George - What Do You Want The Girl To Do (4:45)
6. Maria Muldaur - Midnight At The Oasis (3:47)
7. João Gilberto - Estate (6:27)
8. John Cale - Child's Christmas In Wales (3:19)
9. Nico - Janitor Of Lunacy (4:01)
10. Tower Of Power - You're Still A Young Man (5:35)
11. Count Basie & His Orchestra - I Left My Heart In San Francisco (2:30)
12. Jimmy Durante - As Time Goes By (2:25)
13. Bill Evans - Bill's Hit Tune (10:48)

Compilation produced by Gregg Geller
Digital mastering by Lee Hershberg

Exact Audio Copy V1.1 from 23. June 2015

EAC extraction logfile from 19. September 2016, 14:42

Various Artists / Warner Archives Sampler

Used drive : TEAC DVD-ROM DV-28SW Adapter: 1 ID: 0

Read mode : Secure
Utilize accurate stream : Yes
Defeat audio cache : Yes
Make use of C2 pointers : No

Read offset correction : 6
Overread into Lead-In and Lead-Out : No
Fill up missing offset samples with silence : Yes
Delete leading and trailing silent blocks : No
Null samples used in CRC calculations : Yes
Used interface : Native Win32 interface for Win NT & 2000
Gap handling : Appended to previous track

Used output format : Internal WAV Routines
Sample format : 44.100 Hz; 16 Bit; Stereo


TOC of the extracted CD

Track | Start | Length | Start sector | End sector
––––––––––––––––––––––––––––-
1 | 0:00.32 | 2:24.05 | 32 | 10836
2 | 2:24.37 | 3:42.73 | 10837 | 27559
3 | 6:07.35 | 3:53.05 | 27560 | 45039
4 | 10:00.40 | 4:38.52 | 45040 | 65941
5 | 14:39.17 | 4:48.38 | 65942 | 87579
6 | 19:27.55 | 3:48.55 | 87580 | 104734
7 | 23:16.35 | 6:28.42 | 104735 | 133876
8 | 29:45.02 | 3:21.03 | 133877 | 148954
9 | 33:06.05 | 4:02.55 | 148955 | 167159
10 | 37:08.60 | 5:36.07 | 167160 | 192366
11 | 42:44.67 | 2:31.58 | 192367 | 203749
12 | 45:16.50 | 2:27.40 | 203750 | 214814
13 | 47:44.15 | 10:49.42 | 214815 | 263531


Track 1

Filename C:\My Documents\My FLAC\VA - Warner Archives Sampler (1993) [FLAC]\01 - The Everly Brothers - Cathy's Clown.wav

Pre-gap length 0:00:02.32

Peak level 91.6 %
Extraction speed 1.8 X
Track quality 99.9 %
Test CRC E2E7361D
Copy CRC E2E7361D
Track not present in AccurateRip database
Copy OK

Track 2

Filename C:\My Documents\My FLAC\VA - Warner Archives Sampler (1993) [FLAC]\02 - Tony Joe White - Polk Salad Annie.wav

Pre-gap length 0:00:01.28

Peak level 100.0 %
Extraction speed 3.0 X
Track quality 100.0 %
Test CRC CAC05744
Copy CRC CAC05744
Accurately ripped (confidence 1) [0584D098] (AR v1)
Copy OK

Track 3

Filename C:\My Documents\My FLAC\VA - Warner Archives Sampler (1993) [FLAC]\03 - Charles Wright & The Watts 103rd Street Rhythm Band - Express Yourself.wav

Pre-gap length 0:00:02.08

Peak level 82.4 %
Extraction speed 2.7 X
Track quality 99.9 %
Test CRC 1D39E902
Copy CRC 1D39E902
Track not present in AccurateRip database
Copy OK

Track 4

Filename C:\My Documents\My FLAC\VA - Warner Archives Sampler (1993) [FLAC]\04 - Faces - Stay With Me.wav

Pre-gap length 0:00:01.41

Peak level 83.8 %
Extraction speed 3.6 X
Track quality 100.0 %
Test CRC 0BBAD53E
Copy CRC 0BBAD53E
Accurately ripped (confidence 1) [F4A8E7C7] (AR v1)
Copy OK

Track 5

Filename C:\My Documents\My FLAC\VA - Warner Archives Sampler (1993) [FLAC]\05 - Lowell George - What Do You Want The Girl To Do.wav

Pre-gap length 0:00:01.28

Peak level 94.6 %
Extraction speed 3.3 X
Track quality 99.9 %
Test CRC 293665FD
Copy CRC 293665FD
Accurately ripped (confidence 1) [D80BE2F3] (AR v1)
Copy OK

Track 6

Filename C:\My Documents\My FLAC\VA - Warner Archives Sampler (1993) [FLAC]\06 - Maria Muldaur - Midnight At The Oasis.wav

Pre-gap length 0:00:01.63

Peak level 77.1 %
Extraction speed 3.3 X
Track quality 99.9 %
Test CRC 31122FB0
Copy CRC 31122FB0
Accurately ripped (confidence 1) [A5A1F2C1] (AR v1)
Copy OK

Track 7

Filename C:\My Documents\My FLAC\VA - Warner Archives Sampler (1993) [FLAC]\07 - João Gilberto - Estate.wav

Pre-gap length 0:00:01.06

Peak level 75.2 %
Extraction speed 4.5 X
Track quality 100.0 %
Test CRC 54C5126E
Copy CRC 54C5126E
Accurately ripped (confidence 1) [831C370B] (AR v1)
Copy OK

Track 8

Filename C:\My Documents\My FLAC\VA - Warner Archives Sampler (1993) [FLAC]\08 - John Cale - Child's Christmas To Wales.wav

Pre-gap length 0:00:01.20

Peak level 81.7 %
Extraction speed 4.4 X
Track quality 100.0 %
Test CRC 6DC886A6
Copy CRC 6DC886A6
Accurately ripped (confidence 1) [04601320] (AR v1)
Copy OK

Track 9

Filename C:\My Documents\My FLAC\VA - Warner Archives Sampler (1993) [FLAC]\09 - Nico - Janitor of Lunacy.wav

Pre-gap length 0:00:01.53

Peak level 68.0 %
Extraction speed 4.7 X
Track quality 100.0 %
Test CRC 34D9803B
Copy CRC 34D9803B
Accurately ripped (confidence 1) [A27F8BC9] (AR v1)
Copy OK

Track 10

Filename C:\My Documents\My FLAC\VA - Warner Archives Sampler (1993) [FLAC]\10 - Tower Of Power - You're Still A Young Man.wav

Pre-gap length 0:00:01.43

Peak level 89.7 %
Extraction speed 4.9 X
Track quality 100.0 %
Test CRC AF123239
Copy CRC AF123239
Accurately ripped (confidence 1) [F5D9E28B] (AR v1)
Copy OK

Track 11

Filename C:\My Documents\My FLAC\VA - Warner Archives Sampler (1993) [FLAC]\11 - Count Basie & His Orchestra - I Left My Heart In San Francisco.wav

Pre-gap length 0:00:00.73

Peak level 97.9 %
Extraction speed 3.3 X
Track quality 100.0 %
Test CRC D4760CE5
Copy CRC D4760CE5
Accurately ripped (confidence 1) [6FE6F964] (AR v1)
Copy OK

Track 12

Filename C:\My Documents\My FLAC\VA - Warner Archives Sampler (1993) [FLAC]\12 - Jimmy Durante - As Time Goes By.wav

Pre-gap length 0:00:01.26

Peak level 85.3 %
Extraction speed 3.9 X
Track quality 100.0 %
Test CRC 50A6F018
Copy CRC 50A6F018
Accurately ripped (confidence 1) [4C45B449] (AR v1)
Copy OK

Track 13

Filename C:\My Documents\My FLAC\VA - Warner Archives Sampler (1993) [FLAC]\13 - Bill Evans - Bill's Hit Tune.wav

Pre-gap length 0:00:01.26

Peak level 93.4 %
Extraction speed 1.4 X
Track quality 100.0 %
Test CRC 1F8F66C5
Copy CRC 1F8F66C5
Accurately ripped (confidence 1) [8C77B9BF] (AR v1)
Copy OK


11 track(s) accurately ripped
2 track(s) not present in the AccurateRip database

Some tracks could not be verified as accurate

No errors occurred

End of status report

–– CUETools DB Plugin V2.1.6

[CTDB TOCID: ZWHxZZ2JKEhdiLHXrdsV.YaEyiA-] disk not present in database
Submit result: ZWHxZZ2JKEhdiLHXrdsV.YaEyiA- has been uploaded


==== Log checksum F018BB5C46D7E9AFD0E2580114A32CD45FB9B972BED09224ECAD4231AEBF6F2E ====


VA - Warner Archives Sampler (1993) **[RE-UP]**