Subcategories

Zubin Mehta, Orquestra de la Comunitat Valenciana - Wagner: Die Walkure (2009) [Blu-Ray]

Posted By: Vilboa
Zubin Mehta, Orquestra de la Comunitat Valenciana - Wagner: Die Walkure (2009) [Blu-Ray]

Zubin Mehta, Orquestra de la Comunitat Valenciana - Wagner: Die Walküre (2009) [Blu-Ray]
BluRay | BDMV | MPEG-4 AVC Video / 13976 kbps / 1080i / 29,970 fps | 244 min | 43,6 Gb
Audio1: German / LPCM Audio / 2.0 / 24-bit | Audio2: DTS-HD Master Audio / 7.1 / 48 kHz / 5543 kbps / 24-bit

BluRay-rip | AVC | MKV 1920x1080 / 6215 kbps / 29,97 fps | 244 min | 13,1 Gb
Audio: German / DTS / 6ch / 48.0 KHz / 24-bit
Classical | C Major | Sub: Deutsch, English, Francais, Espanol

La Fura dels Baus, famous for their opening ceremony of the Olympic games in Barcelona and opera stagings in Salzburg, Ruhrtriennale, etc., use in Rheingold 3D computer projections that evoke computer games, organic structures built of athletic performers that recall the "Cirque du soleil". “Uusitalo is a commanding, mellifluous Wotan and although Jennifer Wilson's Brünnhilde is relatively unnuanced dramatically, she sings strongly and sensitively…The youthful Orquestra de la Comunitat Valenciana obediently and expertly delivers the plushy textures and stagey rhetoric Mehta requires” (Gramophone).

Cast:
Siegmund – Peter Seiffert
Hunding – Matti Salminen
Wotan – Juha Uusitalo
Sieglinde – Petra Maria Schnitzer
Brünnhilde – Jennifer Wilson
Fricka – Anna Larsson
Gerhilde – Bernadette Flaitz
Ortlinde – Helen Huse Ralston
Waltraute – Pilar Vázquez
Schwertleite – Christa Mayer
Helmwige – Eugenia Bethencourt
Siegrune – Heike Grötzinger
Grimgerde – Manuela Bress
Roßweiße – Hannah Ester Minutillo
Orquestra de la Comunitat Valenciana
Conductor - Zubin Mehta


Disc Title: DIE_WALKURE
Disc Size: 46 889 631 544 bytes
Protection: AACS
BD-Java: No
Playlist: 00001.MPLS
Size: 42 518 403 072 bytes
Length: 4:04:07.065
Total Bitrate: 23,22 Mbps
Video: MPEG-4 AVC Video / 13976 kbps / 1080i / 29,970 fps / 16:9 / High Profile 4.1
Audio: German / LPCM Audio / 2.0 / 48 kHz / 2304 kbps / 24-bit
Audio: German / DTS-HD Master Audio / 7.1 / 48 kHz / 5543 kbps / 24-bit (DTS Core: 5.1 / 48 kHz / 1509 kbps / 24-bit)
Subtitle: German / 18,458 kbps
Subtitle: English / 19,319 kbps
Subtitle: French / 20,011 kbps
Subtitle: Spanish / 19,403 kbps


General
Unique ID : 210100194766909430916732982592199217348 (0x9E0FD35D4B8290079E556586FA2450C4)
Complete name : C:\Die_Walkure.mkv
Format : Matroska
Format version : Version 2
File size : 13.2 GiB
Duration : 4h 3mn
Overall bit rate : 7 749 Kbps
Movie name : Die_Walkure
Encoded date : UTC 2018-01-09 09:23:20
Writing application : DVDFab 9.1.6.8
Writing library : libebml v0.7.8 + libmatroska v0.8.1

Video
ID : 1
Format : AVC
Format/Info : Advanced Video Codec
Format profile : High@L4.1
Format settings, CABAC : Yes
Format settings, ReFrames : 2 frames
Codec ID : V_MPEG4/ISO/AVC
Duration : 4h 3mn
Bit rate : 6 215 Kbps
Width : 1 920 pixels
Height : 1 080 pixels
Display aspect ratio : 16:9
Frame rate mode : Constant
Frame rate : 29.970 fps
Color space : YUV
Chroma subsampling : 4:2:0
Bit depth : 8 bits
Scan type : Progressive
Bits/(Pixel*Frame) : 0.100
Stream size : 10.4 GiB (79%)
Writing library : x264 core 142
Encoding settings : cabac=1 / ref=1 / deblock=1:-1:-1 / analyse=0x3:0 / me=hex / subme=5 / psy=0 / mixed_ref=0 / me_range=16 / chroma_me=1 / trellis=0 / 8x8dct=1 / cqm=0 / deadzone=21,11 / fast_pskip=1 / chroma_qp_offset=0 / threads=8 / lookahead_threads=2 / sliced_threads=0 / nr=0 / decimate=1 / interlaced=0 / bluray_compat=0 / constrained_intra=0 / bframes=2 / b_pyramid=0 / b_adapt=1 / b_bias=0 / direct=1 / weightb=1 / open_gop=0 / weightp=0 / keyint=24 / keyint_min=13 / scenecut=40 / intra_refresh=0 / rc=abr / mbtree=0 / bitrate=6215 / ratetol=1.0 / qcomp=0.60 / qpmin=0 / qpmax=69 / qpstep=4 / ip_ratio=1.40 / pb_ratio=1.30 / aq=1:1.00
Default : Yes
Forced : No
Color primaries : BT.709
Transfer characteristics : BT.709
Matrix coefficients : BT.709
Color range : Limited

Audio
ID : 2
Format : DTS
Format/Info : Digital Theater Systems
Mode : 16
Format settings, Endianness : Big
Codec ID : A_DTS
Duration : 4h 3mn
Bit rate mode : Constant
Bit rate : 1 509 Kbps
Channel(s) : 6 channels
Channel positions : Front: L C R, Side: L R, LFE
Sampling rate : 48.0 KHz
Bit depth : 24 bits
Compression mode : Lossy
Stream size : 2.57 GiB (19%)
Language : German
Default : Yes
Forced : No

Text #1
ID : 3
Format : VobSub
Codec ID : S_VOBSUB
Codec ID/Info : The same subtitle format used on DVDs
Language : German
Default : Yes
Forced : No

Text #2
ID : 4
Format : VobSub
Codec ID : S_VOBSUB
Codec ID/Info : The same subtitle format used on DVDs
Language : English
Default : No
Forced : No

Text #3
ID : 5
Format : VobSub
Codec ID : S_VOBSUB
Codec ID/Info : The same subtitle format used on DVDs
Language : French
Default : No
Forced : No

Text #4
ID : 6
Format : VobSub
Codec ID : S_VOBSUB
Codec ID/Info : The same subtitle format used on DVDs
Language : Spanish
Default : No
Forced : No

Menu
00:00:00.000 : en:Chapter 01
00:02:10.797 : en:Chapter 02
00:05:07.307 : en:Chapter 03
00:08:53.199 : en:Chapter 04
00:17:19.705 : en:Chapter 05
00:22:24.910 : en:Chapter 06
00:28:26.471 : en:Chapter 07
00:32:37.221 : en:Chapter 08
00:38:35.813 : en:Chapter 09
00:44:40.678 : en:Chapter 10
00:51:57.514 : en:Chapter 11
00:55:16.313 : en:Chapter 12
01:02:45.495 : en:Chapter 13
01:08:19.095 : en:Chapter 14
01:10:22.751 : en:Chapter 15
01:14:01.036 : en:Chapter 16
01:19:22.724 : en:Chapter 17
01:28:58.332 : en:Chapter 18
01:34:58.693 : en:Chapter 19
01:40:44.038 : en:Chapter 20
01:46:32.719 : en:Chapter 21
01:53:30.804 : en:Chapter 22
02:02:47.226 : en:Chapter 23
02:05:53.546 : en:Chapter 24
02:09:15.848 : en:Chapter 25
02:17:44.923 : en:Chapter 26
02:24:16.447 : en:Chapter 27
02:29:57.488 : en:Chapter 28
02:34:52.283 : en:Chapter 29
02:39:40.871 : en:Chapter 30
02:45:04.094 : en:Chapter 31
02:53:27.797 : en:Chapter 32
02:56:59.775 : en:Chapter 33
03:03:56.025 : en:Chapter 34
03:08:21.490 : en:Chapter 35
03:18:08.076 : en:Chapter 36
03:23:07.141 : en:Chapter 37
03:31:55.903 : en:Chapter 38
03:40:43.430 : en:Chapter 39
03:46:00.613 : en:Chapter 40
03:52:57.296 : en:Chapter 41
04:01:18.163 : en:Chapter 42

All screenshots taken from BDRip

Zubin Mehta, Orquestra de la Comunitat Valenciana - Wagner: Die Walkure (2009) [Blu-Ray]