Subcategories

Daniel Barenboim, Orchestra of the Teatro alla Scala - Wagner: Gotterdammerung (2014) [Blu-ray]

Posted By: Vilboa
Daniel Barenboim, Orchestra of the Teatro alla Scala - Wagner: Gotterdammerung (2014) [Blu-ray]

Daniel Barenboim, Orchestra of the Teatro alla Scala - Wagner: Götterdämmerung (2014) [Blu-ray]
BluRay | BDMV | MPEG-4 AVC Video / 1080i / 29,970 fps | 291 min | 43,1 Gb
Audio1: German / LPCM Audio / 2.0 / 24-bit | Audio2: DTS-HD MA / 5.1 / 48 kHz / 24-bit

BluRay-rip | AVC | MKV 1920x1080 / 6215 kbps / 29,97 fps | 291 min | 15,7 Gb
Audio: German / DTS / 6ch / 48.0 KHz / 24 bits
Classical | Arthaus Musik | Sub: German, English, French, Spanish, Italian, Korean

Götterdämmerung, the final instalment of Wagner’s Ring of the Nibelung, is a story of human passions. Two essentially benevolent creatures, involved with and possibly doomed by their traffic with the gods, find treachery and evil in the world of the humans, and are ruined by the dark side of humanity.
Iréne Theorin, acclaimed worldwide for her portrayal of Wagner’s heroines, stars as Brünnhilde opposite Lance Ryan, who continues his radiant portrayal of the tragic hero Siegfried. The strong cast also includes Mikhail Petrenko as the dark antagonist Hagen and Johannes Martin Kränzle, who once again shines as his father Alberich. Waltraud Meier has a memorable appearance as Brünnhilde’s sister Waltraute.
With this 2013 recording of Götterdämmerung, the musically and visually compelling Scala Ring Cycle by Daniel Barenboim and Guy Cassiers was completed and proved to be one of the highlights of the Richard Wagner bicentenary.
“The production scores a triumph in the use of light-dark imagery to mirror the archetypal forces at play, underscoring the music rather than overwhelming it with images.” Opera Today

Cast:
Lance Ryan (Siegfried)
Gerd Grochowski (Gunther)
Johannes Martin Kränzle (Alberich)
Mikhail Petrenko (Hagen)
Iréne Theorin (Brünnhilde)
Anna Samuil (Gutrune/Dritte Norn)
Waltraud Meier (Waltraute/Zweite Norn)
Margarita Nekrasova (Erste Norn)
Aga Mikolaj (Woglinde)
Maria Gortsevskaya (Wellgunde)
Anna Lapkovskaja (Flosshilde)
Orchestra and Chorus of the Teatro alla Scala
Conductor - Daniel Barenboim


General
ID : 0 (0x0)
Complete name : C:\GOTTERDAMMERUNG\BDMV\STREAM\00007.m2ts
Format : BDAV
Format/Info : Blu-ray Video
File size : 41.9 GiB
Duration : 4h 51mn
Overall bit rate mode : Variable
Overall bit rate : 20.6 Mbps
Maximum Overall bit rate : 48.0 Mbps

Video
ID : 4113 (0x1011)
Menu ID : 1 (0x1)
Format : AVC
Format/Info : Advanced Video Codec
Format profile : High@L4.1
Format settings, CABAC : Yes
Format settings, ReFrames : 4 frames
Codec ID : 27
Duration : 4h 51mn
Bit rate mode : Variable
Maximum bit rate : 20.0 Mbps
Width : 1 920 pixels
Height : 1 080 pixels
Display aspect ratio : 16:9
Frame rate : 29.970 fps
Standard : NTSC
Color space : YUV
Chroma subsampling : 4:2:0
Bit depth : 8 bits
Scan type : MBAFF
Scan order : Top Field First
Color primaries : BT.709
Transfer characteristics : BT.709
Matrix coefficients : BT.709
Color range : Limited

Audio #1
ID : 4352 (0x1100)
Menu ID : 1 (0x1)
Format : PCM
Format settings, Endianness : Big
Format settings, Sign : Signed
Muxing mode : Blu-ray
Codec ID : 128
Duration : 4h 51mn
Bit rate mode : Constant
Bit rate : 2 304 Kbps
Channel(s) : 2 channels
Channel positions : Front: L R
Sampling rate : 48.0 KHz
Bit depth : 24 bits
Stream size : 4.69 GiB (11%)

Audio #2
ID : 4353 (0x1101)
Menu ID : 1 (0x1)
Format : DTS
Format/Info : Digital Theater Systems
Format profile : MA / Core
Mode : 16
Format settings, Endianness : Big
Muxing mode : Stream extension
Codec ID : 134
Duration : 4h 51mn
Bit rate mode : Variable
Bit rate : Unknown / 1 509 Kbps
Channel(s) : 6 channels
Channel positions : Front: L C R, Side: L R, LFE
Sampling rate : 48.0 KHz
Bit depth : 24 bits
Compression mode : Lossless / Lossy

Text #1
ID : 4608 (0x1200)
Menu ID : 1 (0x1)
Format : PGS
Codec ID : 144
Delay relative to video : 23s 390ms

Text #2
ID : 4609 (0x1201)
Menu ID : 1 (0x1)
Format : PGS
Codec ID : 144
Delay relative to video : 23s 390ms

Text #3
ID : 4610 (0x1202)
Menu ID : 1 (0x1)
Format : PGS
Codec ID : 144
Delay relative to video : 23s 390ms

Text #4
ID : 4611 (0x1203)
Menu ID : 1 (0x1)
Format : PGS
Codec ID : 144
Delay relative to video : 23s 390ms

Text #5
ID : 4612 (0x1204)
Menu ID : 1 (0x1)
Format : PGS
Codec ID : 144

Text #6
ID : 4613 (0x1205)
Menu ID : 1 (0x1)
Format : PGS
Codec ID : 144
Delay relative to video : 23s 390ms


General
Unique ID : 229514237785305639931551264335691977573 (0xACAAD596163A5E7E83216360054F1365)
Complete name : C:\Gotterdammerung.mkv
Format : Matroska
Format version : Version 2
File size : 15.8 GiB
Duration : 4h 51mn
Overall bit rate : 7 749 Kbps
Movie name : Gotterdammerung
Encoded date : UTC 2018-04-16 15:52:32
Writing application : DVDFab 9.1.6.8
Writing library : libebml v0.7.8 + libmatroska v0.8.1

Video
ID : 1
Format : AVC
Format/Info : Advanced Video Codec
Format profile : High@L4.1
Format settings, CABAC : Yes
Format settings, ReFrames : 2 frames
Codec ID : V_MPEG4/ISO/AVC
Duration : 4h 51mn
Bit rate : 6 215 Kbps
Width : 1 920 pixels
Height : 1 080 pixels
Display aspect ratio : 16:9
Frame rate mode : Constant
Frame rate : 29.970 fps
Color space : YUV
Chroma subsampling : 4:2:0
Bit depth : 8 bits
Scan type : Progressive
Bits/(Pixel*Frame) : 0.100
Stream size : 12.4 GiB (79%)
Writing library : x264 core 142
Encoding settings : cabac=1 / ref=1 / deblock=1:-1:-1 / analyse=0x3:0 / me=hex / subme=5 / psy=0 / mixed_ref=0 / me_range=16 / chroma_me=1 / trellis=0 / 8x8dct=1 / cqm=0 / deadzone=21,11 / fast_pskip=1 / chroma_qp_offset=0 / threads=8 / lookahead_threads=2 / sliced_threads=0 / nr=0 / decimate=1 / interlaced=0 / bluray_compat=0 / constrained_intra=0 / bframes=2 / b_pyramid=0 / b_adapt=1 / b_bias=0 / direct=1 / weightb=1 / open_gop=0 / weightp=0 / keyint=24 / keyint_min=13 / scenecut=40 / intra_refresh=0 / rc=abr / mbtree=0 / bitrate=6215 / ratetol=1.0 / qcomp=0.60 / qpmin=0 / qpmax=69 / qpstep=4 / ip_ratio=1.40 / pb_ratio=1.30 / aq=1:1.00
Default : Yes
Forced : No
Color primaries : BT.709
Transfer characteristics : BT.709
Matrix coefficients : BT.709
Color range : Limited

Audio
ID : 2
Format : DTS
Format/Info : Digital Theater Systems
Mode : 16
Format settings, Endianness : Big
Codec ID : A_DTS
Duration : 4h 51mn
Bit rate mode : Constant
Bit rate : 1 509 Kbps
Channel(s) : 6 channels
Channel positions : Front: L C R, Side: L R, LFE
Sampling rate : 48.0 KHz
Bit depth : 24 bits
Compression mode : Lossy
Stream size : 3.07 GiB (19%)
Language : German
Default : Yes
Forced : No

Text #1
ID : 3
Format : VobSub
Codec ID : S_VOBSUB
Codec ID/Info : The same subtitle format used on DVDs
Language : German
Default : Yes
Forced : No

Text #2
ID : 4
Format : VobSub
Codec ID : S_VOBSUB
Codec ID/Info : The same subtitle format used on DVDs
Language : English
Default : No
Forced : No

Text #3
ID : 5
Format : VobSub
Codec ID : S_VOBSUB
Codec ID/Info : The same subtitle format used on DVDs
Language : French
Default : No
Forced : No

Text #4
ID : 6
Format : VobSub
Codec ID : S_VOBSUB
Codec ID/Info : The same subtitle format used on DVDs
Language : Spanish
Default : No
Forced : No

Text #5
ID : 7
Format : VobSub
Codec ID : S_VOBSUB
Codec ID/Info : The same subtitle format used on DVDs
Language : Italian
Default : No
Forced : No

Text #6
ID : 8
Format : VobSub
Codec ID : S_VOBSUB
Codec ID/Info : The same subtitle format used on DVDs
Language : Korean
Default : No
Forced : No

Menu
00:00:00.000 : en:Chapter 01
00:03:36.049 : en:Chapter 02
00:05:51.584 : en:Chapter 03
00:15:53.018 : en:Chapter 04
00:21:51.310 : en:Chapter 05
00:24:50.489 : en:Chapter 06
00:31:20.578 : en:Chapter 07
00:38:39.150 : en:Chapter 08
00:43:46.623 : en:Chapter 09
00:49:22.726 : en:Chapter 10
00:54:03.473 : en:Chapter 11
00:56:27.183 : en:Chapter 12
01:03:23.566 : en:Chapter 13
01:10:47.142 : en:Chapter 14
01:17:05.621 : en:Chapter 15
01:22:25.941 : en:Chapter 16
01:28:48.323 : en:Chapter 17
01:37:34.849 : en:Chapter 18
01:48:24.364 : en:Chapter 19
01:55:07.600 : en:Chapter 20
01:58:52.125 : en:Chapter 21
02:05:11.403 : en:Chapter 22
02:10:16.508 : en:Chapter 23
02:14:27.726 : en:Chapter 24
02:24:08.640 : en:Chapter 25
02:31:00.718 : en:Chapter 26
02:40:01.425 : en:Chapter 27
02:41:14.097 : en:Chapter 28
02:44:22.852 : en:Chapter 29
02:50:26.149 : en:Chapter 30
02:56:48.598 : en:Chapter 31
03:03:12.982 : en:Chapter 32
03:13:18.587 : en:Chapter 33
03:22:07.515 : en:Chapter 34
03:25:33.321 : en:Chapter 35
03:29:05.299 : en:Chapter 36
03:37:06.847 : en:Chapter 37
03:42:44.017 : en:Chapter 38
03:47:06.713 : en:Chapter 39
03:49:45.104 : en:Chapter 40
03:54:43.903 : en:Chapter 41
03:59:44.069 : en:Chapter 42
04:03:29.595 : en:Chapter 43
04:09:56.982 : en:Chapter 44
04:18:47.945 : en:Chapter 45
04:22:58.129 : en:Chapter 46
04:32:35.105 : en:Chapter 47
04:36:31.074 : en:Chapter 48
04:48:43.306 : en:Chapter 49

All screenshots taken from BDRip

Daniel Barenboim, Orchestra of the Teatro alla Scala - Wagner: Gotterdammerung (2014) [Blu-ray]