Subcategories

Wally - Montpellier (2010)

Posted By: gribovar
Wally - Montpellier (2010)

Wally - Montpellier (2010)
EAC Rip | FLAC (image+.cue+log) - 365 MB | MP3 CBR 320 kbps (LAME 3.93) - 136 MB | Covers (6 MB) included
Genre: Progressive Rock | RAR 3% Rec. | Label: Wally Music (HST093CD)

Wally originated in England in the early 1970’s. In 1974, they released their debut album, which, interestingly was recorded at Morgan Recording Studios, the same place that Black Sabbath and Yes had recorded. The album was co-produced by Yes keyboardist Rick Wakeman. The album ended up being one of those releases that was heralded by musicians but failed to capture the ears of the general public. The band went their separate ways for thirty years but then, unexpectedly, in 2009 they reunited. Led by original members Roy Webber, Paul Middleton, Pete Sage, Roger Narraway and Nick Glennie-Smith, the band added Frank Mizen on pedal steel and Will Jackson on guitar.
The band sold out a gig in their hometown and recorded a DVD of the show. They discovered they still had the spark and went back into the studio.
Montpellier is part Wally, part Pink Floyd and part Grateful Dead. These diverse styles lead to one heck of an enjoyable listening experience. From the opening track of “Sailor” to the final notes of the emotional “Giving” Wally proves they were a great band who deserved much more than the business of music gave them.

Tracklist:
01. Sailor
02. Sister Moon
03. Thrill Is Gone
04. Surfing
05. In The Night
06. Human
07. She Said
08. Giving

Total time: 55:19

Exact Audio Copy V0.99 prebeta 4 from 23. January 2008

Отчёт EAC об извлечении, выполненном 13. июля 2012, 0:30

Wally / Montpellier

Дисковод: ASUS DRW-24B1ST Adapter: 3 ID: 0

Режим чтения : Достоверность
Использование точного потока : Да
Отключение кэша аудио : Да
Использование указателей C2 : Нет

Коррекция смещения при чтении : 6
Способность читать области Lead-in и Lead-out : Нет
Заполнение пропущенных сэмплов тишиной : Да
Удаление блоков с тишиной в начале и конце : Нет
При вычислениях CRC использовались нулевые сэмплы : Да
Интерфейс : Встроенный Win32-интерфейс для Win NT/2000

Выходной формат : Пользовательский кодировщик
Выбранный битрейт : 768 kBit/s
Качество : Высокий
Добавление ID3-тэга : Нет
Утилита сжатия : C:\Program Files\Exact Audio Copy\FLAC\FLAC.EXE
Дополнительные параметры : -6 -V -T "ARTIST=%a" -T "TITLE=%t" -T "ALBUM=%g" -T "DATE=%y" -T "TRACKNUMBER=%n" -T "GENRE=%m" -T "COMMENT=%e" %s -o %d


TOC извлечённого CD

Трек | Старт | Длительность | Начальный сектор | Конечный сектор
––––––––––––––––––––––––––––––––––-
1 | 0:00.00 | 7:40.58 | 0 | 34557
2 | 7:40.58 | 6:03.55 | 34558 | 61837
3 | 13:44.38 | 6:01.63 | 61838 | 88975
4 | 19:46.26 | 7:16.47 | 88976 | 121722
5 | 27:02.73 | 6:05.64 | 121723 | 149161
6 | 33:08.62 | 6:28.58 | 149162 | 178319
7 | 39:37.45 | 7:16.53 | 178320 | 211072
8 | 46:54.23 | 8:24.28 | 211073 | 248900


Характеристики диапазона извлечения и сообщения об ошибках

Выбранный диапазон

Имя файла D:\purple\EAC\Wally - Montpellier.wav

Пиковый уровень 99.9 %
Качество диапазона 99.9 %
CRC теста D1F2A55C
CRC копии D1F2A55C
Копирование… OK

Ошибок не произошло


AccurateRip: сводка

Трек 1 нет в базе данных
Трек 2 нет в базе данных
Трек 3 нет в базе данных
Трек 4 нет в базе данных
Трек 5 нет в базе данных
Трек 6 нет в базе данных
Трек 7 нет в базе данных
Трек 8 нет в базе данных

Ни одного трека нет в базе AccurateRip

Конец отчёта

[CUETools log; Date: 13.01.2018 12:27:59; Version: 2.1.4]
[CTDB TOCID: NkfZ1pE3kw1nNM2jxvKXx4jh37I-] found.
Track | CTDB Status
1 | (1/1) Accurately ripped
2 | (1/1) Accurately ripped
3 | (1/1) Accurately ripped
4 | (1/1) Accurately ripped
5 | (1/1) Accurately ripped
6 | (1/1) Accurately ripped
7 | (1/1) Accurately ripped
8 | (1/1) Accurately ripped
[AccurateRip ID: 0010b397-006f40af-760cf608] found.
Track [ CRC | V2 ] Status
01 [14e265e8|379c11fb] (0+2/2) Accurately ripped
02 [e480f6c6|6eb436a8] (0+2/2) Accurately ripped
03 [fe632cf3|36d15a89] (0+2/2) Accurately ripped
04 [d2f15386|a16afbba] (0+2/2) Accurately ripped
05 [787ac3e9|c6d393c2] (0+2/2) Accurately ripped
06 [f56dcde0|e9783cde] (0+2/2) Accurately ripped
07 [6095854b|8cb4ef91] (0+2/2) Accurately ripped
08 [136a35e8|e2c06795] (0+2/2) Accurately ripped

Track Peak [ CRC32 ] [W/O NULL] [ LOG ]
– 99,9 [D1F2A55C] [D29F0199] CRC32
01 91,2 [F6CB7502] [D81D344A]
02 91,2 [E6A7746B] [137C6799]
03 99,9 [F7D970F4] [53D6157A]
04 99,9 [4B848CD1] [133CDFA2]
05 99,9 [3F9DD0CE] [FEE4B135]
06 90,5 [5839867C] [F034119E]
07 91,2 [CFBD1C72] [7A4E139E]
08 99,9 [1C3C8D65] [C2D89FD3]

Thanks to pppurple