Bach- Wispelwey - 6 Suites for Violoncello solo (1990, Channel Classics # CCS 1090)

Posted By: luckburz
Bach- Wispelwey - 6 Suites for Violoncello solo (1990, Channel Classics # CCS 1090)

Johann Sebastian Bach - Pieter Wispelwey - 6 Suites for violoncello Solo
2xCD | EAC+LOG+CUE | WV: 605 MB | Full Artwork: 27 MB | 5% Recovery Info
Label/Cat#: Channel Classics # CCS 1090 | Country/Year: Netherlands 1990
Genre: Classical | Style: Baroque, Cello

MD5 [X] CUE [X] LOG [X] INFO TEXT [X] ARTWORK [X]

my rip [ ] not my rip [X]

Bach- Wispelwey - 6 Suites for Violoncello solo (1990, Channel Classics # CCS 1090)


Exact Audio Copy V1.0 beta 2 from 29. April 2011

EAC extraction logfile from 27. March 2012, 20:14

Pieter Wispelwey / J.S. Bach - 6 Suites for violoncello Solo (CD1)

Used drive : HL-DT-STDVDRAM GH20NS10 Adapter: 4 ID: 0

Read mode : Secure
Utilize accurate stream : Yes
Defeat audio cache : Yes
Make use of C2 pointers : No

Read offset correction : 667
Overread into Lead-In and Lead-Out : No
Fill up missing offset samples with silence : Yes
Delete leading and trailing silent blocks : No
Null samples used in CRC calculations : Yes
Used interface : Installed external ASPI interface

Used output format : Internal WAV Routines
Sample format : 44.100 Hz; 16 Bit; Stereo


TOC of the extracted CD

Track | Start | Length | Start sector | End sector
––––––––––––––––––––––––––––-
1 | 0:00.00 | 2:26.50 | 0 | 10999
2 | 2:26.50 | 4:47.52 | 11000 | 32576
3 | 7:14.27 | 2:39.33 | 32577 | 44534
4 | 9:53.60 | 2:49.00 | 44535 | 57209
5 | 12:42.60 | 3:09.25 | 57210 | 71409
6 | 15:52.10 | 1:43.35 | 71410 | 79169
7 | 17:35.45 | 3:22.40 | 79170 | 94359
8 | 20:58.10 | 3:51.62 | 94360 | 111746
9 | 24:49.72 | 2:03.13 | 111747 | 120984
10 | 26:53.10 | 5:08.05 | 120985 | 144089
11 | 32:01.15 | 3:08.60 | 144090 | 158249
12 | 35:10.00 | 2:43.45 | 158250 | 170519
13 | 37:53.45 | 4:48.62 | 170520 | 192181
14 | 42:42.32 | 7:31.00 | 192182 | 226006
15 | 50:13.32 | 3:49.08 | 226007 | 243189
16 | 54:02.40 | 6:05.40 | 243190 | 270604
17 | 60:08.05 | 4:18.67 | 270605 | 290021
18 | 64:26.72 | 4:07.53 | 290022 | 308599


Range status and errors

Selected range

Filename Z:\NetLab\J.S. Bach - 6 Suites for violoncello Solo (Pieter Wispelwey) (1990) {2CDs Channel Classics CCS 1090}\CD1\J.S. Bach - 6 Suites for violoncello Solo (CD1).wav

Peak level 89.1 %
Extraction speed 6.7 X
Range quality 100.0 %
Test CRC E05E8042
Copy CRC E05E8042
Copy OK

No errors occurred


AccurateRip summary

Track 1 accurately ripped (confidence 2) [1857399C] (AR v1)
Track 2 accurately ripped (confidence 2) [9831C137] (AR v1)
Track 3 accurately ripped (confidence 2) [2DAE978D] (AR v1)
Track 4 accurately ripped (confidence 2) [9D4E0532] (AR v1)
Track 5 accurately ripped (confidence 2) [B24B16FE] (AR v1)
Track 6 accurately ripped (confidence 2) [E24D7463] (AR v1)
Track 7 accurately ripped (confidence 2) [7FCB45B5] (AR v1)
Track 8 accurately ripped (confidence 2) [658B909C] (AR v1)
Track 9 accurately ripped (confidence 2) [E04DAEAE] (AR v1)
Track 10 accurately ripped (confidence 2) [C8AB3466] (AR v1)
Track 11 accurately ripped (confidence 2) [DD6B7324] (AR v1)
Track 12 accurately ripped (confidence 2) [3F083179] (AR v1)
Track 13 accurately ripped (confidence 2) [ECEE6F45] (AR v1)
Track 14 accurately ripped (confidence 2) [8CB3CB3B] (AR v1)
Track 15 accurately ripped (confidence 2) [D81232EB] (AR v1)
Track 16 accurately ripped (confidence 2) [56A06430] (AR v1)
Track 17 accurately ripped (confidence 2) [6A3CD508] (AR v1)
Track 18 accurately ripped (confidence 2) [000E6AF2] (AR v1)

All tracks accurately ripped

End of status report

==== Log checksum CB676DF2CEB121849E86683ED0301FB9CEAC395CAC99A6A6AB20CF361AE39B09 ====

Exact Audio Copy V1.0 beta 2 from 29. April 2011

EAC extraction logfile from 27. March 2012, 22:05

Pieter Wispelwey / J.S. Bach - 6 Suites for violoncello Solo (CD2)

Used drive : HL-DT-STDVDRAM GH20NS10 Adapter: 4 ID: 0

Read mode : Secure
Utilize accurate stream : Yes
Defeat audio cache : Yes
Make use of C2 pointers : No

Read offset correction : 667
Overread into Lead-In and Lead-Out : No
Fill up missing offset samples with silence : Yes
Delete leading and trailing silent blocks : No
Null samples used in CRC calculations : Yes
Used interface : Installed external ASPI interface

Used output format : Internal WAV Routines
Sample format : 44.100 Hz; 16 Bit; Stereo


TOC of the extracted CD

Track | Start | Length | Start sector | End sector
––––––––––––––––––––––––––––-
1 | 0:00.00 | 3:26.47 | 0 | 15496
2 | 3:26.47 | 4:38.48 | 15497 | 36394
3 | 8:05.20 | 3:12.42 | 36395 | 50836
4 | 11:17.62 | 4:29.28 | 50837 | 71039
5 | 15:47.15 | 3:25.17 | 71040 | 86431
6 | 19:12.32 | 3:30.48 | 86432 | 102229
7 | 22:43.05 | 4:18.65 | 102230 | 121644
8 | 27:01.70 | 4:15.72 | 121645 | 140841
9 | 31:17.67 | 3:28.58 | 140842 | 156499
10 | 34:46.50 | 5:32.17 | 156500 | 181416
11 | 40:18.67 | 4:56.13 | 181417 | 203629
12 | 45:15.05 | 3:21.32 | 203630 | 218736
13 | 48:36.37 | 5:54.20 | 218737 | 245306
14 | 54:30.57 | 4:48.70 | 245307 | 266976
15 | 59:19.52 | 2:08.38 | 266977 | 276614
16 | 61:28.15 | 4:08.52 | 276615 | 295266
17 | 65:36.67 | 4:23.08 | 295267 | 314999
18 | 70:00.00 | 2:20.42 | 315000 | 325541


Range status and errors

Selected range

Filename Z:\NetLab\J.S. Bach - 6 Suites for violoncello Solo (Pieter Wispelwey) (1990) {2CDs Channel Classics CCS 1090}\CD2\J.S. Bach - 6 Suites for violoncello Solo (CD2).wav

Peak level 98.6 %
Extraction speed 8.2 X
Range quality 99.9 %
Test CRC A1485993
Copy CRC A1485993
Copy OK

No errors occurred


AccurateRip summary

Track 1 accurately ripped (confidence 2) [F65DDB25] (AR v1)
Track 2 accurately ripped (confidence 2) [B6165005] (AR v1)
Track 3 accurately ripped (confidence 2) [A1845A4D] (AR v1)
Track 4 accurately ripped (confidence 2) [B91B0764] (AR v1)
Track 5 accurately ripped (confidence 2) [827CD241] (AR v1)
Track 6 accurately ripped (confidence 2) [76CD15EA] (AR v1)
Track 7 accurately ripped (confidence 2) [7CA9BA12] (AR v1)
Track 8 accurately ripped (confidence 2) [96BADF35] (AR v1)
Track 9 accurately ripped (confidence 2) [71110B2C] (AR v1)
Track 10 accurately ripped (confidence 2) [99E389E0] (AR v1)
Track 11 accurately ripped (confidence 2) [FFDD8208] (AR v1)
Track 12 accurately ripped (confidence 2) [1232AC9A] (AR v1)
Track 13 accurately ripped (confidence 2) [74977358] (AR v1)
Track 14 accurately ripped (confidence 2) [B9779C43] (AR v1)
Track 15 accurately ripped (confidence 2) [6CDA2E16] (AR v1)
Track 16 accurately ripped (confidence 2) [366ED280] (AR v1)
Track 17 accurately ripped (confidence 2) [2D31BD82] (AR v1)
Track 18 accurately ripped (confidence 3) [66C94BAF] (AR v1)

All tracks accurately ripped

End of status report

==== Log checksum 2A24A68201088D2A369703F39FE2854670AECFBFDA2AD90E5A3E3C936247564F ====

foobar2000 1.3.8 / Dynamic Range Meter 1.1.1
log date: 2015-07-18 17:19:14

––––––––––––––––––––––––––––––––––––––––
Analyzed: Pieter Wispelwey / J.S. Bach - 6 Suites for violoncello Solo (CD1)
––––––––––––––––––––––––––––––––––––––––

DR Peak RMS Duration Track
––––––––––––––––––––––––––––––––––––––––
DR13 -1.86 dB -19.95 dB 2:27 01-Suite no.1 in G dur BWV 1007; I. Prelude
DR13 -1.93 dB -19.36 dB 4:48 02-II. Allemande
DR12 -4.04 dB -19.68 dB 2:39 03-III. Courante
DR12 -4.23 dB -20.62 dB 2:49 04-IV. Sarabande
DR12 -2.35 dB -19.04 dB 3:09 05-V. Menuet 1, 2
DR13 -2.45 dB -19.43 dB 1:43 06-VI. Gigue
DR14 -1.62 dB -20.18 dB 3:23 07-Suite no.2 in d moll BWV 1008; I. Prelude
DR14 -3.67 dB -20.72 dB 3:52 08-II. Allemande
DR14 -4.48 dB -21.01 dB 2:03 09-III. Courante
DR13 -5.89 dB -23.09 dB 5:08 10-IV. Sarabande
DR14 -1.40 dB -20.58 dB 3:09 11-V. Menuet 1, 2
DR14 -1.83 dB -21.03 dB 2:44 12-VI. Gigue
DR18 -1.00 dB -21.98 dB 4:49 13-Suite no.6 in D dur BWV 1012; I. Prelude
DR14 -7.14 dB -24.82 dB 7:31 14-II. Allemande
DR13 -6.60 dB -22.42 dB 3:49 15-III. Courante
DR13 -5.77 dB -22.70 dB 6:06 16-IV. Sarabande
DR13 -3.92 dB -20.87 dB 4:19 17-V. Menuet 1, 2
DR14 -1.69 dB -21.90 dB 4:08 18-VI. Gigue
––––––––––––––––––––––––––––––––––––––––

Number of tracks: 18
Official DR value: DR14

Samplerate: 44100 Hz
Channels: 2
Bits per sample: 16
Bitrate: 615 kbps
Codec: WavPack
================================================================================

––––––––––––––––––––––––––––––––––––––––
Analyzed: Pieter Wispelwey / J.S. Bach - 6 Suites for violoncello Solo (CD2)
––––––––––––––––––––––––––––––––––––––––

DR Peak RMS Duration Track
––––––––––––––––––––––––––––––––––––––––
DR14 -0.52 dB -18.57 dB 3:27 01-Suite no.3 in C dur BWV 1009; I. Prelude
DR15 -2.96 dB -20.96 dB 4:39 02-II. Allemande
DR13 -2.19 dB -19.61 dB 3:13 03-III. Courante
DR13 -4.08 dB -21.48 dB 4:29 04-IV. Sarabande
DR13 -3.25 dB -20.48 dB 3:25 05-V. Menuet 1, 2
DR14 -0.67 dB -19.17 dB 3:31 06-VI. Gigue
DR12 -0.12 dB -18.76 dB 4:19 07-Suite no.4 in Es dur BWV 1010; I. Prelude
DR14 -1.16 dB -19.42 dB 4:16 08-II. Allemande
DR13 -1.46 dB -19.13 dB 3:29 09-III. Courante
DR13 -2.81 dB -21.17 dB 5:32 10-IV. Sarabande
DR16 -0.28 dB -20.02 dB 4:56 11-V. Menuet 1, 2
DR14 -1.77 dB -18.61 dB 3:21 12-VI. Gigue
DR14 -3.34 dB -20.69 dB 5:54 13-Suite no.5 in c moll BWV 1011; I. Prelude
DR13 -3.23 dB -21.00 dB 4:49 14-II. Allemande
DR12 -1.73 dB -16.89 dB 2:09 15-III. Courante
DR12 -6.64 dB -24.47 dB 4:09 16-IV. Sarabande
DR14 -1.33 dB -19.44 dB 4:23 17-V. Menuet 1, 2
DR12 -2.27 dB -19.05 dB 2:21 18-VI. Gigue
––––––––––––––––––––––––––––––––––––––––

Number of tracks: 18
Official DR value: DR13

Samplerate: 44100 Hz
Channels: 2
Bits per sample: 16
Bitrate: 587 kbps
Codec: WavPack
================================================================================



CD Info:

Johann Sebastian Bach - Pieter Wispelwey - 6 Suites for violoncello Solo

Label: Channel Classics
Catalog#: CCS 1090
Format: 2xCD, Album
Country: Netherlands
Released: 1990
Genre: Classical
Style: Baroque, Cello

Tracklist:

CD1:
1 Suite no.1 in G dur BWV 1007; I. Prelude 2:27
2 II. Allemande 4:48
3 III. Courante 2:39
4 IV. Sarabande 2:49
5 V. Menuet 1, 2 3:09
6 VI. Gigue 1:43
7 Suite no.2 in d moll BWV 1008; I. Prelude 3:23
8 II. Allemande 3:52
9 III. Courante 2:03
10 IV. Sarabande 5:08
11 V. Menuet 1, 2 3:09
12 VI. Gigue 2:44
13 Suite no.6 in D dur BWV 1012; I. Prelude 4:49
14 II. Allemande 7:31
15 III. Courante 3:49
16 IV. Sarabande 6:06
17 V. Menuet 1, 2 4:19
18 VI. Gigue 4:08

CD2:
1 Suite no.3 in C dur BWV 1009; I. Prelude 3:27
2 II. Allemande 4:39
3 III. Courante 3:13
4 IV. Sarabande 4:29
5 V. Menuet 1, 2 3:25
6 VI. Gigue 3:31
7 Suite no.4 in Es dur BWV 1010; I. Prelude 4:19
8 II. Allemande 4:16
9 III. Courante 3:29
10 IV. Sarabande 5:32
11 V. Menuet 1, 2 4:56
12 VI. Gigue 3:21
13 Suite no.5 in c moll BWV 1011; I. Prelude 5:54
14 II. Allemande 4:49
15 III. Courante 2:09
16 IV. Sarabande 4:09
17 V. Menuet 1, 2 4:23
18 VI. Gigue 2:21

‘Best release of the year‘
Richard Dyer (Boston Globe)

(…) worlds of expression and sound of which his more famous predecessors only dreamed (…) Los Angeles Reader (…) A change from the old decadence, but an alarming foretaste of the new (…)
Strings, February 1995

(…) Tatsache ist, da Pieter Wispelwey zu allererst ganz vorzglich und spannend, souvern und aufrägened Cello spielen kann. Er tut es mit dem jeweils adquaten historischen Empfinden (…) (…) Ich empfehle jede der zehn mir vorliegenden Einspielungen gerade deshalb, weil jede einzelne ihre ganz spezifische Aura besitz, weil also Wispelwey nie gleich Wispelwey ist. (…)
Salzburger Nachrichten, March 1996

Thanks to pr3ss!

Bach- Wispelwey - 6 Suites for Violoncello solo (1990, Channel Classics # CCS 1090)


all of my uploads in my blog
________________

NITROFLARE

Music Pt. 1 | Music Pt. 2 | Music Pt. 3

Artwork

________________