Subcategories

Chico Hamilton - The Master (1973) {2016 Stax-Culture Factory USA Vinyl Replica Collectors Limited Edition 24/96 remastering}

Posted By: ruskaval
Chico Hamilton - The Master (1973) {2016 Stax-Culture Factory USA Vinyl Replica Collectors Limited Edition 24/96 remastering}

Chico Hamilton - The Master (1973) {2016 Stax-Culture Factory USA Vinyl Replica Collectors Limited Edition 24/96 remastering}
EAC rip (secure mode) | FLAC (tracks)+CUE+LOG -> 265 Mb | MP3 @320 -> 87 Mb
Full Artwork @ 300 dpi (jpg) -> 13 Mb | 5% repair rar | 24bit/96kHz remastering
© 1973, 2016 Stax / Concord / Culture Factory USA | CFU01119 | Vinyl Replica
Jazz / Jazz Funk / Fusion / Drums

A totally excellent bit of funk from Chico Hamilton – working with a great group that more than helps their leader live up to the album's title! The record's a real lost gem – and it's got Chico working in much funkier territory than before, grooving with complicated rhythms, and a heavy sound that features lots of work on organ and guitar. Lowell George (of Little Feat fame) is playing slide guitar in the group, giving the sound a great, muddy propellant – which only gets stronger with the help of Simon Nava and Sam Clayton on congas, plus heavy organ and piano by Stu Garner, Jerry Aiello and Bill Payne. Includes the killer Latin groover "Conquistadores 74", plus "Stu", "Feels Good", "Fancy", "Stacy", Gengis" and "I Can Hear The Grass Grow".
Chico Hamilton - The Master (1973) {2016 Stax-Culture Factory USA Vinyl Replica Collectors Limited Edition 24/96 remastering}


Culture Factory USA INFO

Personnel:
Chico Hamilton - Drums
Bill Payne - Piano
Simon Nava - Congas
George Lowell - Guitar
Kenny Gradney - Bass
Paul Barrere - Guitar
Stu Gardner - Organ
Sam Clayton - Congas
Jerry Aiello - Organ

tracklist:
01 - One Day Five Months Ago
02 - Feels Good
03 - Fancy
04 - Stu
05 - Gengis
06 - Conquistadores 74
07 - Stacy
08 - I Can Hear The Grass Grow

Exact Audio Copy V1.1 from 23. June 2015

EAC extraction logfile from 2. December 2016, 18:25

Chico Hamilton / The Master

Used drive : MATSHITADVD+-RW SW830 Adapter: 1 ID: 0

Read mode : Secure
Utilize accurate stream : Yes
Defeat audio cache : Yes
Make use of C2 pointers : No

Read offset correction : 6
Overread into Lead-In and Lead-Out : No
Fill up missing offset samples with silence : Yes
Delete leading and trailing silent blocks : No
Null samples used in CRC calculations : Yes
Used interface : Native Win32 interface for Win NT & 2000
Gap handling : Appended to previous track

Used output format : User Defined Encoder
Selected bitrate : 896 kBit/s
Quality : High
Add ID3 tag : No
Command line compressor : C:\Program Files (x86)\Exact Audio Copy\Flac\flac.exe
Additional command line options : -8 -V -T "ARTIST=%artist%" -T "TITLE=%title%" -T "ALBUM=%albumtitle%" -T "DATE=%year%" -T "TRACKNUMBER=%tracknr%" -T "TOTALTRACKS=%numtracks%" -T "GENRE=%genre%" -T "ALBUMARTIST=%albumartist%" -T "ALBUM ARTIST=%albumartist%" -T "COMMENT=EAC Secure Mode, Test & Copy, AccurateRip, FLAC -8" %source%


TOC of the extracted CD

Track | Start | Length | Start sector | End sector
––––––––––––––––––––––––––––-
1 | 0:00.00 | 8:02.14 | 0 | 36163
2 | 8:02.14 | 5:32.03 | 36164 | 61066
3 | 13:34.17 | 3:10.74 | 61067 | 75390
4 | 16:45.16 | 3:56.72 | 75391 | 93162
5 | 20:42.13 | 4:06.36 | 93163 | 111648
6 | 24:48.49 | 3:33.38 | 111649 | 127661
7 | 28:22.12 | 4:20.14 | 127662 | 147175
8 | 32:42.26 | 4:10.74 | 147176 | 165999


Track 1

Filename G:\New Rips\Chico Hamilton - The Master (1973) [FLAC]\01 - One Day Five Months Ago.wav

Pre-gap length 0:00:02.00

Peak level 99.4 %
Extraction speed 4.9 X
Track quality 100.0 %
Test CRC EC0942D3
Copy CRC EC0942D3
Track not present in AccurateRip database
Copy OK

Track 2

Filename G:\New Rips\Chico Hamilton - The Master (1973) [FLAC]\02 - Feels Good.wav

Peak level 99.4 %
Extraction speed 5.5 X
Track quality 100.0 %
Test CRC B41B87EB
Copy CRC B41B87EB
Track not present in AccurateRip database
Copy OK

Track 3

Filename G:\New Rips\Chico Hamilton - The Master (1973) [FLAC]\03 - Fancy.wav

Peak level 99.4 %
Extraction speed 5.5 X
Track quality 100.0 %
Test CRC D35900B2
Copy CRC D35900B2
Track not present in AccurateRip database
Copy OK

Track 4

Filename G:\New Rips\Chico Hamilton - The Master (1973) [FLAC]\04 - Stu.wav

Peak level 99.4 %
Extraction speed 5.9 X
Track quality 100.0 %
Test CRC C7E83D5B
Copy CRC C7E83D5B
Track not present in AccurateRip database
Copy OK

Track 5

Filename G:\New Rips\Chico Hamilton - The Master (1973) [FLAC]\05 - Gengis.wav

Peak level 99.4 %
Extraction speed 6.3 X
Track quality 100.0 %
Test CRC 17A80610
Copy CRC 17A80610
Track not present in AccurateRip database
Copy OK

Track 6

Filename G:\New Rips\Chico Hamilton - The Master (1973) [FLAC]\06 - Conquistadores 74.wav

Peak level 99.4 %
Extraction speed 6.5 X
Track quality 100.0 %
Test CRC 38134826
Copy CRC 38134826
Track not present in AccurateRip database
Copy OK

Track 7

Filename G:\New Rips\Chico Hamilton - The Master (1973) [FLAC]\07 - Stacy.wav

Peak level 99.4 %
Extraction speed 6.9 X
Track quality 100.0 %
Test CRC 976E7461
Copy CRC 976E7461
Track not present in AccurateRip database
Copy OK

Track 8

Filename G:\New Rips\Chico Hamilton - The Master (1973) [FLAC]\08 - I Can Hear The Grass Grow.wav

Peak level 99.4 %
Extraction speed 6.0 X
Track quality 99.9 %
Test CRC 7C1D9C39
Copy CRC 7C1D9C39
Track not present in AccurateRip database
Copy OK


None of the tracks are present in the AccurateRip database

No errors occurred

End of status report

–– CUETools DB Plugin V2.1.6

[CTDB TOCID: evLhdsZJrnKMzoBD67wi2TBChiE-] disk not present in database
Submit result: evLhdsZJrnKMzoBD67wi2TBChiE- has been uploaded


==== Log checksum 66C2C7EAD960B898DF57368CE9B97C1D1E432CC0544ED838B6A2FD6B112F75AD ====


Chico Hamilton - The Master (1973) {2016 Stax-Culture Factory USA Vinyl Replica Collectors Limited Edition 24/96 remastering}

Chico Hamilton - The Master (1973) {2016 Stax-Culture Factory USA Vinyl Replica Collectors Limited Edition 24/96 remastering}



===