Subcategories

Commander Cody & His Lost Planet Airmen - 3 Original Warner Albums (2016) {2CD BGO Records rec 1975-1976}

Posted By: ruskaval
Commander Cody & His Lost Planet Airmen - 3 Original Warner Albums (2016) {2CD BGO Records rec 1975-1976}

Commander Cody & His Lost Planet Airmen - 3 Original Warner Albums (2016) {2CD BGO Records rec 1975-1976}
EAC rip (secure mode) | FLAC (tracks)+CUE+LOG -> 948 Mb | MP3 @320 -> 325 Mb
Full Artwork @ 300 dpi (png) -> 46 Mb | 5% repair rar
© 1975-76, 2016 Warner / BGO Records | BGOCD1238
Rock / Country / Country Rock / Rock & Roll / Western Swing Revival

Commander Cody & His Lost Planet Airmen - Commander Cody And His Lost Planet Airmen/Tales From The Ozone/We've Got A Live One Here! Digitally remastered two CD set containing Commander Cody's three Warner Bros albums from 1975 and 1976. Immensely popular live, this country rock-western swing-rockabilly band couldn't quite achieve great chart success. All three albums here did make the US Top 200, but Cody decided to disband the act in 1976,We've Got A Live One Here! was recorded in England during their tour in January and February 1976.
Commander Cody & His Lost Planet Airmen - 3 Original Warner Albums (2016) {2CD BGO Records rec 1975-1976}

I'd admit that Idaho's George Frayne (Commander Cody) and his crew of permanently Lost Airmen produced Country music that is actually hard to define. You take straight up story-song pedal-steel Country as a base – and every second song you throw in some 40s Swing, 50's R&B and Rockabilly – then layer that lot with some good old knees-up-mother-brown 60ts brass backing – and you get an approximation of the ever so slightly anarchic musical stew that's on offer here. Great fun for sure when it works – but a shade short of hammy awful when it doesn't.

But all musical summations aside - if you're a fan of Commander Cody – then a state of seventh heaven awaits you here because the High Definition Audio Remaster on these 2016 British CDs is truly fabulous stuff (taken from first generation master tapes). Here are the not so lost details…

There's a card slipcase which always makes these BGO releases feel classy – a 16-page booklet new liner notes from noted writer JOHN O'REGAN – photos of the band recording – album credits and so on. It discusses their first four albums on Paramount and then the trio – presented here – two studios efforts for Warner Brothers and a live double that includes material from entire career stretching back to 1971. But the big news is the 'Mastered In High Definition Audiophile Recording From The Original Master' emblazoned across the top of the card slipcase. Carried out by BGO's resident sound engineer ANDREW THOMPSON – the Audio is a total triumph. There's amazing clarity and warmth on both of these CDs – a great sound that doesn't feel amped up for the sake of it.

Hoyt Axton stumped up the opening "Southbound" – the bass and vocals so clear. Jesse Stone wrote the irrepressible bop of 'Don't Let Go" and the golden-voiced Roy Hamilton had a hit with it in 1958 on Epic Records – a great R&B dancer. Cody sticks pretty much to that bopping formula. By direct contrast is the pure country tune of "California Okie" – a lost-my-wife song supplied by Kevin 'Blackie' Farrell. They attempt a passable version of Little Feat's "Willin'" but it isn't a patch on Lowell George's hurting original. Better fun is the barrelhouse piano of "The Boogie Man Boogie" – a song about a ghost who won't leave the black and white keys alone in the dead of night. Another goody in that R&B vein is "House Of Blue Lights" – a 78" hit for Eddie Slack and Ella May Morse on Capitol Records way back in 1946 (Jerry Lee Lewis did a cover of it too). Bob Wills and his Playboys along with Phil Harris (the voice of Baloo The Bear in The Jungle Book) both had a hit with "That's Why I Like About The South" – so Cody keeps it Country and ends the album well.

Although it tries to seem like it's having fun - the 2nd Warners LP feels forced with ill-advised covers of Cab Calloway's "Minnie The Moocher" and Lieber/Stoller's "The Shadow Knows" which The Coasters did in 1958 on Atlantic. Better is "Honky Tonk Music" - a huge sing-a-long crowd pleaser. Hoyt Axton's "Lightnin' Bar Blues" is very good – a man wanting to have a brewski in peace. The live double screams good time R&B shindig more than line-dancing country – the audience whooping and hollering to "Smoke! Smoke! Smoke!" and the final flourish of R 'n' B and R 'n' R tunes like "Rock That Boogie" and Charlie Ryan's 1959 Rockabilly winner "Red Hot Lincoln".

Commander Cody and his Lost Planet Airmen and the music on these 2CDs are very much an acquired taste. But if you're partial – you'll need to own it for that truly stunning audio. And don't you just love that 'spacemen' artwork.. –Mark Barry, Amazon.co.uk
Commander Cody & His Lost Planet Airmen - 3 Original Warner Albums (2016) {2CD BGO Records rec 1975-1976}


Track Listing:
Disc 1:
Commander Cody And His Lost Planet Airmen (1975)

1. Southbound
2. Don't Let Go
3. California Okie
4. Willin'
5. The Boogie Man Boogie
6. Hawaii Blues
7. House Of Blue Lights
8. Keep On Lovin' Her
9. Devil And Me
10. Four Or Five Times
11. That's What I Like About The South

Tales From The Ozone (1975)
12. Minnie The Moocher
13. It's Gonna Be One Of Those Nights
14. Connie
15. I've Been To Georgia On A Fast Train
16. Honky Tonk Music
17. Lightnin' Bar Blues
18. Paid In Advance
19. Cajun Baby
20. Tina Louise
21. The Shadow Knows
22. Roll Your Own
23. Gypsy Fiddle

Commander Cody & His Lost Planet Airmen - 3 Original Warner Albums (2016) {2CD BGO Records rec 1975-1976}


Disc 2:
We've Got A Live One Here! (1976)

1. One Of Those Nights
2. Semi Truck
3. Smoke! Smoke! Smoke!
4. Big Mamou
5. San Antonio Rose
6. 18 Wheels
7. Mama Hated Diesels
8. Lookin' At The World Through A Windshell
9. My Window Faces South
10. Milkcow Blues
11. It Should've Been Me
12. Back To Tennessee
13. Seeds And Stems
14. Rock That Boogie
15. Riot In Cell Block No. 9
16. Don't Let Go
17. Too Much Fun
18. Hot Rod Lincoln
19. Lost In The Ozone

Commander Cody & His Lost Planet Airmen - 3 Original Warner Albums (2016) {2CD BGO Records rec 1975-1976}


Exact Audio Copy V1.2 from 12. August 2016

EAC extraction logfile from 15. October 2016, 19:51

Commander Cody & His Lost Planet Airmen / Commander Cody & His Lost Planet Airmen / Tales From The Ozone

Used drive : TSSTcorpCDDVDW SH-224BB Adapter: 1 ID: 0

Read mode : Secure
Utilize accurate stream : Yes
Defeat audio cache : Yes
Make use of C2 pointers : No

Read offset correction : 6
Overread into Lead-In and Lead-Out : No
Fill up missing offset samples with silence : Yes
Delete leading and trailing silent blocks : No
Null samples used in CRC calculations : Yes
Used interface : Native Win32 interface for Win NT & 2000
Gap handling : Appended to previous track

Used output format : User Defined Encoder
Selected bitrate : 768 kBit/s
Quality : High
Add ID3 tag : No
Command line compressor : C:\Program Files (x86)\Exact Audio Copy\Flac\flac.exe
Additional command line options : -8 -V -T "ARTIST=%artist%" -T "TITLE=%title%" -T "ALBUM=%albumtitle%" -T "DATE=%year%" -T "TRACKNUMBER=%tracknr%" -T "TOTALTRACKS=%numtracks%" -T "GENRE=%genre%" -T "ALBUMARTIST=%albumartist%" -T "ALBUM ARTIST=%albumartist%" -T "COMMENT=EAC Secure Mode, Test & Copy, AccurateRip, FLAC -8" %source%


TOC of the extracted CD

Track | Start | Length | Start sector | End sector
––––––––––––––––––––––––––––-
1 | 0:00.00 | 2:21.11 | 0 | 10585
2 | 2:21.11 | 2:40.55 | 10586 | 22640
3 | 5:01.66 | 2:48.18 | 22641 | 35258
4 | 7:50.09 | 3:38.36 | 35259 | 51644
5 | 11:28.45 | 3:35.39 | 51645 | 67808
6 | 15:04.09 | 3:05.32 | 67809 | 81715
7 | 18:09.41 | 2:41.03 | 81716 | 93793
8 | 20:50.44 | 3:13.25 | 93794 | 108293
9 | 24:03.69 | 3:11.59 | 108294 | 122677
10 | 27:15.53 | 2:29.74 | 122678 | 133926
11 | 29:45.52 | 2:37.63 | 133927 | 145764
12 | 32:23.40 | 3:50.35 | 145765 | 163049
13 | 36:14.00 | 2:17.60 | 163050 | 173384
14 | 38:31.60 | 2:52.63 | 173385 | 186347
15 | 41:24.48 | 2:47.32 | 186348 | 198904
16 | 44:12.05 | 3:39.42 | 198905 | 215371
17 | 47:51.47 | 2:35.32 | 215372 | 227028
18 | 50:27.04 | 2:50.18 | 227029 | 239796
19 | 53:17.22 | 2:41.65 | 239797 | 251936
20 | 55:59.12 | 3:27.43 | 251937 | 267504
21 | 59:26.55 | 2:30.59 | 267505 | 278813
22 | 61:57.39 | 3:21.73 | 278814 | 293961
23 | 65:19.37 | 3:02.70 | 293962 | 307681


Track 1

Filename C:\Rips\Commander Cody & His Lost Planet Airmen - 3 Warner Albums (2016) [FLAC]\CD1\01 - Southbound.wav

Pre-gap length 0:00:02.00

Peak level 85.7 %
Extraction speed 1.5 X
Track quality 100.0 %
Test CRC 8BA4374A
Copy CRC 8BA4374A
Accurately ripped (confidence 2) [94C90717] (AR v2)
Copy OK

Track 2

Filename C:\Rips\Commander Cody & His Lost Planet Airmen - 3 Warner Albums (2016) [FLAC]\CD1\02 - Don't Let Go.wav

Peak level 85.3 %
Extraction speed 1.7 X
Track quality 100.0 %
Test CRC 5450F2F6
Copy CRC 5450F2F6
Accurately ripped (confidence 2) [0F7441BD] (AR v2)
Copy OK

Track 3

Filename C:\Rips\Commander Cody & His Lost Planet Airmen - 3 Warner Albums (2016) [FLAC]\CD1\03 - California Okie.wav

Peak level 85.8 %
Extraction speed 1.8 X
Track quality 100.0 %
Test CRC 5CC3C36C
Copy CRC 5CC3C36C
Accurately ripped (confidence 2) [510B47B9] (AR v2)
Copy OK

Track 4

Filename C:\Rips\Commander Cody & His Lost Planet Airmen - 3 Warner Albums (2016) [FLAC]\CD1\04 - Willin'.wav

Peak level 83.9 %
Extraction speed 1.7 X
Track quality 99.9 %
Test CRC 6EABB27D
Copy CRC 6EABB27D
Accurately ripped (confidence 2) [7E464B04] (AR v2)
Copy OK

Track 5

Filename C:\Rips\Commander Cody & His Lost Planet Airmen - 3 Warner Albums (2016) [FLAC]\CD1\05 - The Boogie Man Boogie.wav

Peak level 86.4 %
Extraction speed 2.2 X
Track quality 100.0 %
Test CRC E22815B7
Copy CRC E22815B7
Accurately ripped (confidence 2) [A200EABC] (AR v2)
Copy OK

Track 6

Filename C:\Rips\Commander Cody & His Lost Planet Airmen - 3 Warner Albums (2016) [FLAC]\CD1\06 - Hawaii Blues.wav

Peak level 84.7 %
Extraction speed 2.2 X
Track quality 100.0 %
Test CRC F67D6F51
Copy CRC F67D6F51
Accurately ripped (confidence 2) [9D2CF3F2] (AR v2)
Copy OK

Track 7

Filename C:\Rips\Commander Cody & His Lost Planet Airmen - 3 Warner Albums (2016) [FLAC]\CD1\07 - House Of Blue Light.wav

Peak level 81.4 %
Extraction speed 2.2 X
Track quality 100.0 %
Test CRC 16CFA803
Copy CRC 16CFA803
Accurately ripped (confidence 2) [765C64DC] (AR v2)
Copy OK

Track 8

Filename C:\Rips\Commander Cody & His Lost Planet Airmen - 3 Warner Albums (2016) [FLAC]\CD1\08 - Keep On Lovin' Her.wav

Peak level 86.0 %
Extraction speed 2.4 X
Track quality 100.0 %
Test CRC A3AF49D0
Copy CRC A3AF49D0
Accurately ripped (confidence 2) [286D4D3F] (AR v2)
Copy OK

Track 9

Filename C:\Rips\Commander Cody & His Lost Planet Airmen - 3 Warner Albums (2016) [FLAC]\CD1\09 - Devil And Me.wav

Peak level 85.1 %
Extraction speed 2.5 X
Track quality 100.0 %
Test CRC 453117B5
Copy CRC 453117B5
Accurately ripped (confidence 2) [95E387FD] (AR v2)
Copy OK

Track 10

Filename C:\Rips\Commander Cody & His Lost Planet Airmen - 3 Warner Albums (2016) [FLAC]\CD1\10 - Four Or Five Times.wav

Peak level 85.6 %
Extraction speed 2.5 X
Track quality 100.0 %
Test CRC 84732B8E
Copy CRC 84732B8E
Accurately ripped (confidence 2) [7B454D27] (AR v2)
Copy OK

Track 11

Filename C:\Rips\Commander Cody & His Lost Planet Airmen - 3 Warner Albums (2016) [FLAC]\CD1\11 - That's What I Like About The South.wav

Peak level 89.1 %
Extraction speed 2.6 X
Track quality 100.0 %
Test CRC E7D4686D
Copy CRC E7D4686D
Accurately ripped (confidence 2) [FA184524] (AR v2)
Copy OK

Track 12

Filename C:\Rips\Commander Cody & His Lost Planet Airmen - 3 Warner Albums (2016) [FLAC]\CD1\12 - Minnie The Moocher.wav

Peak level 79.4 %
Extraction speed 2.8 X
Track quality 100.0 %
Test CRC B30FB02E
Copy CRC B30FB02E
Accurately ripped (confidence 2) [C37B48B0] (AR v2)
Copy OK

Track 13

Filename C:\Rips\Commander Cody & His Lost Planet Airmen - 3 Warner Albums (2016) [FLAC]\CD1\13 - It's Gonna Be One Of Those Nights.wav

Peak level 79.4 %
Extraction speed 1.8 X
Track quality 99.9 %
Test CRC CCA7ADFD
Copy CRC CCA7ADFD
Accurately ripped (confidence 2) [C603334F] (AR v2)
Copy OK

Track 14

Filename C:\Rips\Commander Cody & His Lost Planet Airmen - 3 Warner Albums (2016) [FLAC]\CD1\14 - Connie.wav

Peak level 79.4 %
Extraction speed 2.9 X
Track quality 100.0 %
Test CRC C7DCCE96
Copy CRC C7DCCE96
Accurately ripped (confidence 2) [384D6CB8] (AR v2)
Copy OK

Track 15

Filename C:\Rips\Commander Cody & His Lost Planet Airmen - 3 Warner Albums (2016) [FLAC]\CD1\15 - I've Been To Georgia On A Fast Train.wav

Peak level 79.4 %
Extraction speed 2.9 X
Track quality 100.0 %
Test CRC 4FFB12DF
Copy CRC 4FFB12DF
Accurately ripped (confidence 2) [C78A4801] (AR v2)
Copy OK

Track 16

Filename C:\Rips\Commander Cody & His Lost Planet Airmen - 3 Warner Albums (2016) [FLAC]\CD1\16 - Honky Tonk Music.wav

Peak level 79.4 %
Extraction speed 3.1 X
Track quality 100.0 %
Test CRC 4BA200F6
Copy CRC 4BA200F6
Accurately ripped (confidence 2) [72E22C0B] (AR v2)
Copy OK

Track 17

Filename C:\Rips\Commander Cody & His Lost Planet Airmen - 3 Warner Albums (2016) [FLAC]\CD1\17 - Lightnin' Bar Blues.wav

Peak level 79.4 %
Extraction speed 3.0 X
Track quality 100.0 %
Test CRC 42FDC7C7
Copy CRC 42FDC7C7
Accurately ripped (confidence 2) [714A5D0E] (AR v2)
Copy OK

Track 18

Filename C:\Rips\Commander Cody & His Lost Planet Airmen - 3 Warner Albums (2016) [FLAC]\CD1\18 - Paid In Advance.wav

Peak level 79.4 %
Extraction speed 3.1 X
Track quality 100.0 %
Test CRC 303DD575
Copy CRC 303DD575
Accurately ripped (confidence 2) [240974E3] (AR v2)
Copy OK

Track 19

Filename C:\Rips\Commander Cody & His Lost Planet Airmen - 3 Warner Albums (2016) [FLAC]\CD1\19 - Cajun Baby.wav

Peak level 79.4 %
Extraction speed 3.1 X
Track quality 100.0 %
Test CRC 50A6C37B
Copy CRC 50A6C37B
Accurately ripped (confidence 2) [2E91E175] (AR v2)
Copy OK

Track 20

Filename C:\Rips\Commander Cody & His Lost Planet Airmen - 3 Warner Albums (2016) [FLAC]\CD1\20 - Tina Louise.wav

Peak level 79.4 %
Extraction speed 3.3 X
Track quality 100.0 %
Test CRC 4D26ABFC
Copy CRC 4D26ABFC
Accurately ripped (confidence 2) [B1A5CBFC] (AR v2)
Copy OK

Track 21

Filename C:\Rips\Commander Cody & His Lost Planet Airmen - 3 Warner Albums (2016) [FLAC]\CD1\21 - The Shadow Knows.wav

Peak level 79.4 %
Extraction speed 3.2 X
Track quality 100.0 %
Test CRC C41BDB78
Copy CRC C41BDB78
Accurately ripped (confidence 2) [202EAD8C] (AR v2)
Copy OK

Track 22

Filename C:\Rips\Commander Cody & His Lost Planet Airmen - 3 Warner Albums (2016) [FLAC]\CD1\22 - Roll Your Own.wav

Peak level 79.4 %
Extraction speed 3.4 X
Track quality 100.0 %
Test CRC 0D65F701
Copy CRC 0D65F701
Accurately ripped (confidence 2) [16272E41] (AR v2)
Copy OK

Track 23

Filename C:\Rips\Commander Cody & His Lost Planet Airmen - 3 Warner Albums (2016) [FLAC]\CD1\23 - Gypsy Fiddle.wav

Peak level 79.4 %
Extraction speed 2.3 X
Track quality 99.9 %
Test CRC 9D4F0E22
Copy CRC 9D4F0E22
Accurately ripped (confidence 2) [C789D46A] (AR v2)
Copy OK


All tracks accurately ripped

No errors occurred

End of status report

–– CUETools DB Plugin V2.1.6

[CTDB TOCID: YNjobG8Jxq.fDy6jYrF7PCevt8o-] found
Submit result: YNjobG8Jxq.fDy6jYrF7PCevt8o- has been confirmed
Track | CTDB Status
1 | (3/3) Accurately ripped
2 | (3/3) Accurately ripped
3 | (3/3) Accurately ripped
4 | (3/3) Accurately ripped
5 | (3/3) Accurately ripped
6 | (3/3) Accurately ripped
7 | (3/3) Accurately ripped
8 | (3/3) Accurately ripped
9 | (3/3) Accurately ripped
10 | (3/3) Accurately ripped
11 | (3/3) Accurately ripped
12 | (3/3) Accurately ripped
13 | (3/3) Accurately ripped
14 | (3/3) Accurately ripped
15 | (3/3) Accurately ripped
16 | (3/3) Accurately ripped
17 | (3/3) Accurately ripped
18 | (3/3) Accurately ripped
19 | (3/3) Accurately ripped
20 | (3/3) Accurately ripped
21 | (3/3) Accurately ripped
22 | (3/3) Accurately ripped
23 | (3/3) Accurately ripped


==== Log checksum AECB07347D466E03C5227322AADFDB47BDB2B5F60C527CC01BE874E7488B1B88 ====

Exact Audio Copy V1.2 from 12. August 2016

EAC extraction logfile from 21. October 2016, 21:31

Commander Cody & His Lost Planet Airmen / We've Got A Live One Here!

Used drive : TSSTcorpCDDVDW SH-224BB Adapter: 1 ID: 0

Read mode : Secure
Utilize accurate stream : Yes
Defeat audio cache : Yes
Make use of C2 pointers : No

Read offset correction : 6
Overread into Lead-In and Lead-Out : No
Fill up missing offset samples with silence : Yes
Delete leading and trailing silent blocks : No
Null samples used in CRC calculations : Yes
Used interface : Native Win32 interface for Win NT & 2000
Gap handling : Appended to previous track

Used output format : User Defined Encoder
Selected bitrate : 768 kBit/s
Quality : High
Add ID3 tag : No
Command line compressor : C:\Program Files (x86)\Exact Audio Copy\Flac\flac.exe
Additional command line options : -8 -V -T "ARTIST=%artist%" -T "TITLE=%title%" -T "ALBUM=%albumtitle%" -T "DATE=%year%" -T "TRACKNUMBER=%tracknr%" -T "TOTALTRACKS=%numtracks%" -T "GENRE=%genre%" -T "ALBUMARTIST=%albumartist%" -T "ALBUM ARTIST=%albumartist%" -T "COMMENT=EAC Secure Mode, Test & Copy, AccurateRip, FLAC -8" %source%


TOC of the extracted CD

Track | Start | Length | Start sector | End sector
––––––––––––––––––––––––––––-
1 | 0:00.00 | 2:55.57 | 0 | 13181
2 | 2:55.57 | 2:30.05 | 13182 | 24436
3 | 5:25.62 | 3:43.41 | 24437 | 41202
4 | 9:09.28 | 3:31.31 | 41203 | 57058
5 | 12:40.59 | 5:10.21 | 57059 | 80329
6 | 17:51.05 | 3:28.25 | 80330 | 95954
7 | 21:19.30 | 5:08.14 | 95955 | 119068
8 | 26:27.44 | 2:18.01 | 119069 | 129419
9 | 28:45.45 | 2:29.60 | 129420 | 140654
10 | 31:15.30 | 5:08.68 | 140655 | 163822
11 | 36:24.23 | 2:57.14 | 163823 | 177111
12 | 39:21.37 | 3:56.38 | 177112 | 194849
13 | 43:18.00 | 3:47.63 | 194850 | 211937
14 | 47:05.63 | 2:43.67 | 211938 | 224229
15 | 49:49.55 | 4:09.18 | 224230 | 242922
16 | 53:58.73 | 3:04.05 | 242923 | 256727
17 | 57:03.03 | 4:26.12 | 256728 | 276689
18 | 61:29.15 | 4:32.40 | 276690 | 297129
19 | 66:01.55 | 4:05.18 | 297130 | 315522


Track 1

Filename C:\Rips\Commander Cody & His Lost Planet Airmen - 3 Original Warner Albums (2016) [FLAC]\CD2\01 - One Of Those Nights.wav

Pre-gap length 0:00:02.00

Peak level 94.4 %
Extraction speed 1.6 X
Track quality 100.0 %
Test CRC 08B63652
Copy CRC 08B63652
Accurately ripped (confidence 2) [29F4F452] (AR v2)
Copy OK

Track 2

Filename C:\Rips\Commander Cody & His Lost Planet Airmen - 3 Original Warner Albums (2016) [FLAC]\CD2\02 - Semi Truck.wav

Peak level 94.4 %
Extraction speed 1.4 X
Track quality 99.9 %
Test CRC A7D30538
Copy CRC A7D30538
Accurately ripped (confidence 2) [ED7518FE] (AR v2)
Copy OK

Track 3

Filename C:\Rips\Commander Cody & His Lost Planet Airmen - 3 Original Warner Albums (2016) [FLAC]\CD2\03 - Smoke! Smoke! Smoke!.wav

Peak level 94.4 %
Extraction speed 1.9 X
Track quality 100.0 %
Test CRC 067CA55E
Copy CRC 067CA55E
Accurately ripped (confidence 2) [CB077E16] (AR v2)
Copy OK

Track 4

Filename C:\Rips\Commander Cody & His Lost Planet Airmen - 3 Original Warner Albums (2016) [FLAC]\CD2\04 - Big Mamou.wav

Peak level 94.4 %
Extraction speed 1.7 X
Track quality 100.0 %
Test CRC CBBF7C79
Copy CRC CBBF7C79
Accurately ripped (confidence 2) [28E3F659] (AR v2)
Copy OK

Track 5

Filename C:\Rips\Commander Cody & His Lost Planet Airmen - 3 Original Warner Albums (2016) [FLAC]\CD2\05 - San Antonio Rose.wav

Peak level 94.4 %
Extraction speed 1.8 X
Track quality 100.0 %
Test CRC 4B88D90A
Copy CRC 4B88D90A
Accurately ripped (confidence 2) [8B42D7CC] (AR v2)
Copy OK

Track 6

Filename C:\Rips\Commander Cody & His Lost Planet Airmen - 3 Original Warner Albums (2016) [FLAC]\CD2\06 - 18 Wheels.wav

Peak level 94.4 %
Extraction speed 1.6 X
Track quality 100.0 %
Test CRC 1F2DC0FC
Copy CRC 1F2DC0FC
Accurately ripped (confidence 2) [3AAC857E] (AR v2)
Copy OK

Track 7

Filename C:\Rips\Commander Cody & His Lost Planet Airmen - 3 Original Warner Albums (2016) [FLAC]\CD2\07 - Mama Hated Diesels.wav

Peak level 94.4 %
Extraction speed 2.2 X
Track quality 100.0 %
Test CRC E1E8BA0E
Copy CRC E1E8BA0E
Accurately ripped (confidence 2) [21359927] (AR v2)
Copy OK

Track 8

Filename C:\Rips\Commander Cody & His Lost Planet Airmen - 3 Original Warner Albums (2016) [FLAC]\CD2\08 - Lookin' At The World Through A Windshield.wav

Peak level 94.4 %
Extraction speed 2.4 X
Track quality 100.0 %
Test CRC 336EC9AD
Copy CRC 336EC9AD
Accurately ripped (confidence 2) [F495D3EB] (AR v2)
Copy OK

Track 9

Filename C:\Rips\Commander Cody & His Lost Planet Airmen - 3 Original Warner Albums (2016) [FLAC]\CD2\09 - My Window Faces South.wav

Peak level 94.4 %
Extraction speed 2.5 X
Track quality 100.0 %
Test CRC 38EA86CA
Copy CRC 38EA86CA
Accurately ripped (confidence 2) [A5D39E47] (AR v2)
Copy OK

Track 10

Filename C:\Rips\Commander Cody & His Lost Planet Airmen - 3 Original Warner Albums (2016) [FLAC]\CD2\10 - Milkcow Blues.wav

Peak level 94.4 %
Extraction speed 2.9 X
Track quality 100.0 %
Test CRC B4F80AEA
Copy CRC B4F80AEA
Accurately ripped (confidence 2) [C5D294C8] (AR v2)
Copy OK

Track 11

Filename C:\Rips\Commander Cody & His Lost Planet Airmen - 3 Original Warner Albums (2016) [FLAC]\CD2\11 - It Should Have Been Me.wav

Peak level 94.4 %
Extraction speed 2.7 X
Track quality 100.0 %
Test CRC EB663FB4
Copy CRC EB663FB4
Accurately ripped (confidence 2) [B9AAADC1] (AR v2)
Copy OK

Track 12

Filename C:\Rips\Commander Cody & His Lost Planet Airmen - 3 Original Warner Albums (2016) [FLAC]\CD2\12 - Back To Tennessee.wav

Peak level 94.4 %
Extraction speed 2.9 X
Track quality 100.0 %
Test CRC 934C8B1D
Copy CRC 934C8B1D
Accurately ripped (confidence 2) [502B845A] (AR v2)
Copy OK

Track 13

Filename C:\Rips\Commander Cody & His Lost Planet Airmen - 3 Original Warner Albums (2016) [FLAC]\CD2\13 - Seeds And Stems.wav

Peak level 94.4 %
Extraction speed 3.0 X
Track quality 100.0 %
Test CRC 69C36B7B
Copy CRC 69C36B7B
Accurately ripped (confidence 2) [075C0104] (AR v2)
Copy OK

Track 14

Filename C:\Rips\Commander Cody & His Lost Planet Airmen - 3 Original Warner Albums (2016) [FLAC]\CD2\14 - Rock That Boogie.wav

Peak level 94.4 %
Extraction speed 2.9 X
Track quality 100.0 %
Test CRC 004A7967
Copy CRC 004A7967
Accurately ripped (confidence 2) [6CB56A1B] (AR v2)
Copy OK

Track 15

Filename C:\Rips\Commander Cody & His Lost Planet Airmen - 3 Original Warner Albums (2016) [FLAC]\CD2\15 - Riot In Cell Block #9.wav

Peak level 94.4 %
Extraction speed 3.2 X
Track quality 100.0 %
Test CRC 312677A8
Copy CRC 312677A8
Accurately ripped (confidence 2) [A0CAAEDA] (AR v2)
Copy OK

Track 16

Filename C:\Rips\Commander Cody & His Lost Planet Airmen - 3 Original Warner Albums (2016) [FLAC]\CD2\16 - Don't Let Go.wav

Peak level 94.4 %
Extraction speed 3.2 X
Track quality 100.0 %
Test CRC 856A9094
Copy CRC 856A9094
Accurately ripped (confidence 2) [718422E2] (AR v2)
Copy OK

Track 17

Filename C:\Rips\Commander Cody & His Lost Planet Airmen - 3 Original Warner Albums (2016) [FLAC]\CD2\17 - Too Much Fun.wav

Peak level 94.4 %
Extraction speed 3.4 X
Track quality 100.0 %
Test CRC 09B37D3C
Copy CRC 09B37D3C
Accurately ripped (confidence 2) [36B339D8] (AR v2)
Copy OK

Track 18

Filename C:\Rips\Commander Cody & His Lost Planet Airmen - 3 Original Warner Albums (2016) [FLAC]\CD2\18 - Hot Rod Lincoln.wav

Peak level 94.4 %
Extraction speed 3.5 X
Track quality 100.0 %
Test CRC 9A57B9A3
Copy CRC 9A57B9A3
Accurately ripped (confidence 2) [73A4A421] (AR v2)
Copy OK

Track 19

Filename C:\Rips\Commander Cody & His Lost Planet Airmen - 3 Original Warner Albums (2016) [FLAC]\CD2\19 - Lost In The Ozone.wav

Peak level 94.4 %
Extraction speed 3.6 X
Track quality 100.0 %
Test CRC FB6B0320
Copy CRC FB6B0320
Accurately ripped (confidence 2) [7A19659D] (AR v2)
Copy OK


All tracks accurately ripped

No errors occurred

End of status report

–– CUETools DB Plugin V2.1.6

[CTDB TOCID: X6mubQ.yYIcT3bCldT84_Ed3Dk0-] found
Submit result: X6mubQ.yYIcT3bCldT84_Ed3Dk0- has been confirmed
Track | CTDB Status
1 | (3/3) Accurately ripped
2 | (3/3) Accurately ripped
3 | (3/3) Accurately ripped
4 | (3/3) Accurately ripped
5 | (3/3) Accurately ripped
6 | (3/3) Accurately ripped
7 | (3/3) Accurately ripped
8 | (3/3) Accurately ripped
9 | (3/3) Accurately ripped
10 | (3/3) Accurately ripped
11 | (3/3) Accurately ripped
12 | (3/3) Accurately ripped
13 | (3/3) Accurately ripped
14 | (3/3) Accurately ripped
15 | (3/3) Accurately ripped
16 | (3/3) Accurately ripped
17 | (3/3) Accurately ripped
18 | (3/3) Accurately ripped
19 | (3/3) Accurately ripped


==== Log checksum 6F8EF6C4F9E4ADD7CC518027E1BE22913A70AF1BF4627591348E6523D2A28A7F ====


Commander Cody & His Lost Planet Airmen - 3 Original Warner Albums (2016) {2CD BGO Records rec 1975-1976}


All thanks goes to the original releaser!