Subcategories

Eddie Russ - Fresh Out (1974) {Soul Jazz Records USCD46 rel 2012}

Posted By: ruskaval
Eddie Russ - Fresh Out (1974) {Soul Jazz Records USCD46 rel 2012}

Eddie Russ - Fresh Out (1974) {Soul Jazz Records USCD46 rel 2012}
EAC rip (secure mode) | FLAC (tracks)+CUE+LOG -> 233 Mb | MP3 @320 -> 102 Mb
Full Artwork @ 300 dpi (jpg) -> 14 Mb | 5% repair rar
© 1974, 2012 Jazz Masters / Soul Jazz Records | US CD46
Jazz / Soul Jazz / Jazz Funk / Indie Funk / Electric Piano

A landmark bit of indie funk from the 70s – one of the few records cut by Detroit keyboardist Eddie Russ, and easily the best! The album features Russ going to town on electric piano – working with a hip combo called The Mixed Bag, which features some wicked work on flute and soprano sax by Larry Nozero – and a vibe that's a lot more laidback than standard funk, or even more mainstream jazz funk too – a sweet open groove that's mighty nice all the way through! The album's really a showcase for Nozero and Russ' solos – trading back and forth effortlessly over long tunes that roll along in a sweet electric-tinged groove – long vamping rhythms that really seem to drive both players onto new heights.

Musicians

Bass – Larry Rhodes, Ron Brooks
Drums – Danny Spencer
Drums, Congas, Percussion – Calvin Welch
Flute, soprano sax – Larry Nozero
Guitar – Jerry Glassel, Melvin Clark
Horns – Dan Yessian Jazz Horns
Electric Piano – Eddie Russ
String Ensemble – Greg Miller

Track Listing

1. The Lope Song
2. All But Blind
3. Shamading
4. Hill Where The Lord Hides
5. You Are The Sunshine Of My Life
6. Watergate Blues

Exact Audio Copy V1.0 beta 3 from 29. August 2011

EAC extraction logfile from 30. March 2014, 8:09

Eddie Russ / Fresh Out

Used drive : ATAPI DVD A DH16ABSH Adapter: 2 ID: 1

Read mode : Secure
Utilize accurate stream : Yes
Defeat audio cache : Yes
Make use of C2 pointers : No

Read offset correction : 6
Overread into Lead-In and Lead-Out : No
Fill up missing offset samples with silence : Yes
Delete leading and trailing silent blocks : No
Null samples used in CRC calculations : Yes
Used interface : Native Win32 interface for Win NT & 2000
Gap handling : Appended to previous track

Used output format : User Defined Encoder
Selected bitrate : 128 kBit/s
Quality : High
Add ID3 tag : No
Command line compressor : C:\Program Files (x86)\Exact Audio Copy\FLAC\FLAC.EXE
Additional command line options : -8 -V -T "ARTIST=%artist%" -T "TITLE=%title%" -T "ALBUM=%albumtitle%" -T "DATE=%year%" -T "TRACKNUMBER=%tracknr%" -T "TOTALTRACKS=%numtracks%" -T "GENRE=%genre%" -T "ALBUMARTIST=%albumartist%" -T "ALBUM ARTIST=%albumartist%" -T "COMMENT=EAC Secure Mode, Test & Copy, AccurateRip, FLAC -8" %source%


TOC of the extracted CD

Track | Start | Length | Start sector | End sector
––––––––––––––––––––––––––––-
1 | 0:00.00 | 6:39.38 | 0 | 29962
2 | 6:39.38 | 10:08.12 | 29963 | 75574
3 | 16:47.50 | 5:03.70 | 75575 | 98369
4 | 21:51.45 | 6:36.02 | 98370 | 128071
5 | 28:27.47 | 8:28.28 | 128072 | 166199
6 | 36:56.00 | 6:02.22 | 166200 | 193371


Track 1

Filename C:\Users\owner\Desktop\Eddie Russ - Fresh Out (1974) [FLAC]\01 - The Lope Song.wav

Pre-gap length 0:00:02.00

Peak level 87.5 %
Extraction speed 3.5 X
Track quality 100.0 %
Test CRC BF092081
Copy CRC BF092081
Track not present in AccurateRip database
Copy OK

Track 2

Filename C:\Users\owner\Desktop\Eddie Russ - Fresh Out (1974) [FLAC]\02 - All But Blind.wav

Peak level 99.9 %
Extraction speed 4.6 X
Track quality 100.0 %
Test CRC AEEFB1FB
Copy CRC AEEFB1FB
Track not present in AccurateRip database
Copy OK

Track 3

Filename C:\Users\owner\Desktop\Eddie Russ - Fresh Out (1974) [FLAC]\03 - Shamading.wav

Peak level 93.4 %
Extraction speed 4.7 X
Track quality 100.0 %
Test CRC 33EBFD54
Copy CRC 33EBFD54
Track not present in AccurateRip database
Copy OK

Track 4

Filename C:\Users\owner\Desktop\Eddie Russ - Fresh Out (1974) [FLAC]\04 - Hill Where The Lord Hides.wav

Peak level 93.5 %
Extraction speed 5.4 X
Track quality 100.0 %
Test CRC 205304AF
Copy CRC 205304AF
Track not present in AccurateRip database
Copy OK

Track 5

Filename C:\Users\owner\Desktop\Eddie Russ - Fresh Out (1974) [FLAC]\05 - You Are The Sunshine Of My Life.wav

Peak level 98.8 %
Extraction speed 5.9 X
Track quality 100.0 %
Test CRC E0C7139B
Copy CRC E0C7139B
Track not present in AccurateRip database
Copy OK

Track 6

Filename C:\Users\owner\Desktop\Eddie Russ - Fresh Out (1974) [FLAC]\06 - Watergate Blues.wav

Peak level 95.8 %
Extraction speed 5.8 X
Track quality 100.0 %
Test CRC E43BD469
Copy CRC E43BD469
Track not present in AccurateRip database
Copy OK


None of the tracks are present in the AccurateRip database

No errors occurred

End of status report

==== Log checksum B2E7E165F5599E74AA7093B176885D6CABA94E0F47C49B069583F13487693597 ====


Eddie Russ - Fresh Out (1974) {Soul Jazz Records USCD46 rel 2012}

Eddie Russ - Fresh Out (1974) {Soul Jazz Records USCD46 rel 2012}



===