Subcategories

Eric Bibb & Needed Time - Good Stuff (1997) (Repost)

Posted By: Domestos
Eric Bibb & Needed Time - Good Stuff (1997) (Repost)

Eric Bibb & Needed Time - Good Stuff (1997)
EAC Rip | FLAC (tracks+.cue, log) ~ 287.49 Mb | 56:28 | Scans included
Acoustic Folk Blues | Country: USA | Label: Opus 3 Records - CD 19603

Since Eric Bibb's breakthrough with the Opus 3 recording "Spirit & The Blues" in Autumn of 1994, a great deal has happened in Eric's life. In Spring of 1996 he was an outstanding success at the London Blues Festival (April) and later he was equally well received in Canada at the Vancouver Folk & BluesFestival (August). On both occasions the plaudits were shared by slide guitarist Göran Wennerbrandtwho, as well as playing on both of the CDs, also produced this release. On the new album we have in general the same musicians who contributed to the success of "Spirit & The Blues," including the gospel quartet The Deacons.

One of the main features of this new album is that Eric has written ten of the fourteen songs himself, with credits shared on three of the others. The remaining instrumental Blacksmith Island was written by the band Needed Time. In style the album has retained the musical breadth of "Spirit & The Blues" while being a little more "bluesy" in feeling. Also included are the radio singles Shingle By Shingle and Good Stuff.

A must ! - Eric Bibb's acoustic blue/gospel goes straight to the heart. Calmly and dexterously Eric Bibb, together with the superlative group Needed Time, give listeners 14 good reasons to continue wandering in Lonesome Valley (track 1. on CD 19401). Where The Green Grass Grows is my personal favourite, a gospel with a delightful pedal organ and The Deacons gospel choir, and a glorius slide guitar solo by Göran Wennerbrandt. But exactly as on their first album Spirit & The Blues there isn't a single bad track on Good Stuff. Buy both, no blues collection is complete without them.
(Sydsvenska Dagbladet)



Track List:
01. Good Stuff (3:24)
02. Saucer 'n' Cup (3:51)
03. Shingle By Shingle (3:36)
04. Don't Ever Let Nobody Drag Your Spirit Down (6:57)
05. Where the Green Grass Grows (4:35)
06. Blacksmith Island (2:22)
07. New World Comin' Through (3:32)
08. Too Much Whisky (3:27)
09. Nothin' Like You Used to Do (4:36)
10. All of My Love (3:39)
11. A Simple Song (3:52)
12. Happy Home Recipe (2:52)
13. Done Laid Around (5:05)
14. Rough Waters (4:41)

Vocals, Guitar, Guitar [12-String], Guitar [Lute], Guitar Banjo, Co-producer – Eric Bibb
Backing Vocals – Andre De Lange (tracks: 7, 12), Bob Manning (tracks: 7, 12), Derek Huntsman (tracks: 7, 12), Paris (21) (tracks: 7, 12), The Deacons (5) (tracks: 5)
Double Bass – Olle Eriksson
Drums, Percussion, Triangle – Bjorn Gideonsson
Guitar – Nick Malmestrom
Guitar [Hawaiian], Slide Guitar, Producer, Zither [Chord Zither] – Goran Wennerbrandt
Harmonica – Derrick Walker*, Jenny Bohman
Kalimba [Congoma Bass Kalimba] – Hassan Bah
Mandolin, Guitar, Mandolin Banjo, Bouzouki, Cowbell – Christer Lyssarides
Piano, Organ [Pump], Accordion – Janne Petersson
Photography By [Back] – Dave Peabody
Photography By [Front] – Andrew French
Executive-Producer, Engineer, Mastered By – Jan-Eric Persson

Eric Bibb & Needed Time - Good Stuff (1997) (Repost)

Exact Audio Copy V1.3 from 2. September 2016

EAC extraction logfile from 30. January 2017, 16:42

Eric Bibb & Needed Time / Good Stuff

Used drive : ASUS DRW-1608P3S Adapter: 1 ID: 0

Read mode : Secure
Utilize accurate stream : Yes
Defeat audio cache : Yes
Make use of C2 pointers : No

Read offset correction : 48
Overread into Lead-In and Lead-Out : No
Fill up missing offset samples with silence : Yes
Delete leading and trailing silent blocks : No
Null samples used in CRC calculations : Yes
Used interface : Native Win32 interface for Win NT & 2000
Gap handling : Appended to previous track

Used output format : User Defined Encoder
Selected bitrate : 896 kBit/s
Quality : High
Add ID3 tag : No
Command line compressor : C:\Program Files\Exact Audio Copy\FLAC\FLAC.EXE
Additional command line options : -6 -V -T "ARTIST=%artist%" -T "TITLE=%title%" -T "ALBUM=%albumtitle%" -T "DATE=%year%" -T "TRACKNUMBER=%tracknr%" -T "GENRE=%genre%" -T "COMMENT=%comment%" -T "BAND=%albuminterpret%" -T "ALBUMARTIST=%albuminterpret%" -T "COMPOSER=%composer%" %haslyrics%–tag-from-file=LYRICS="%lyricsfile%"%haslyrics% -T "DISCNUMBER=%cdnumber%" -T "TOTALDISCS=%totalcds%" -T "TOTALTRACKS=%numtracks%" %hascover%–picture="%coverfile%"%hascover% %source% -o %dest%


TOC of the extracted CD

Track | Start | Length | Start sector | End sector
––––––––––––––––––––––––––––-
1 | 0:00.00 | 3:24.22 | 0 | 15321
2 | 3:24.22 | 3:51.03 | 15322 | 32649
3 | 7:15.25 | 3:36.02 | 32650 | 48851
4 | 10:51.27 | 6:56.58 | 48852 | 80109
5 | 17:48.10 | 4:35.32 | 80110 | 100766
6 | 22:23.42 | 2:22.00 | 100767 | 111416
7 | 24:45.42 | 3:31.48 | 111417 | 127289
8 | 28:17.15 | 3:26.67 | 127290 | 142806
9 | 31:44.07 | 4:35.58 | 142807 | 163489
10 | 36:19.65 | 3:39.05 | 163490 | 179919
11 | 39:58.70 | 3:51.50 | 179920 | 197294
12 | 43:50.45 | 2:51.70 | 197295 | 210189
13 | 46:42.40 | 5:05.10 | 210190 | 233074
14 | 51:47.50 | 4:40.55 | 233075 | 254129


Track 1

Filename D:\EAC\Eric Bibb & Needed - Time Good Stuff (1997) [FLAC]\01. Good Stuff.wav

Pre-gap length 0:00:02.00

Peak level 89.3 %
Extraction speed 4.1 X
Track quality 100.0 %
Test CRC 9AE9773E
Copy CRC 9AE9773E
Accurately ripped (confidence 7) [24C329E8] (AR v2)
Copy OK

Track 2

Filename D:\EAC\Eric Bibb & Needed - Time Good Stuff (1997) [FLAC]\02. Saucer 'n' Cup.wav

Peak level 78.4 %
Extraction speed 4.1 X
Track quality 99.9 %
Test CRC DE892F99
Copy CRC DE892F99
Accurately ripped (confidence 8) [77001914] (AR v2)
Copy OK

Track 3

Filename D:\EAC\Eric Bibb & Needed - Time Good Stuff (1997) [FLAC]\03. Shingle By Shingle.wav

Peak level 70.3 %
Extraction speed 4.9 X
Track quality 100.0 %
Test CRC B7B4EDB3
Copy CRC B7B4EDB3
Accurately ripped (confidence 8) [3BB77C64] (AR v2)
Copy OK

Track 4

Filename D:\EAC\Eric Bibb & Needed - Time Good Stuff (1997) [FLAC]\04. Don't Ever Let Nobody Drag Your Spirit Down.wav

Peak level 88.6 %
Extraction speed 5.8 X
Track quality 100.0 %
Test CRC 48EE2BE3
Copy CRC 48EE2BE3
Accurately ripped (confidence 8) [4D68445B] (AR v2)
Copy OK

Track 5

Filename D:\EAC\Eric Bibb & Needed - Time Good Stuff (1997) [FLAC]\05. Where the Green Grass Grows.wav

Peak level 83.0 %
Extraction speed 6.1 X
Track quality 100.0 %
Test CRC 0C642608
Copy CRC 0C642608
Accurately ripped (confidence 8) [901D17C0] (AR v2)
Copy OK

Track 6

Filename D:\EAC\Eric Bibb & Needed - Time Good Stuff (1997) [FLAC]\06. Blacksmith Island.wav

Peak level 72.2 %
Extraction speed 5.7 X
Track quality 100.0 %
Test CRC 31234AB2
Copy CRC 31234AB2
Accurately ripped (confidence 8) [55207290] (AR v2)
Copy OK

Track 7

Filename D:\EAC\Eric Bibb & Needed - Time Good Stuff (1997) [FLAC]\07. New World Comin' Through.wav

Peak level 71.0 %
Extraction speed 6.4 X
Track quality 100.0 %
Test CRC 79120CE7
Copy CRC 79120CE7
Accurately ripped (confidence 8) [EA7B9683] (AR v2)
Copy OK

Track 8

Filename D:\EAC\Eric Bibb & Needed - Time Good Stuff (1997) [FLAC]\08. Too Much Whisky.wav

Peak level 77.2 %
Extraction speed 6.5 X
Track quality 100.0 %
Test CRC 09DD3943
Copy CRC 09DD3943
Accurately ripped (confidence 7) [68395B41] (AR v2)
Copy OK

Track 9

Filename D:\EAC\Eric Bibb & Needed - Time Good Stuff (1997) [FLAC]\09. Nothin' Like You Used to Do.wav

Peak level 93.0 %
Extraction speed 7.0 X
Track quality 100.0 %
Test CRC 994E1D45
Copy CRC 994E1D45
Accurately ripped (confidence 7) [6DA2AE0E] (AR v2)
Copy OK

Track 10

Filename D:\EAC\Eric Bibb & Needed - Time Good Stuff (1997) [FLAC]\10. All of My Love.wav

Peak level 90.8 %
Extraction speed 7.1 X
Track quality 100.0 %
Test CRC 47F7F723
Copy CRC 47F7F723
Accurately ripped (confidence 7) [C57EC7AA] (AR v2)
Copy OK

Track 11

Filename D:\EAC\Eric Bibb & Needed - Time Good Stuff (1997) [FLAC]\11. A Simple Song.wav

Pre-gap length 0:00:00.01

Peak level 68.4 %
Extraction speed 7.4 X
Track quality 100.0 %
Test CRC 8A7ED902
Copy CRC 8A7ED902
Accurately ripped (confidence 8) [0DE89AA7] (AR v2)
Copy OK

Track 12

Filename D:\EAC\Eric Bibb & Needed - Time Good Stuff (1997) [FLAC]\12. Happy Home Recipe.wav

Peak level 99.0 %
Extraction speed 7.2 X
Track quality 100.0 %
Test CRC CEB2D3CB
Copy CRC CEB2D3CB
Accurately ripped (confidence 8) [8AC35E69] (AR v2)
Copy OK

Track 13

Filename D:\EAC\Eric Bibb & Needed - Time Good Stuff (1997) [FLAC]\13. Done Laid Around.wav

Peak level 76.0 %
Extraction speed 7.3 X
Track quality 99.9 %
Test CRC 657D5127
Copy CRC 657D5127
Accurately ripped (confidence 8) [E05020D1] (AR v2)
Copy OK

Track 14

Filename D:\EAC\Eric Bibb & Needed - Time Good Stuff (1997) [FLAC]\14. Rough Waters.wav

Peak level 93.5 %
Extraction speed 8.1 X
Track quality 100.0 %
Test CRC 30DC3A7E
Copy CRC 30DC3A7E
Accurately ripped (confidence 8) [26DD4818] (AR v2)
Copy OK


All tracks accurately ripped

No errors occurred

End of status report

–– CUETools DB Plugin V2.1.6

[CTDB TOCID: KK3zvxDc6e0j7Jd1B0ob3h5C41Y-] found
Submit result: KK3zvxDc6e0j7Jd1B0ob3h5C41Y- has been confirmed
Track | CTDB Status
1 | (60/61) Accurately ripped
2 | (60/61) Accurately ripped
3 | (60/61) Accurately ripped
4 | (58/61) Accurately ripped
5 | (59/61) Accurately ripped
6 | (60/61) Accurately ripped
7 | (60/61) Accurately ripped
8 | (59/61) Accurately ripped
9 | (59/61) Accurately ripped
10 | (58/61) Accurately ripped
11 | (59/61) Accurately ripped
12 | (59/61) Accurately ripped
13 | (58/61) Accurately ripped
14 | (58/61) Accurately ripped


==== Log checksum 0858AFC92FC58E96C27A99DCFACBEC39E69099ACCC0950C4CE5E3D01E60FBCB0 ====

All thanks go to the clickcraftsman

More Music in My Blog
Follow My RSS Channel