Subcategories

Erotic Suicide - Abusement Park (1994)

Posted By: Domestos
Erotic Suicide - Abusement Park (1994)

Erotic Suicide - Abusement Park (1994)
EAC Rip | FLAC (tracks+.cue, log) ~ 316.48 Mb | 43:01 | Scans included
Hard Rock, Heavy Metal, Glam Metal | Country: USA | Label: Fastlane Records - FLR79-996-44

Time to jump in the wayback machine to 1993. A time when some Rock N’ Roll was still an escape, an excuse to have a good time, live shows were a party, hot babes were happily on display and hair was still big! It was the time just as music overdosed on everyday reality and live shows became a drag & an exhibition of untuned guitars, garbled vocals, shoe gazing and depression!

Erotic Suicide were a band based in Oklahoma City who stood tall and bucked the trend that was sweeping through the Rock scene. Their music was fun at a time when even the bands who inspired them were jumping ship, trying to ditch their image and past & writing more “mature” songs. Erotic Suicide stuck to their guns, kept their amps cranked to 11 and reminded people that it was ok to escape from our everyday reality through their music and live shows.

Originally released in 1993, Erotic Suicide’s debut album “Abusement Park” has been remastered and re-issued with a previously unreleased bonus track, “Let You Go” courtesy of Nashville based FnA Records. The band consisted of vocalist Rach Rose & his brother D.D. Rose on drums, Kyle St. Clair on guitar and Leslie Blak on bass. The band toured extensively around the U.S. opening for the likes of Vince Neil, Jackyl, Bang Tango and Ugly Kid Joe.

The band has reached somewhat of a cult status in the past decade with copies of both their albums, “Abusement Park” & “Perseverance” fetching anywhere from $50-$125 on secondary market websites such as Ebay & Amazon. Threads about the band and their recordings pop up quite frequently on music message boards. I’ve got my fingers crossed that FnA Records will give “Perseverance” the remastering, re-release treatment in the future!

The album wastes no time bringing the Rock to your earholes with “Babylon”, a sexually charged rocker paying homage to the sins of the flesh! “Can’t Remember” keeps the momentum going with a lyrical ode to living the Rock N’ Roll lifestyle and waking up to the fact you can’t remember shit about the night before! Oh well, grab some hair of the dog and start all over again! “Can’t Remember” was also released as a video as seen below. “Goin’ Down” brings it down just a notch but lays on a wicked groove. Nice use of gang vocals in the choruses. Kyle lays down one of my favorite solos on the album during this song while D.D. channels his inner-Christoper Walken towards the end.

“Comes Around Goes Around” picks the pace back up with a lyrical “fuck you” to a former lover. This is a song that most should be able to relate to “so please don’t be offended as I kick your ass right out of my front door!”…..CLASSIC! “Mean Sex Machine” is without a doubt my favorite tune on the album. It just oozes sleaze musically and lyrically. Had this song come out during the heyday of the PMRC, I have no doubt that Tipper Gore would have made Erotic Suicide the poster boys for her Feminist Commie crusade against music! Musically, “You’re So Cool” takes a heavier turn with its Pantera-esque riff and groove. Lyrically it’s another “fuck you” to those females who think their shit don’t stink but if they had as many dicks sticking out of them as they do in them then they’d be porcupines.

“Ties Me Up” is another rocker about an unhealthy yet too addictive relationship. Plug the kiddies ears towards the middle of the song so they don’t get exposed to some sinful sounds alas Guns N’ Roses “Rocket Queen.” Kicking off with a chuggin’ riff atop some heavy-footed bass drum, “Get What You Paid For” is all about living in the moment because we are not promised a tomorrow.

A dive bombing guitar leads into some sweet riffage on the second-to-last song, “Wait A Minute”. This track is my 2nd favorite cut on the album. Always had been and even moreso since my failed marriage 10 years after its release. The lyrics really hit home when I FINALLY realized that I’d spent five years with someone who was always trying to change me. You live…..you learn, hopefully! It is always nice when music strikes a deeper chord than just diggin’ a certain song.

“Sweet Summer Nights” is an interesting way to end an album during this time. Most bands put their mid-tempo song or ballad within the first half of the album. Erotic Suicide ends the original “Abusement Park” with theirs. I’m usually not a fan of the “panty dropper” ballads but this one is so well written and performed that it could touch a nerve with even the hardest of rockers. I can envision a venue lit up with lighters as the band played this live or singing along to this while cruising down the highway back in the day. A good tune is a good tune.

To put a cap on this remastered re-issue, the band raided their vault to include “Let You Go”, an acoustically driven ballad about the loss of a loved one. The tune features a very tasteful electric guitar solo that builds in intensity before bringing the full band in to close out the track.

Erotic Suicide were five years too late in terms of having a chance in the mainstream. That’s ok because they stood strong in the face of haters to provide two great albums for those who enjoyed their type of music. Fans of melodic anthemic party rock with a healthy dose of sleaze will digg this album as will fans of early Mötley Crüe, Poison, L.A. Guns, Guns N’ Roses, Faster Pussycat and Skid Row! On a final note, suicide never sounded so good!

Track List:
[1] Babylon
[2] Can't Remember
[3] Goin' Down
[4] Comes Around Goes Around
[5] Mean Sex Machine
[6] You 're So Cool
[7] Ties Me Up
[8] Get What You Pay For
[9] Wait A Minute
[10] Sweet Summer Nights

Erotic Suicide - Abusement Park (1994)

Exact Audio Copy V1.0 beta 3 from 29. August 2011

EAC extraction logfile from 14. October 2012, 4:21

Erotic Suicide / Abusement Park

Used drive : TSSTcorpCDDVDW SH-S223Q Adapter: 2 ID: 1

Read mode : Secure
Utilize accurate stream : Yes
Defeat audio cache : Yes
Make use of C2 pointers : No

Read offset correction : 6
Overread into Lead-In and Lead-Out : No
Fill up missing offset samples with silence : Yes
Delete leading and trailing silent blocks : No
Null samples used in CRC calculations : Yes
Used interface : Native Win32 interface for Win NT & 2000
Gap handling : Appended to previous track

Used output format : User Defined Encoder
Selected bitrate : 128 kBit/s
Quality : High
Add ID3 tag : No
Command line compressor : C:\Program Files\Exact Audio Copy\Flac\flac.exe
Additional command line options : -T "artist=%artist%" -T "title=%title%" -T "album=%albumtitle%" -T "date=%year%" -T "tracknumber=%tracknr%" -T "genre=%genre%" -8 %source%

TOC of the extracted CD

Track | Start | Length | Start sector | End sector
––––––––––––––––––––––––––––-
1 | 0:00.00 | 3:44.67 | 0 | 16866
2 | 3:44.67 | 4:02.35 | 16867 | 35051
3 | 7:47.27 | 4:38.53 | 35052 | 55954
4 | 12:26.05 | 4:58.40 | 55955 | 78344
5 | 17:24.45 | 3:45.57 | 78345 | 95276
6 | 21:10.27 | 4:10.03 | 95277 | 114029
7 | 25:20.30 | 4:57.30 | 114030 | 136334
8 | 30:17.60 | 3:49.20 | 136335 | 153529
9 | 34:07.05 | 4:21.50 | 153530 | 173154
10 | 38:28.55 | 4:32.17 | 173155 | 193571

Track 1

Filename C:\Users\Andrew\Music\MP3\01 Babylon.wav

Pre-gap length 0:00:02.00

Peak level 88.3 %
Extraction speed 4.0 X
Track quality 100.0 %
Test CRC 23717643
Copy CRC 23717643
Accurately ripped (confidence 2) [B280A63C] (AR v1)
Copy OK

Track 2

Filename C:\Users\Andrew\Music\MP3\02 Can't Remember.wav

Pre-gap length 0:00:01.96

Peak level 76.4 %
Extraction speed 4.6 X
Track quality 100.0 %
Test CRC B909BDA9
Copy CRC B909BDA9
Accurately ripped (confidence 2) [A7BBAD92] (AR v1)
Copy OK

Track 3

Filename C:\Users\Andrew\Music\MP3\03 Goin Down.wav

Pre-gap length 0:00:02.09

Peak level 84.1 %
Extraction speed 5.1 X
Track quality 100.0 %
Test CRC B9211E25
Copy CRC B9211E25
Accurately ripped (confidence 2) [E4183D25] (AR v1)
Copy OK

Track 4

Filename C:\Users\Andrew\Music\MP3\04 Comes Around Goes Around.wav

Pre-gap length 0:00:01.73

Peak level 96.5 %
Extraction speed 5.6 X
Track quality 100.0 %
Test CRC 4CBD4190
Copy CRC 4CBD4190
Accurately ripped (confidence 2) [B89CA632] (AR v1)
Copy OK

Track 5

Filename C:\Users\Andrew\Music\MP3\05 Mean Sex Machine.wav

Pre-gap length 0:00:02.13

Peak level 84.6 %
Extraction speed 4.5 X
Track quality 99.9 %
Test CRC 715D01A3
Copy CRC 715D01A3
Accurately ripped (confidence 2) [B786F336] (AR v1)
Copy OK

Track 6

Filename C:\Users\Andrew\Music\MP3\06 You're So Cool.wav

Pre-gap length 0:00:02.09

Peak level 99.8 %
Extraction speed 5.9 X
Track quality 100.0 %
Test CRC AC063456
Copy CRC AC063456
Accurately ripped (confidence 2) [327B685E] (AR v1)
Copy OK

Track 7

Filename C:\Users\Andrew\Music\MP3\07 Ties Me Up.wav

Pre-gap length 0:00:01.46

Peak level 79.8 %
Extraction speed 6.5 X
Track quality 100.0 %
Test CRC 2DFCA7B0
Copy CRC 2DFCA7B0
Accurately ripped (confidence 2) [ECC82270] (AR v1)
Copy OK

Track 8

Filename C:\Users\Andrew\Music\MP3\08 Get What You Pay For.wav

Pre-gap length 0:00:01.84

Peak level 76.8 %
Extraction speed 6.6 X
Track quality 100.0 %
Test CRC F848C772
Copy CRC F848C772
Accurately ripped (confidence 2) [EA7E6F18] (AR v1)
Copy OK

Track 9

Filename C:\Users\Andrew\Music\MP3\09 Wait A Minute.wav

Pre-gap length 0:00:01.97

Peak level 82.5 %
Extraction speed 7.1 X
Track quality 100.0 %
Test CRC EFE1E077
Copy CRC EFE1E077
Accurately ripped (confidence 2) [A5492BBD] (AR v1)
Copy OK

Track 10

Filename C:\Users\Andrew\Music\MP3\10 Sweet Summer Nights.wav

Pre-gap length 0:00:02.06

Peak level 86.6 %
Extraction speed 6.1 X
Track quality 99.9 %
Test CRC 8A1891A1
Copy CRC 8A1891A1
Accurately ripped (confidence 2) [68D6190F] (AR v1)
Copy OK

All tracks accurately ripped

No errors occurred

End of status report

==== Log checksum 4653BEC1C7C6B67F84638B19368097A9B25D0B4475DBF4A2049D50A3BF8AF9A9 ====

All thanks go to the BigFriendlyJim

More Music in My Blog
Follow My RSS Channel