Subcategories

Flying Color - Flying Color (1987/1996)

Posted By: Domestos
Flying Color - Flying Color (1987/1996)

Flying Color - Flying Color (1987/1996)
EAC Rip | FLAC (tracks+.cue, log) ~ 276.34 Mb | 38:18 | Scans included
Melodic Rock, Pop Rock | Country: USA | Label: Munster Records - MRCD 104

In the tradition of John, Paul and George, Flying Color's three mop-topped songwriters traded lead vocals and writing chores on their one and only album, a timeless tribute to ringing guitars. Probably even more derivative of the Byrds or Buffalo Springfield than the Beatles, Flying Color's perfect, guitar-based pop and harmonies marked a movement in rock that would take another ten years to take hold in the mainstream, but the album – in particular the standout tracks "Dear Friend" and "Through Different Eyes" – sounds just as vital as when it was released. ~ AllMusic Review by Denise Sullivan



Track List:
01. Dear Friend (3:09)
02. It Doesn't Matter (3:09)
03. One Saturday (4:16)
04. Through Different Eyes (2:26)
05. Tumble (3:57)
06. Believe, Believe (2:32)
07. Farewell Song (2:59)
08. Bring Back The Rain (2:28)
09. I'm Your Shadow (2:55)
10. Wise To Her Ways (2:37)
11. The Road We're On (Bonus Track) (3:00)
12. By The Fire (Bonus Track) (2:20)
13. Love Is On It's Way (Bonus Track) (2:30)

– Johnny Stuart / Drums
– Dale Duncan, Richard Chase / Guitar, Vocals
– Hector Penalosa / Vocals, Bass

Producer – Tom Mallon

Originally released in 1987.
Tracks 11-13 are Bonus Tracks only on CD release.

Flying Color - Flying Color (1987/1996)

Exact Audio Copy V1.0 beta 2 from 29. April 2011

EAC extraction logfile from 10. June 2012, 16:21

Flying Color / Flying Color

Used drive : TSSTcorpCDDVDW SH-S223C Adapter: 0 ID: 1

Read mode : Secure
Utilize accurate stream : Yes
Defeat audio cache : Yes
Make use of C2 pointers : No

Read offset correction : 697
Overread into Lead-In and Lead-Out : No
Fill up missing offset samples with silence : Yes
Delete leading and trailing silent blocks : No
Null samples used in CRC calculations : Yes
Used interface : Native Win32 interface for Win NT & 2000
Gap handling : Appended to previous track

Used output format : User Defined Encoder
Selected bitrate : 1024 kBit/s
Quality : High
Add ID3 tag : No
Command line compressor : C:\Program Files\Exact Audio Copy\Flac\flac.exe
Additional command line options : -8 -V -T "ARTIST=%artist%" -T "TITLE=%title%" -T "ALBUM=%albumtitle%" -T "DATE=%year%" -T "TRACKNUMBER=%tracknr%" -T "GENRE=%genre%" -T "PERFORMER=%albuminterpret%" -T "COMPOSER=%composer%" %haslyrics%–tag-from-file=LYRICS


TOC of the extracted CD

Track | Start | Length | Start sector | End sector
––––––––––––––––––––––––––––-
1 | 0:00.32 | 3:09.00 | 32 | 14206
2 | 3:09.32 | 3:08.60 | 14207 | 28366
3 | 6:18.17 | 4:15.48 | 28367 | 47539
4 | 10:33.65 | 2:26.12 | 47540 | 58501
5 | 13:00.02 | 3:56.53 | 58502 | 76254
6 | 16:56.55 | 2:32.30 | 76255 | 87684
7 | 19:29.10 | 2:58.52 | 87685 | 101086
8 | 22:27.62 | 2:27.45 | 101087 | 112156
9 | 24:55.32 | 2:55.18 | 112157 | 125299
10 | 27:50.50 | 2:37.32 | 125300 | 137106
11 | 30:28.07 | 3:00.30 | 137107 | 150636
12 | 33:28.37 | 2:20.00 | 150637 | 161136
13 | 35:48.37 | 2:29.45 | 161137 | 172356


Track 1

Filename C:\EAC\flying color\01 - Dear Friend.wav

Pre-gap length 0:00:02.42

Peak level 94.2 %
Extraction speed 2.0 X
Track quality 100.0 %
Test CRC 27683723
Copy CRC 27683723
Accurately ripped (confidence 2) [435D6D0C] (AR v1)
Copy OK

Track 2

Filename C:\EAC\flying color\02 - It Doesn't Matter.wav

Peak level 97.7 %
Extraction speed 2.0 X
Track quality 100.0 %
Test CRC 6DF8E559
Copy CRC 6DF8E559
Accurately ripped (confidence 2) [4E7F24C9] (AR v1)
Copy OK

Track 3

Filename C:\EAC\flying color\03 - One Saturday.wav

Peak level 94.9 %
Extraction speed 1.9 X
Track quality 99.9 %
Test CRC A283093E
Copy CRC A283093E
Accurately ripped (confidence 2) [94520937] (AR v1)
Copy OK

Track 4

Filename C:\EAC\flying color\04 - Through Different Eyes.wav

Peak level 92.5 %
Extraction speed 1.9 X
Track quality 100.0 %
Test CRC 480F28D5
Copy CRC 480F28D5
Accurately ripped (confidence 2) [082F302D] (AR v1)
Copy OK

Track 5

Filename C:\EAC\flying color\05 - Tumble.wav

Peak level 95.6 %
Extraction speed 1.8 X
Track quality 99.9 %
Test CRC 252F9043
Copy CRC 252F9043
Accurately ripped (confidence 2) [676FA016] (AR v1)
Copy OK

Track 6

Filename C:\EAC\flying color\06 - Believe Believe.wav

Peak level 93.1 %
Extraction speed 1.6 X
Track quality 99.9 %
Test CRC 1EA5171D
Copy CRC 1EA5171D
Accurately ripped (confidence 2) [A9CAE271] (AR v1)
Copy OK

Track 7

Filename C:\EAC\flying color\07 - Farewell Song.wav

Peak level 97.2 %
Extraction speed 2.0 X
Track quality 100.0 %
Test CRC C9B64B78
Copy CRC C9B64B78
Accurately ripped (confidence 2) [AA069B6C] (AR v1)
Copy OK

Track 8

Filename C:\EAC\flying color\08 - Bring Back The Rain.wav

Peak level 94.0 %
Extraction speed 1.9 X
Track quality 100.0 %
Test CRC 74F5D697
Copy CRC 74F5D697
Accurately ripped (confidence 2) [A6613D3A] (AR v1)
Copy OK

Track 9

Filename C:\EAC\flying color\09 - I'm Your Shadow.wav

Peak level 94.6 %
Extraction speed 2.0 X
Track quality 100.0 %
Test CRC A7937240
Copy CRC A7937240
Accurately ripped (confidence 2) [0AFF2402] (AR v1)
Copy OK

Track 10

Filename C:\EAC\flying color\10 - Wise To Her Ways.wav

Peak level 92.0 %
Extraction speed 1.9 X
Track quality 100.0 %
Test CRC 32D812DE
Copy CRC 32D812DE
Accurately ripped (confidence 2) [6B71A5E4] (AR v1)
Copy OK

Track 11

Filename C:\EAC\flying color\11 - The Road We're One.wav

Peak level 91.8 %
Extraction speed 2.0 X
Track quality 100.0 %
Test CRC 55D80623
Copy CRC 55D80623
Accurately ripped (confidence 2) [2B660BA8] (AR v1)
Copy OK

Track 12

Filename C:\EAC\flying color\12 - By The Fire.wav

Peak level 93.9 %
Extraction speed 1.9 X
Track quality 100.0 %
Test CRC B878C6EC
Copy CRC B878C6EC
Accurately ripped (confidence 2) [95E2BD59] (AR v1)
Copy OK

Track 13

Filename C:\EAC\flying color\13 - Love Is On Its Way.wav

Peak level 92.6 %
Extraction speed 1.9 X
Track quality 100.0 %
Test CRC 8982E677
Copy CRC 8982E677
Accurately ripped (confidence 2) [9DC6FB0A] (AR v1)
Copy OK


All tracks accurately ripped

No errors occurred

End of status report

==== Log checksum 81C93023D245FE937301AAD4093EB3C86519F72AFCEABD0FBE0A6EB392F9B810 ====

All thanks go to the apollo/ antietam

More Music in My Blog
Follow My RSS Channel