Subcategories

The Hal Galper Quintet - Children Of The Night (1978) {Double-Time DTRCD-125 rel 1997}

Posted By: ruskaval
The Hal Galper Quintet - Children Of The Night (1978) {Double-Time DTRCD-125 rel 1997}

The Hal Galper Quintet - Children Of The Night (1978) {Double-Time DTRCD-125 rel 1997}
EAC rip (secure mode) | FLAC (tracks)+CUE+LOG -> 362 Mb | MP3 @320 -> 155 Mb
Full Artwork @ 300 dpi (jpg) -> 11 Mb | 5% repair rar
© 1978, 1997 Double-Time Records | DTRCD-125
Jazz / Post Bop / Piano

This is one of the hottest albums of the ’70s. Recorded at Rosy’s in New Orleans in 1978 (and originally released a year later as Speak With a Single Voice), it features Galper on piano, Michael Brecker on tenor saxophone and flute, Randy Brecker on trumpet and fluegelhorn, Wayne Dockery on bass and Bob Moses on drums. The hornmen (already famous then for their hard-hitting funk-jazz group, the Brecker Brothers) comprised a blistering front line. Galper was in aggressive form, playing with an energy reminiscent of McCoy Tyner, a spirit of embellishment reminiscent of Art Tatum and a harmonic knowledge reminiscent of Bill Evans. Dockery and Moses formed a heart-pounding tandem.

The originals are modal-oriented vehicles, with climax upon climax as each soloist takes his turn. “I Can’t Get Started” and “Blue in Green” also appear; a surging sense of power dominates even these ballads. The title track is previously unreleased.
In the 1970s, trumpeter Randy and tenor saxophonist Michael Brecker primarily worked as busy studio musicians and co-led the popular R&B/jazz group the Brecker Brothers. On rare occasions, they took vacations from the commercial world and played post-bop jazz. This set, led by pianist Hal Galper, was recorded in 1978 and reissued 19 years later. The Breckers and Galper are in top form, ably supported by veteran bassist Wayne Dockery (who was with the Jazz Messengers in the 1950s) and drummer Bob Moses. Galper contributed four of the challenging selections, including the previously unreleased "Children of the Night," and avoids being overshadowed by the famous horn players. All in all, this is one of Michael and Randy Brecker's finest recordings of the '70s.
The Hal Galper Quintet - Children Of The Night (1978) {Double-Time DTRCD-125 rel 1997}


Personnel:
Randy Brecker (trumpet, flugelhorn)
Michael Brecker (tenor saxophone, flute)
Hal Galper (piano)
Wayne Dockery (bass)
Bob Moses (drums)

Recorded live at ROSY'S, New Orleans, February 1978.

Track Listing
1. Speak With A Single Voice (12:59)
2. I Can't Get Started (10:18)
3. Waiting For Chet (13:06)
4. Blue And Green (M. Davis - B. Evans) (3:06)
5. Now Hear This (9:57)
6. Children Of The Night (H. Galper) (15:52)

Exact Audio Copy V1.1 from 23. June 2015

EAC extraction logfile from 28. April 2016, 12:48

Hal Galper Quintet / Children of the Night

Used drive : TSSTcorpCDDVDW SE-208DB Adapter: 1 ID: 1

Read mode : Secure
Utilize accurate stream : Yes
Defeat audio cache : Yes
Make use of C2 pointers : No

Read offset correction : 6
Overread into Lead-In and Lead-Out : No
Fill up missing offset samples with silence : Yes
Delete leading and trailing silent blocks : No
Null samples used in CRC calculations : Yes
Used interface : Native Win32 interface for Win NT & 2000
Gap handling : Appended to previous track

Used output format : User Defined Encoder
Selected bitrate : 1024 kBit/s
Quality : High
Add ID3 tag : No
Command line compressor : C:\Program Files (x86)\Exact Audio Copy\FLAC\FLAC.EXE
Additional command line options : -8 -V -T "ARTIST=%artist%" -T "TITLE=%title%" -T "ALBUM=%albumtitle%" -T "DATE=%year%" -T "TRACKNUMBER=%tracknr%" -T "GENRE=%genre%" -T "PERFORMER=%albuminterpret%" -T "COMPOSER=%composer%" %haslyrics%–tag-from-file=LYRICS="%lyricsfile%"%haslyrics% -T "ALBUMARTIST=%albumartist%" -T "DISCNUMBER=%cdnumber%" -T "TOTALDISCS=%totalcds%" -T "TOTALTRACKS=%numtracks%" -T "COMMENT=%comment%" %source% -o %dest%


TOC of the extracted CD

Track | Start | Length | Start sector | End sector
––––––––––––––––––––––––––––-
1 | 0:00.00 | 12:59.15 | 0 | 58439
2 | 12:59.15 | 10:18.25 | 58440 | 104814
3 | 23:17.40 | 13:05.65 | 104815 | 163754
4 | 36:23.30 | 3:03.70 | 163755 | 177549
5 | 39:27.25 | 9:56.60 | 177550 | 222309
6 | 49:24.10 | 15:49.67 | 222310 | 293551


Track 1

Filename D:\Downloads\00 - MARIOS\3 - what.cd\00 - UPLOADS\Hal Galper - Children Of The Night (1997) FLAC\01 - Speak with a Single Voice.wav

Pre-gap length 0:00:02.00

Peak level 99.4 %
Extraction speed 2.9 X
Track quality 99.9 %
Test CRC 82280CDE
Copy CRC 82280CDE
Accurately ripped (confidence 2) [6E90519A] (AR v2)
Copy OK

Track 2

Filename D:\Downloads\00 - MARIOS\3 - what.cd\00 - UPLOADS\Hal Galper - Children Of The Night (1997) FLAC\02 - I Can't Get Started.wav

Peak level 96.6 %
Extraction speed 3.7 X
Track quality 100.0 %
Test CRC F08F7134
Copy CRC F08F7134
Accurately ripped (confidence 2) [9372BA63] (AR v2)
Copy OK

Track 3

Filename D:\Downloads\00 - MARIOS\3 - what.cd\00 - UPLOADS\Hal Galper - Children Of The Night (1997) FLAC\03 - Waiting for Chet.wav

Peak level 94.6 %
Extraction speed 4.3 X
Track quality 100.0 %
Test CRC 6DBBA435
Copy CRC 6DBBA435
Accurately ripped (confidence 2) [CE02C4FE] (AR v2)
Copy OK

Track 4

Filename D:\Downloads\00 - MARIOS\3 - what.cd\00 - UPLOADS\Hal Galper - Children Of The Night (1997) FLAC\04 - Blue and Green.wav

Peak level 78.5 %
Extraction speed 3.1 X
Track quality 99.9 %
Test CRC C36D31EE
Copy CRC C36D31EE
Accurately ripped (confidence 2) [2251211E] (AR v2)
Copy OK

Track 5

Filename D:\Downloads\00 - MARIOS\3 - what.cd\00 - UPLOADS\Hal Galper - Children Of The Night (1997) FLAC\05 - Now Hear This.wav

Peak level 93.4 %
Extraction speed 4.8 X
Track quality 100.0 %
Test CRC 0D8CB3ED
Copy CRC 0D8CB3ED
Accurately ripped (confidence 2) [7DDF8972] (AR v2)
Copy OK

Track 6

Filename D:\Downloads\00 - MARIOS\3 - what.cd\00 - UPLOADS\Hal Galper - Children Of The Night (1997) FLAC\06 - Children of the Night.wav

Peak level 90.4 %
Extraction speed 5.0 X
Track quality 99.9 %
Test CRC EE92DEBF
Copy CRC EE92DEBF
Accurately ripped (confidence 2) [F4F74A2F] (AR v2)
Copy OK


All tracks accurately ripped

No errors occurred

End of status report

–– CUETools DB Plugin V2.1.6

[CTDB TOCID: ujTk4R.nX9H4Un0_cppUsc7w_gw-] found
Submit result: ujTk4R.nX9H4Un0_cppUsc7w_gw- has been confirmed
Track | CTDB Status
1 | (2/2) Accurately ripped
2 | (2/2) Accurately ripped
3 | (2/2) Accurately ripped
4 | (2/2) Accurately ripped
5 | (2/2) Accurately ripped
6 | (2/2) Accurately ripped


==== Log checksum 9DCFCD4AAA37F9230E839F44FAA9F6645775350F83AA20EA33092704C4969FF2 ====


The Hal Galper Quintet - Children Of The Night (1978) {Double-Time DTRCD-125 rel 1997}

The Hal Galper Quintet - Children Of The Night (1978) {Double-Time DTRCD-125 rel 1997}


see more Hal Galper…


===