Subcategories

Jerry Lee Lewis - Another Place Another Time (1968) & She Even Woke Me Up To Say Goodbye (1970) {Raven RVCD-155 rel 2002}

Posted By: ruskaval
Jerry Lee Lewis - Another Place Another Time (1968) & She Even Woke Me Up To Say Goodbye (1970) {Raven RVCD-155 rel 2002}

Jerry Lee Lewis - Another Place Another Time (1968) & She Even Woke Me Up To Say Goodbye (1970) {Raven RVCD-155 rel 2002}
EAC rip (secure mode) | FLAC+CUE+LOG -> 422 Mb | MP3 @320 -> 162 Mb
Full Artwork @ 300 dpi (jpg) -> 19 Mb | 5% repair rar
© 1968, 1970, 2002 Mercury / Smash / Raven Records | RVCD-155
Country / Rock & Roll / Traditional Country / Honky Tonk

Raven's 2002 two-fer CD reissue of Jerry Lee Lewis' 1968 album Another Place Another Time and 1970's She Even Woke Me Up to Say Goodbye contains the added bonus of six tracks – over half the album – from 1969's She Still Comes Around (To Love What's Left of Me). By doing this, the disc transcends typical two-fer status (which, frankly, would have been enough, since these two albums are so tremendous, their first CD release is something to celebrate) and becomes the best single-disc collection of Jerry Lee's country material. There have been other discs that tackle the same recordings for Smash (all unfortunately out of print as of this writing), but their scope was a little broader, including many of his '70s hits for Mercury as well as Smash sides unheard here.

On the surface, this may seem to be a drawback – more is usually better, after all – but the narrow focus of this two-fer highlights his peak as pure country singer, when he found his voice and ran with it. He made great music after She Even Woke Me Up to Say Goodbye, to be sure, and had plenty of hits, but these three albums are classics, bristling with excitement and infused with hardcore honky tonk pathos. It's not just that Jerry Lee sounds great on these songs – he rarely sounded bad, after all – but it's that the songs are perfectly suited for him, and the performances are as bold and robust as he is. Also, all the key country hits – "What's Made Milwaukee Famous (Has Made a Loser Out of Me)," "Another Place Another Time," "She Still Comes Around (To Love What's Left of Me)," "Once More With Feeling," "She Even Woke Me Up to Say Goodbye" – are here, and the depth of quality of this material is richer than on some hit collections. These are not just three of the best Jerry Lee albums, they're three of the best and hardest country music ever waxed, and even if one of the records isn't here in its entirety (the best cuts are, though), this is the best way to currently hear them. It's an absolutely essential collection.
Jerry Lee Lewis - Another Place Another Time (1968) & She Even Woke Me Up To Say Goodbye (1970) {Raven RVCD-155 rel 2002}


Track Listing:
1. What's Made Milwaukee Famous (Has Made a Loser Out of Me)
2. Play Me a Song I Can Cry To
3. On the Back Row
4. Walking the Floor Over You
5. All Night Long
6. I'm a Lonesome Fugitive
7. Another Place, Another Time
8. Break My Mind
9. Before the Next Teardrop Falls
10. All the Good Is Gone
11. We Live in Two Different Worlds
12. Once More With Feeling
13. Workin' Man Blues
14. Waiting for a Train
15. Brown Eyed Handsome Man
16. My Only Claim to Fame
17. Since I Met You Baby
18. She Even Woke Me Up to Say Goodbye
19. Wine Me Up
20. When the Grass Grows Over Me
21. You Went Out of Your Way (To Walk on Me)
22. Echoes
23. She Still Comes Around (To Love What's Left of Me)
24. Today I Started Loving You Again
25. There Stands the Glass
26. Listen, They're Playing My Song
27. Let's Talk About Us
28. To Make Love Sweeter for You

EAC extraction logfile from 25. April 2008, 15:45 for CD
Jerry Lee Lewis / Another Place Another Time/She Even Woke Me Up To Say Goodbye

Used drive : BENQ DVD DC DW1670 Adapter: 1 ID: 0
Read mode : Secure with NO C2, accurate stream, disable cache
Read offset correction : 102
Overread into Lead-In and Lead-Out : No

Used output format : C:\Program\FLAC\flac.exe (User Defined Encoder)
256 kBit/s
Additional command line options : -8 -V -T "ARTIST=%a" -T "TITLE=%t" -T "ALBUM=%g" -T "DATE=%y" -T "TRACKNUMBER=%n" -T "GENRE=%m" -T "COMMENT=EAC Flac 1.1.4 -8" %s

Other options :
Fill up missing offset samples with silence : Yes
Delete leading and trailing silent blocks : No
Installed external ASPI interface


Track 1
Filename C:\Documents and Settings\ellroy\Skrivbord\Jerry Lee Lewis - Another Place Another Time (1968) & She Even Woke Me Up To Say Goodbye (1970) [FLAC] (2on1 2002)\01 - What's Made Milwaukee Famous (Has Made A Loser Out Of Me).wav

Pre-gap length 0:00:02.00

Peak level 100.0 %
Track quality 100.0 %
Test CRC B6C4775B
Copy CRC B6C4775B
Copy OK

Track 2
Filename C:\Documents and Settings\ellroy\Skrivbord\Jerry Lee Lewis - Another Place Another Time (1968) & She Even Woke Me Up To Say Goodbye (1970) [FLAC] (2on1 2002)\02 - Play Me A Song I Can Cry To.wav

Pre-gap length 0:00:00.04

Peak level 100.0 %
Track quality 100.0 %
Test CRC 416E28F9
Copy CRC 416E28F9
Copy OK

Track 3
Filename C:\Documents and Settings\ellroy\Skrivbord\Jerry Lee Lewis - Another Place Another Time (1968) & She Even Woke Me Up To Say Goodbye (1970) [FLAC] (2on1 2002)\03 - On The Back Row.wav

Pre-gap length 0:00:00.01

Peak level 100.0 %
Track quality 100.0 %
Test CRC 742445F6
Copy CRC 742445F6
Copy OK

Track 4
Filename C:\Documents and Settings\ellroy\Skrivbord\Jerry Lee Lewis - Another Place Another Time (1968) & She Even Woke Me Up To Say Goodbye (1970) [FLAC] (2on1 2002)\04 - Walking The Floor Over You.wav

Peak level 100.0 %
Track quality 100.0 %
Test CRC 5CED8F47
Copy CRC 5CED8F47
Copy OK

Track 5
Filename C:\Documents and Settings\ellroy\Skrivbord\Jerry Lee Lewis - Another Place Another Time (1968) & She Even Woke Me Up To Say Goodbye (1970) [FLAC] (2on1 2002)\05 - All Night Long.wav

Pre-gap length 0:00:00.01

Peak level 100.0 %
Track quality 100.0 %
Test CRC BE53C862
Copy CRC BE53C862
Copy OK

Track 6
Filename C:\Documents and Settings\ellroy\Skrivbord\Jerry Lee Lewis - Another Place Another Time (1968) & She Even Woke Me Up To Say Goodbye (1970) [FLAC] (2on1 2002)\06 - I'm A Lonesome Fugitive.wav

Peak level 100.0 %
Track quality 100.0 %
Test CRC DDD20645
Copy CRC DDD20645
Copy OK

Track 7
Filename C:\Documents and Settings\ellroy\Skrivbord\Jerry Lee Lewis - Another Place Another Time (1968) & She Even Woke Me Up To Say Goodbye (1970) [FLAC] (2on1 2002)\07 - Another Place Another Time.wav

Pre-gap length 0:00:00.01

Peak level 100.0 %
Track quality 100.0 %
Test CRC DBE06E29
Copy CRC DBE06E29
Copy OK

Track 8
Filename C:\Documents and Settings\ellroy\Skrivbord\Jerry Lee Lewis - Another Place Another Time (1968) & She Even Woke Me Up To Say Goodbye (1970) [FLAC] (2on1 2002)\08 - Break My Mind.wav

Peak level 100.0 %
Track quality 100.0 %
Test CRC 27C87989
Copy CRC 27C87989
Copy OK

Track 9
Filename C:\Documents and Settings\ellroy\Skrivbord\Jerry Lee Lewis - Another Place Another Time (1968) & She Even Woke Me Up To Say Goodbye (1970) [FLAC] (2on1 2002)\09 - Before The Next Teardrop Falls.wav

Peak level 100.0 %
Track quality 100.0 %
Test CRC 9E2EEDC2
Copy CRC 9E2EEDC2
Copy OK

Track 10
Filename C:\Documents and Settings\ellroy\Skrivbord\Jerry Lee Lewis - Another Place Another Time (1968) & She Even Woke Me Up To Say Goodbye (1970) [FLAC] (2on1 2002)\10 - All The Good Is Gone.wav

Peak level 100.0 %
Track quality 100.0 %
Test CRC 4942CC1E
Copy CRC 4942CC1E
Copy OK

Track 11
Filename C:\Documents and Settings\ellroy\Skrivbord\Jerry Lee Lewis - Another Place Another Time (1968) & She Even Woke Me Up To Say Goodbye (1970) [FLAC] (2on1 2002)\11 - We Live In Two Different Worlds.wav

Peak level 100.0 %
Track quality 100.0 %
Test CRC 626DF80F
Copy CRC 626DF80F
Copy OK

Track 12
Filename C:\Documents and Settings\ellroy\Skrivbord\Jerry Lee Lewis - Another Place Another Time (1968) & She Even Woke Me Up To Say Goodbye (1970) [FLAC] (2on1 2002)\12 - Once More With Feeling.wav

Pre-gap length 0:00:00.02

Peak level 100.0 %
Track quality 100.0 %
Test CRC A6FE970D
Copy CRC A6FE970D
Copy OK

Track 13
Filename C:\Documents and Settings\ellroy\Skrivbord\Jerry Lee Lewis - Another Place Another Time (1968) & She Even Woke Me Up To Say Goodbye (1970) [FLAC] (2on1 2002)\13 - Workin' Man Blues.wav

Peak level 100.0 %
Track quality 100.0 %
Test CRC FE92D127
Copy CRC FE92D127
Copy OK

Track 14
Filename C:\Documents and Settings\ellroy\Skrivbord\Jerry Lee Lewis - Another Place Another Time (1968) & She Even Woke Me Up To Say Goodbye (1970) [FLAC] (2on1 2002)\14 - Waiting For A Train.wav

Peak level 100.0 %
Track quality 100.0 %
Test CRC 6A4A5D8E
Copy CRC 6A4A5D8E
Copy OK

Track 15
Filename C:\Documents and Settings\ellroy\Skrivbord\Jerry Lee Lewis - Another Place Another Time (1968) & She Even Woke Me Up To Say Goodbye (1970) [FLAC] (2on1 2002)\15 - Brown-Eyed Handsome Man.wav

Peak level 100.0 %
Track quality 100.0 %
Test CRC DBA493A2
Copy CRC DBA493A2
Copy OK

Track 16
Filename C:\Documents and Settings\ellroy\Skrivbord\Jerry Lee Lewis - Another Place Another Time (1968) & She Even Woke Me Up To Say Goodbye (1970) [FLAC] (2on1 2002)\16 - My Only Claim To Fame.wav

Pre-gap length 0:00:00.05

Peak level 100.0 %
Track quality 99.9 %
Test CRC 94D5AADD
Copy CRC 94D5AADD
Copy OK

Track 17
Filename C:\Documents and Settings\ellroy\Skrivbord\Jerry Lee Lewis - Another Place Another Time (1968) & She Even Woke Me Up To Say Goodbye (1970) [FLAC] (2on1 2002)\17 - Since I Met You Baby.wav

Pre-gap length 0:00:00.05

Peak level 100.0 %
Track quality 100.0 %
Test CRC 07D0FBCE
Copy CRC 07D0FBCE
Copy OK

Track 18
Filename C:\Documents and Settings\ellroy\Skrivbord\Jerry Lee Lewis - Another Place Another Time (1968) & She Even Woke Me Up To Say Goodbye (1970) [FLAC] (2on1 2002)\18 - She Even Woke Me Up To Say Goodbye.wav

Peak level 100.0 %
Track quality 100.0 %
Test CRC 2B018AFF
Copy CRC 2B018AFF
Copy OK

Track 19
Filename C:\Documents and Settings\ellroy\Skrivbord\Jerry Lee Lewis - Another Place Another Time (1968) & She Even Woke Me Up To Say Goodbye (1970) [FLAC] (2on1 2002)\19 - Wine Me Up.wav

Peak level 100.0 %
Track quality 99.9 %
Test CRC 13DC0250
Copy CRC 13DC0250
Copy OK

Track 20
Filename C:\Documents and Settings\ellroy\Skrivbord\Jerry Lee Lewis - Another Place Another Time (1968) & She Even Woke Me Up To Say Goodbye (1970) [FLAC] (2on1 2002)\20 - When The Grass Grows Over Me.wav

Pre-gap length 0:00:00.01

Peak level 100.0 %
Track quality 100.0 %
Test CRC E080084D
Copy CRC E080084D
Copy OK

Track 21
Filename C:\Documents and Settings\ellroy\Skrivbord\Jerry Lee Lewis - Another Place Another Time (1968) & She Even Woke Me Up To Say Goodbye (1970) [FLAC] (2on1 2002)\21 - You Went Out Of Your Way (To Walk Over Me).wav

Pre-gap length 0:00:00.04

Peak level 100.0 %
Track quality 99.9 %
Test CRC CF421AEF
Copy CRC CF421AEF
Copy OK

Track 22
Filename C:\Documents and Settings\ellroy\Skrivbord\Jerry Lee Lewis - Another Place Another Time (1968) & She Even Woke Me Up To Say Goodbye (1970) [FLAC] (2on1 2002)\22 - Echoes.wav

Peak level 100.0 %
Track quality 100.0 %
Test CRC 4DB0C382
Copy CRC 4DB0C382
Copy OK

Track 23
Filename C:\Documents and Settings\ellroy\Skrivbord\Jerry Lee Lewis - Another Place Another Time (1968) & She Even Woke Me Up To Say Goodbye (1970) [FLAC] (2on1 2002)\23 - She Still Comes Around (To Love What's Left Of Me).wav

Peak level 100.0 %
Track quality 99.9 %
Test CRC 65F20072
Copy CRC 65F20072
Copy OK

Track 24
Filename C:\Documents and Settings\ellroy\Skrivbord\Jerry Lee Lewis - Another Place Another Time (1968) & She Even Woke Me Up To Say Goodbye (1970) [FLAC] (2on1 2002)\24 - Today I Started Loving You Again.wav

Pre-gap length 0:00:00.02

Peak level 100.0 %
Track quality 100.0 %
Test CRC 52D442D5
Copy CRC 52D442D5
Copy OK

Track 25
Filename C:\Documents and Settings\ellroy\Skrivbord\Jerry Lee Lewis - Another Place Another Time (1968) & She Even Woke Me Up To Say Goodbye (1970) [FLAC] (2on1 2002)\25 - There Stands The Glass.wav

Peak level 100.0 %
Track quality 100.0 %
Test CRC 9FE03854
Copy CRC 9FE03854
Copy OK

Track 26
Filename C:\Documents and Settings\ellroy\Skrivbord\Jerry Lee Lewis - Another Place Another Time (1968) & She Even Woke Me Up To Say Goodbye (1970) [FLAC] (2on1 2002)\26 - Listen, They're Playing My Song.wav

Pre-gap length 0:00:00.04

Peak level 100.0 %
Track quality 100.0 %
Test CRC 0C1AB1B8
Copy CRC 0C1AB1B8
Copy OK

Track 27
Filename C:\Documents and Settings\ellroy\Skrivbord\Jerry Lee Lewis - Another Place Another Time (1968) & She Even Woke Me Up To Say Goodbye (1970) [FLAC] (2on1 2002)\27 - Let's Talk About Us.wav

Peak level 100.0 %
Track quality 100.0 %
Test CRC DEE2ED3F
Copy CRC DEE2ED3F
Copy OK

Track 28
Filename C:\Documents and Settings\ellroy\Skrivbord\Jerry Lee Lewis - Another Place Another Time (1968) & She Even Woke Me Up To Say Goodbye (1970) [FLAC] (2on1 2002)\28 - To Make Love Sweeter For You.wav

Peak level 100.0 %
Track quality 100.0 %
Test CRC 43F94FFB
Copy CRC 43F94FFB
Copy OK

No errors occured


End of status report


Jerry Lee Lewis - Another Place Another Time (1968) & She Even Woke Me Up To Say Goodbye (1970) {Raven RVCD-155 rel 2002}

Jerry Lee Lewis - Another Place Another Time (1968) & She Even Woke Me Up To Say Goodbye (1970) {Raven RVCD-155 rel 2002}


see more Jerry Lee Lewis…

NEXT -> more Jerry Lee Lewis on the way…


===