Subcategories

Keith Jarrett - Shades (1976) {2013 Japan Jazz The Best Series 24-bit Remaster UCCU-9989}

Posted By: ruskaval
Keith Jarrett - Shades (1976) {2013 Japan Jazz The Best Series 24-bit Remaster UCCU-9989}

Keith Jarrett - Shades (1976) {2013 Japan Jazz The Best Series 24-bit Remaster UCCU-9989}
EAC rip (secure mode) | FLAC (tracks)+CUE+LOG -> 202 Mb | MP3 @320 -> 80 Mb
Full Artwork @ 600 dpi (png) -> 107 Mb | 5% repair rar | 24-bit remaster
© 1976, 2013 Impulse! / Verve / Universal Japan | UCCU-9989
Jazz / Post Bop / Piano

A lost gem from Keith's "with horns" period – a quintet session from the mid 70s, recorded with a group that features Dewey Redman on tenor, plus Charlie Haden on bass, Paul Motian on drums and percussion, and Guilherme Franco on additional percussion. The feel is a bit straighter than Jarrett's excellent Death & The Flower set – as the tunes have a highly rhythmic component, and make good use of the extra percussion to create a flowing, organic groove. There's still a nice loose feel overall, though – almost a take on the loft jazz sound, especially at the moments when Jarrett goes a bit outside on piano. Titles include "Shades Of Jazz", "Southern Smiles", "Rose Petals", and "Diatribe".
Keith Jarrett - Shades (1976) {2013 Japan Jazz The Best Series 24-bit Remaster UCCU-9989}


Personnel:
Keith Jarrett - piano, wood drums, percussion
Dewey Redman - tenor saxophone, maracas, tambourine
Charlie Haden - bass
Paul Motian - drums, percussion
Guilherme Franco - percussion

tracklist:
01 - Shades Of Jazz
02 - Southern Smiles
03 - Rose Petals
04 - Diatribe

Exact Audio Copy V1.0 beta 4 from 7. December 2014

EAC extraction logfile from 10. April 2015, 15:58

Keith Jarrett / Shades

Used drive : TSSTcorpCDDVDW SE-208DB Adapter: 1 ID: 1

Read mode : Secure
Utilize accurate stream : Yes
Defeat audio cache : Yes
Make use of C2 pointers : No

Read offset correction : 6
Overread into Lead-In and Lead-Out : No
Fill up missing offset samples with silence : Yes
Delete leading and trailing silent blocks : No
Null samples used in CRC calculations : Yes
Used interface : Native Win32 interface for Win NT & 2000
Gap handling : Appended to previous track

Used output format : User Defined Encoder
Selected bitrate : 1024 kBit/s
Quality : High
Add ID3 tag : No
Command line compressor : C:\Program Files (x86)\FLAC Frontend\tools\flac.exe
Additional command line options : -8 -V -T "ARTIST=%artist%" -T "TITLE=%title%" -T "ALBUM=%albumtitle%" -T "DATE=%year%" -T "TRACKNUMBER=%tracknr%" -T "TOTALTRACKS=%numtracks%" -T "GENRE=%genre%" -T "ALBUMARTIST=%albumartist%" -T "ALBUM ARTIST=%albumartist%" -T "COMMENT=EAC Secure Mode, Test & Copy, AccurateRip, FLAC -8" %source%


TOC of the extracted CD

Track | Start | Length | Start sector | End sector
––––––––––––––––––––––––––––-
1 | 0:00.00 | 9:54.35 | 0 | 44584
2 | 9:54.35 | 7:52.65 | 44585 | 80049
3 | 17:47.25 | 8:56.62 | 80050 | 120311
4 | 26:44.12 | 7:05.00 | 120312 | 152186


Track 1

Filename D:\_EAC\Keith Jarrett - Shades (1976) [FLAC] {2013 Japan Jazz The Best Series 24-bit Remaster}\01 - Shades Of Jazz.wav

Pre-gap length 0:00:02.00

Peak level 99.2 %
Extraction speed 1.2 X
Track quality 100.0 %
Test CRC ECFDACE9
Copy CRC ECFDACE9
Cannot be verified as accurate (confidence 2) [E8BED572], AccurateRip returned [EB6D46AB] (AR v2)
Copy OK

Track 2

Filename D:\_EAC\Keith Jarrett - Shades (1976) [FLAC] {2013 Japan Jazz The Best Series 24-bit Remaster}\02 - Southern Smiles.wav

Peak level 96.3 %
Extraction speed 1.3 X
Track quality 100.0 %
Test CRC AAE15585
Copy CRC AAE15585
Cannot be verified as accurate (confidence 2) [D9E80D47], AccurateRip returned [58C8D4B0] (AR v2)
Copy OK

Track 3

Filename D:\_EAC\Keith Jarrett - Shades (1976) [FLAC] {2013 Japan Jazz The Best Series 24-bit Remaster}\03 - Rose Petals.wav

Pre-gap length 0:00:04.59

Peak level 98.8 %
Extraction speed 1.4 X
Track quality 99.9 %
Test CRC F488F27B
Copy CRC F488F27B
Cannot be verified as accurate (confidence 2) [94BE5DB9], AccurateRip returned [71C9B80A] (AR v2)
Copy OK

Track 4

Filename D:\_EAC\Keith Jarrett - Shades (1976) [FLAC] {2013 Japan Jazz The Best Series 24-bit Remaster}\04 - Diatribe.wav

Pre-gap length 0:00:05.01

Peak level 99.9 %
Extraction speed 1.6 X
Track quality 100.0 %
Test CRC 7FAE504D
Copy CRC 7FAE504D
Cannot be verified as accurate (confidence 2) [EFB4F325], AccurateRip returned [DA17ED46] (AR v2)
Copy OK


No tracks could be verified as accurate
You may have a different pressing from the one(s) in the database

No errors occurred

End of status report

==== Log checksum D118819D85941F69F85CF495E2B8520C82B1DC0A886B5026E1F821E34468CD69 ====


Keith Jarrett - Shades (1976) {2013 Japan Jazz The Best Series 24-bit Remaster UCCU-9989}

Keith Jarrett - Shades (1976) {2013 Japan Jazz The Best Series 24-bit Remaster UCCU-9989}



===