Little Feat - Original Album Series (2009) [5CD Box Set] -Repost

Posted By: perfecta
Little Feat - Original Album Series (2009) [5CD Box Set] -Repost

Little Feat - Original Album Series (2009) [5CD Box Set]
5x EAC-FLAC Images with CUEs & LOGs - 1003 MB | Full PNG Scans | MP3 CBR 320 Kbps - 403 MB
Blues Rock / Southern Rock / Country Rock | TT - 253:26 minutes | Label: Rhino U.K. # 8122-798359

UK five CD box set containing a quintet of reissued albums, each housed in a mini LP sleeve. Includes the albums Little Feat (1971), Sailin' Shoes (1972), Dixie Chicken (1973), Feats Don't Fail Me Now (1974), and The Last Record Album (1975).

Little Feat @ Wikipedia

allmusic.com biography: Though they had all the trappings of a Southern-fried blues band, Little Feat were hardly conventional. Led by songwriter/guitarist Lowell George, Little Feat were a wildly eclectic band, bringing together strains of blues, R&B, country, and rock & roll. The bandmembers were exceptionally gifted technically and their polished professionalism sat well with the slick sounds coming out of southern California during the '70s. However, Little Feat were hardly slick – they had a surreal sensibility, as evidenced by George's idiosyncratic songwriting, which helped the band earn a cult following among critics and musicians. Though the band earned some success on album-oriented radio, the group was derailed after George's death in 1979.

_______ Little Feat - Original Album Series Box Set contains: _______


Little Feat - Original Album Series (2009) [5CD Box Set] -Repost

Little Feat - Little Feat (1971)
EAC-FLAC with CUE & LOG - 193 MB | 33:28 mins | MP3 CBR 320 Kbps - 76 MB

Tracks:

01. Snakes On Everything
02. Strawberry Flats
03. Truck Stop Girl
04. Brides Of Jesus
05. Willin'
06. Hamburger Midnight
07. Forty Four Blues / How Many More Years
08. Crack In Your Door
09. I've Been The One
10. Takin' My Time
11. Crazy Captain Gunboat Willie

allmusic.com says: It sold poorly (around 11,000 copies) and the band never cut anything like it again, but Little Feat's eponymous debut isn't just one of their finest records, it's one of the great lost rock & roll albums. Even dedicated fans tend to overlook the album, largely because it's the polar opposite of the subtly intricate, funky rhythm & roll that made their reputation during the mid-'70s. Little Feat is a raw, hard-driving, funny and affectionate celebration of American weirdness, equal parts garage rock, roadhouse blues, post-Zappa bizarreness, post-Parsons country rock and slightly bent folk storytelling. Since it's grounded in roots rock, it feels familiar enough, but the vision of chief songwriter/guitarist/vocalist Lowell George is wholly unique and slightly off-center. He sees everything with a gently surreal sense of humor that remains affectionate, whether it's on an ode to a "Truck Stop Girl," the weary trucker's anthem "Willin'," or the goofy character sketch of the crusty old salt "Crazy Captain Gunboat Willie." That affection is balanced by gutsy slices of Americana like the careening travelogue "Strawberry Flats," the darkly humorous "Hamburger Midnight" and a jaw-dropping Howlin' Wolf medley guest-starring Ry Cooder, plus keyboardist Bill Payne's terrific opener "Snakes on Everything." The songwriting itself is remarkable enough, but the band is its equal – they're as loose, vibrant and alive as the Stones at their best. In most respects, this album has more in common with George's earlier band the Factory than the rest of the Little Feat catalog, but there's a deftness in the writing and performance that distinguishes it from either band's work, which makes it all the more remarkable. It's a pity that more people haven't heard the record, but that just means that anyone who owns it feels like they're in on a secret only they and a handful of others know.

Exact Audio Copy V1.0 beta 1 from 15. November 2010

EAC extraction logfile from 21. March 2011, 21:54

Little Feat / Little Feat

Used drive : HL-DT-STDVDRAM GSA-H60N Adapter: 2 ID: 0

Read mode : Secure
Utilize accurate stream : Yes
Defeat audio cache : Yes
Make use of C2 pointers : No

Read offset correction : 667
Overread into Lead-In and Lead-Out : No
Fill up missing offset samples with silence : Yes
Delete leading and trailing silent blocks : No
Null samples used in CRC calculations : Yes
Used interface : Native Win32 interface for Win NT & 2000

Used output format : Internal WAV Routines
Sample format : 44.100 Hz; 16 Bit; Stereo


TOC of the extracted CD

Track | Start | Length | Start sector | End sector
––––––––––––––––––––––––––––-
1 | 0:00.00 | 3:07.50 | 0 | 14074
2 | 3:07.50 | 2:25.10 | 14075 | 24959
3 | 5:32.60 | 2:32.12 | 24960 | 36371
4 | 8:04.72 | 3:23.13 | 36372 | 51609
5 | 11:28.10 | 2:25.27 | 51610 | 62511
6 | 13:53.37 | 2:32.08 | 62512 | 73919
7 | 16:25.45 | 6:32.10 | 73920 | 103329
8 | 22:57.55 | 2:19.02 | 103330 | 113756
9 | 25:16.57 | 2:24.25 | 113757 | 124581
10 | 27:41.07 | 3:50.00 | 124582 | 141831
11 | 31:31.07 | 1:57.20 | 141832 | 150626


Range status and errors

Selected range

Filename C:\Documents and Settings\Администратор\Рабочий стол\Rip by ALLexxess\2009 Little Feat. Original Album Series (5CD Box Set Rhino Records)\1971 Little Feat\Little Feat - Little Feat.wav

Peak level 97.9 %
Extraction speed 0.3 X
Range quality 99.9 %
Test CRC C845FC3C
Copy CRC C845FC3C
Copy OK

No errors occurred


AccurateRip summary

Track 1 accurately ripped (confidence 4) [BEBC71E2]
Track 2 accurately ripped (confidence 4) [3289300F]
Track 3 accurately ripped (confidence 4) [363EE989]
Track 4 accurately ripped (confidence 4) [6646E3EB]
Track 5 accurately ripped (confidence 4) [22B89AB6]
Track 6 accurately ripped (confidence 4) [0CB447EA]
Track 7 accurately ripped (confidence 4) [F9A5E3ED]
Track 8 accurately ripped (confidence 4) [1F360862]
Track 9 accurately ripped (confidence 4) [3A70916D]
Track 10 accurately ripped (confidence 4) [75800FCA]
Track 11 accurately ripped (confidence 4) [C4CAC00A]

All tracks accurately ripped

End of status report

==== Log checksum C36C54201E34D1BC32AF4B506850016EE9662F1D4F019859688D3D7C33EAE601 ====



_________________________________________________________


Little Feat - Original Album Series (2009) [5CD Box Set] -Repost

Little Feat - Sailin' Shoes (1972)
EAC-FLAC with CUE & LOG - 215 MB | 38:00 mins | MP3 CBR 320 Kbps - 87 MB

Tracks:

01. Easy To Slip
02. Cold, Cold, Cold
03. Trouble
04. Tripe Face Boogie
05. Willin'
06. A Apolitical Blues
07. Sailin' Shoes
08. Teenage Nervous Breakdown
09. Got No Shadow
10. Cat Fever
11. Texas Rose Cafe

allmusic.com says: Little Feat's debut may have been a great album but it sold so poorly, they had to either broaden their audience or, in all likelihood, they'd be dropped from Warner. So, Sailin' Shoes is a consciously different record from its predecessor - less raw and bluesy, blessed with a varied production and catchier songs. That still doesn't make it a pop record, since Little Feat, particularly in its first incarnation, was simply too idiosyncratic, earthy and strange for that. It is, however, an utterly thrilling, individual blend of pop, rock, blues and country, due in no small part to a stellar set of songs from Lowell George. If anything, his quirks are all the more apparent here than they were on the debut, since Ted Templeman's production lends each song its own character, plus his pen was getting sharper. George truly finds his voice on this record, with each of his contributions sparkling with off-kilter humor, friendly surreal imagery and humanity, and he demonstrates he can authoritatively write anything from full-throttle rock & roll ("Teenage Nervous Breakdown"), sweet ballads ("Trouble," a sublimely reworked "Willin'"), skewered folk ("Sailin' Shoes"), paranoid rock ("Cold, Cold, Cold") and blues ("A Apolitical Blues") and, yes, even hooky mainstream rock ("Easy to Slip," which should have been the hit the band intended it to be). That's not to discount the contributions of the other members, particularly Bill Payne and Richie Hayward's "Tripe Face Boogie," which is justifiably one of the band's standards, but the thing that truly stuns on Sailin' Shoes is George's songwriting and how the band brings it to a full, colorful life. Nobody could master the twists and turns within George's songs better than Little Feat, and both the songwriter and his band are in prime form here.

Exact Audio Copy V1.0 beta 1 from 15. November 2010

EAC extraction logfile from 21. March 2011, 23:32

Little Feat / Sailin' Shoes

Used drive : HL-DT-STDVDRAM GSA-H60N Adapter: 2 ID: 0

Read mode : Secure
Utilize accurate stream : Yes
Defeat audio cache : Yes
Make use of C2 pointers : No

Read offset correction : 667
Overread into Lead-In and Lead-Out : No
Fill up missing offset samples with silence : Yes
Delete leading and trailing silent blocks : No
Null samples used in CRC calculations : Yes
Used interface : Native Win32 interface for Win NT & 2000

Used output format : Internal WAV Routines
Sample format : 44.100 Hz; 16 Bit; Stereo


TOC of the extracted CD

Track | Start | Length | Start sector | End sector
––––––––––––––––––––––––––––-
1 | 0:00.00 | 3:22.68 | 0 | 15217
2 | 3:22.68 | 4:01.30 | 15218 | 33322
3 | 7:24.23 | 2:18.70 | 33323 | 43742
4 | 9:43.18 | 3:16.12 | 43743 | 58454
5 | 12:59.30 | 2:57.43 | 58455 | 71772
6 | 15:56.73 | 3:28.07 | 71773 | 87379
7 | 19:25.05 | 2:53.20 | 87380 | 100374
8 | 22:18.25 | 2:13.58 | 100375 | 110407
9 | 24:32.08 | 5:08.45 | 110408 | 133552
10 | 29:40.53 | 4:36.70 | 133553 | 154322
11 | 34:17.48 | 3:42.50 | 154323 | 171022


Range status and errors

Selected range

Filename C:\Documents and Settings\Администратор\Рабочий стол\Rip by ALLexxess\2009 Little Feat. Original Album Series (5CD Box Set Rhino Records)\1972 Sailin' Shoes\Little Feat - Sailin' Shoes.wav

Peak level 100.0 %
Extraction speed 0.5 X
Range quality 99.9 %
Test CRC 6FA83FE5
Copy CRC 6FA83FE5
Copy OK

No errors occurred


AccurateRip summary

Track 1 accurately ripped (confidence 4) [0F2CFC00]
Track 2 accurately ripped (confidence 4) [7BD0C30F]
Track 3 accurately ripped (confidence 4) [D07EF1B4]
Track 4 accurately ripped (confidence 4) [2FDB5C5A]
Track 5 accurately ripped (confidence 4) [E97EB2A2]
Track 6 accurately ripped (confidence 4) [195D6E80]
Track 7 accurately ripped (confidence 4) [7624C9C5]
Track 8 accurately ripped (confidence 4) [FAF4B562]
Track 9 accurately ripped (confidence 4) [47F7ECE9]
Track 10 accurately ripped (confidence 4) [BE0000D7]
Track 11 accurately ripped (confidence 4) [86914A0B]

All tracks accurately ripped

End of status report

==== Log checksum F56EA07662CFDE56F7FC95EE14C8CF6FE22A87BEBF75AF46A331D637AD862876 ====



_____________________________________________________


Little Feat - Original Album Series (2009) [5CD Box Set] -Repost

Little Feat - Dixie Chicken (1973)
EAC-FLAC with CUE & LOG - 188 MB | 36:46 mins | MP3 CBR 320 Kbps - 84 MB

Tracks:

01. Dixie Chicken
02. Two Trains
03. Roll Um Easy
04. On Your Way Down
05. Kiss It Off
06. Fool Yourself
07. Walkin All Night
08. Fat Man In The Bathtub
09. Juliette
10. Lafayette Railroad

allmusic.com says: Following Roy Estrada's departure during the supporting tour for Sailin' Shoes, Lowell George became infatuated with New Orleans R&B and mellow jamming, all of which came to a head on their third album, 1973's Dixie Chicken. Although George is firmly in charge - he dominates the record, writing or co-writing seven of the 10 songs - this is the point where Little Feat found its signature sound as a band, and no album they would cut from this point on was too different from this seductive, laid-back, funky record. But no album would be quite as good, either, since Dixie Chicken still had much of the charming lyrical eccentricities of the first two albums, plus what is arguably George's best-ever set of songs. Partially due to the New Orleans infatuation, the album holds together better than Sailin' Shoes and George takes full advantage of the band's increased musical palette, writing songs that sound easy but are quite sophisticated, such as the rolling "Two Trains," the gorgeous, shimmering "Juliette," the deeply soulful and funny "Fat Man in the Bathtub" and the country-funk of the title track, which was covered nearly as frequently as "Willin'." In addition to "Walkin' All Night," a loose bluesy jam by Barrere and Bill Payne, the band also hauls out two covers which fit George's vibe perfectly: Allan Toussaint's slow burner "On Your Way Down" and "Fool Yourself," which was written by Fred Tackett, who later joined a reunited Feat in the '80s. It all adds up to a nearly irresistible record, filled with great songwriting, sultry grooves, and virtuosic performances that never are flashy. Little Feat, along with many jam bands that followed, tried to top this album, but they never managed to make a record this understated, appealing and fine.

Exact Audio Copy V1.0 beta 1 from 15. November 2010

EAC extraction logfile from 22. March 2011, 22:47

Little Feat / Dixie Chicken

Used drive : HL-DT-STDVDRAM GSA-H60N Adapter: 2 ID: 0

Read mode : Secure
Utilize accurate stream : Yes
Defeat audio cache : Yes
Make use of C2 pointers : No

Read offset correction : 667
Overread into Lead-In and Lead-Out : No
Fill up missing offset samples with silence : Yes
Delete leading and trailing silent blocks : No
Null samples used in CRC calculations : Yes
Used interface : Native Win32 interface for Win NT & 2000

Used output format : Internal WAV Routines
Sample format : 44.100 Hz; 16 Bit; Stereo


TOC of the extracted CD

Track | Start | Length | Start sector | End sector
––––––––––––––––––––––––––––-
1 | 0:00.00 | 3:56.37 | 0 | 17736
2 | 3:56.37 | 3:07.30 | 17737 | 31791
3 | 7:03.67 | 2:34.25 | 31792 | 43366
4 | 9:38.17 | 5:34.43 | 43367 | 68459
5 | 15:12.60 | 2:58.27 | 68460 | 81836
6 | 18:11.12 | 3:18.03 | 81837 | 96689
7 | 21:29.15 | 3:36.17 | 96690 | 112906
8 | 25:05.32 | 4:33.68 | 112907 | 133449
9 | 29:39.25 | 3:30.47 | 133450 | 149246
10 | 33:09.72 | 3:36.03 | 149247 | 165449


Range status and errors

Selected range

Filename C:\Documents and Settings\Администратор\Рабочий стол\Rip by ALLexxess\2009 Little Feat. Original Album Series (5CD Box Set Rhino Records)\1973 Dixie Chicken\Little Feat - Dixie Chicken.wav

Peak level 97.9 %
Extraction speed 0.5 X
Range quality 100.0 %
Test CRC 5499A0EA
Copy CRC 5499A0EA
Copy OK

No errors occurred


AccurateRip summary

Track 1 accurately ripped (confidence 4) [F97B0FF7]
Track 2 accurately ripped (confidence 4) [2F7AEC1F]
Track 3 accurately ripped (confidence 4) [B1C4E739]
Track 4 accurately ripped (confidence 4) [9097A9C9]
Track 5 accurately ripped (confidence 4) [26337CC0]
Track 6 accurately ripped (confidence 4) [9CC80743]
Track 7 accurately ripped (confidence 4) [1EB2F4F0]
Track 8 accurately ripped (confidence 4) [525D83E6]
Track 9 accurately ripped (confidence 4) [CE30C86B]
Track 10 accurately ripped (confidence 4) [9C6CD2C7]

All tracks accurately ripped

End of status report

==== Log checksum 16B915447D8AD9CB3BCC93C2446B62C51A2F83BA3F5389BD13FF1F08305DFE23 ====



__________________________________________________


Little Feat - Original Album Series (2009) [5CD Box Set] -Repost

Little Feat - Feats Don't Fail Me Now (1974)
EAC-FLAC with CUE & LOG - 205 MB | 34:29 mins | MP3 CBR 320 Kbps - 79 MB

Tracks:

01. Rock And Roll Doctor
02. Oh Atlanta
03. Skin It Back
04. Down The Road
05. Spanish Moon
06. Feats Don't Fail Me Now
07. The Fan
08. Medley: Cold Cold Cold / Tripe Face Boogie

allmusic.com says: If Dixie Chicken represented a pinnacle of Lowell George as a songwriter and band leader, its sequel Feats Don't Fail Me Now is the pinnacle of Little Feat as a group, showcasing each member at their finest. Not coincidentally, it's the moment where George begins to recede from the spotlight, leaving the band as a true democracy. These observations are only clear in hindsight, since if Feats Don't Fail Me Now is just taken as a record, it's nothing more than a damn good rock & roll record. That's not meant as a dismissal, either, since it's hard to make a rock & roll record as seemingly effortless and infectious as this. Though it effectively builds on the Southern-fried funkiness of Dixie Chicken, it's hardly as mellow as that record - there's a lot of grit, tougher rhythms, lots of guitar and organ. It's as supple as Chicken, though, which means that it's the sound of a touring band at their peak. As it happens, the band is on the top of their writing game as well, with Bill Payne contributing the rollicking "Oh Atlanta" and Paul Barrere turning in one of his best songs, the jazzy funk of "Skin it Back." Each has a co-writing credit with George – Payne on the unreleased Little Feat-era nugget "The Fan" and Barrere (plus Fred Martin) on the infectious title track – who also has a couple of classics with "Rock and Roll Doctor" and the great "Spanish Moon." Feats peters out toward the end, as the group delves into a 10-minute medley of two Sailin' Shoes songs, but that doesn't hurt one of the best albums Little Feat ever cut. It's so good, the group used it as the template for the rest of their career.

Exact Audio Copy V1.0 beta 1 from 15. November 2010

EAC extraction logfile from 23. March 2011, 16:06

Little Feat / Feats Don't Fail Me Now

Used drive : HL-DT-STDVDRAM GSA-H60N Adapter: 2 ID: 0

Read mode : Secure
Utilize accurate stream : Yes
Defeat audio cache : Yes
Make use of C2 pointers : No

Read offset correction : 667
Overread into Lead-In and Lead-Out : No
Fill up missing offset samples with silence : Yes
Delete leading and trailing silent blocks : No
Null samples used in CRC calculations : Yes
Used interface : Native Win32 interface for Win NT & 2000

Used output format : Internal WAV Routines
Sample format : 44.100 Hz; 16 Bit; Stereo


TOC of the extracted CD

Track | Start | Length | Start sector | End sector
––––––––––––––––––––––––––––-
1 | 0:00.00 | 2:58.60 | 0 | 13409
2 | 2:58.60 | 3:29.25 | 13410 | 29109
3 | 6:28.10 | 4:12.15 | 29110 | 48024
4 | 10:40.25 | 3:45.70 | 48025 | 64969
5 | 14:26.20 | 3:06.15 | 64970 | 78934
6 | 17:32.35 | 2:27.50 | 78935 | 90009
7 | 20:00.10 | 4:29.37 | 90010 | 110221
8 | 24:29.47 | 9:59.13 | 110222 | 155159


Range status and errors

Selected range

Filename C:\Documents and Settings\Администратор\Рабочий стол\Rip by ALLexxess\2009 Little Feat. Original Album Series (5CD Box Set Rhino Records)\1974 Feats Don't Fail Me Now\Little Feat - Feats Don't Fail Me Now.wav

Peak level 99.9 %
Extraction speed 1.5 X
Range quality 99.9 %
Test CRC 11C13F28
Copy CRC 11C13F28
Copy OK

No errors occurred


AccurateRip summary

Track 1 accurately ripped (confidence 4) [4B2736CD]
Track 2 accurately ripped (confidence 4) [9723FE18]
Track 3 accurately ripped (confidence 4) [EA4663F9]
Track 4 accurately ripped (confidence 4) [D020221F]
Track 5 accurately ripped (confidence 4) [31CCF96B]
Track 6 accurately ripped (confidence 4) [C52320BC]
Track 7 accurately ripped (confidence 4) [1A6E97D6]
Track 8 accurately ripped (confidence 4) [EFDBF30A]

All tracks accurately ripped

End of status report

==== Log checksum 49B4DD82152912A00996212C55E0CED69D0237C5EC652D1E27B93D1DA4075B0E ====



__________________________________________________


Little Feat - Original Album Series (2009) [5CD Box Set] -Repost

Little Feat - The Last Record Album (1975)
EAC-FLAC with CUE & LOG - 190 MB | 34:35 mins | MP3 CBR 320 Kbps - 77 MB

Tracks:

01. Romance Dance
02. All That You Dream
03. Long Distance Love
04. Day Or Night
05. One Love Stand
06. Down Below The Borderline
07. Somebody's Leavin'
08. Mercenary Territory

allmusic.com says: The title of The Last Record Album isn't literally accurate, but it cuts a lot closer than the band intended, for this is really is the last album of the group's classic era. Starting with this album, leader Lowell George fades into the woodwork, and while the remainder of the group tries valiantly to keep the band afloat, the timing of friction was wrong and the amount of tension was too great. Musically, the group attempts to make Feats Don't Fail Me Now, Pt. 2, but the production from George is curiously flat, and, truth be told, the group just isn't inspired enough to make a satisfying album. For a very short album – only eight songs – too many of the cuts fall flat. Those that succeed, however, are quite good, particularly Paul Barrere and Bill Payne's gently propulsive "All That You Dream," Lowell George's beautiful "Long Distance Love," and the sublime "Mercenary Territory." Even these songs don't have the spark or character they would have had on the more organic Feats, due to George's exceedingly mellow So-Cal production, which is pleasant but doesn't provide Little Feat with enough room to breathe. There are enough signs of Little Feat's true character on The Last Record Album – the three previously mentioned songs are essential for any Feat fan – to make it fairly enjoyable, but it's clear that the band is beginning to run out of steam.

Exact Audio Copy V1.0 beta 1 from 15. November 2010

EAC extraction logfile from 23. March 2011, 16:46

Little Feat / The Last Record Album

Used drive : HL-DT-STDVDRAM GSA-H60N Adapter: 2 ID: 0

Read mode : Secure
Utilize accurate stream : Yes
Defeat audio cache : Yes
Make use of C2 pointers : No

Read offset correction : 667
Overread into Lead-In and Lead-Out : No
Fill up missing offset samples with silence : Yes
Delete leading and trailing silent blocks : No
Null samples used in CRC calculations : Yes
Used interface : Native Win32 interface for Win NT & 2000

Used output format : Internal WAV Routines
Sample format : 44.100 Hz; 16 Bit; Stereo


TOC of the extracted CD

Track | Start | Length | Start sector | End sector
––––––––––––––––––––––––––––-
1 | 0:00.33 | 3:50.02 | 33 | 17284
2 | 3:50.35 | 3:52.70 | 17285 | 34754
3 | 7:43.30 | 2:42.08 | 34755 | 46912
4 | 10:25.38 | 6:26.37 | 46913 | 75899
5 | 16:52.00 | 4:25.43 | 75900 | 95817
6 | 21:17.43 | 3:45.30 | 95818 | 112722
7 | 25:02.73 | 5:08.17 | 112723 | 135839
8 | 30:11.15 | 4:23.58 | 135840 | 155622


Range status and errors

Selected range

Filename C:\Documents and Settings\Администратор\Рабочий стол\Rip by ALLexxess\2009 Little Feat. Original Album Series (5CD Box Set Rhino Records)\1975 The Last Record Album\Little Feat - The Last Record Album.wav

Peak level 90.1 %
Extraction speed 0.7 X
Range quality 100.0 %
Test CRC 519D675B
Copy CRC 519D675B
Copy OK

No errors occurred


AccurateRip summary

Track 1 accurately ripped (confidence 3) [BF1B4C00]
Track 2 accurately ripped (confidence 3) [8B80DB8C]
Track 3 accurately ripped (confidence 3) [7200A6D6]
Track 4 accurately ripped (confidence 3) [EF8079EE]
Track 5 accurately ripped (confidence 3) [DB6ED662]
Track 6 accurately ripped (confidence 3) [7C2CEB22]
Track 7 accurately ripped (confidence 3) [1F30DCFA]
Track 8 accurately ripped (confidence 3) [7ED316E7]

All tracks accurately ripped

End of status report

==== Log checksum 0C50A88783F3351837213DEE0CAC1BFDCBB3F25251A542BD98E3D307FC8E0D1E ====


Dynamic range(s): 12 / 13 / 12 / 13 / 14.
all thanks goes to ALLexxess!

Little Feat - Waiting For Columbus (1978) [MFSL '2010]
Little Feat - The Best Of Little Feat
Little Feat (1971)
FLAC lossless | MP3 320

Sailin' Shoes (1972)
FLAC lossless | MP3 320

Dixie Chicken (1973)
FLAC lossless | MP3 320

Feats Don't Fail Me Now (1974)
FLAC lossless | MP3 320

The Last Record Album (1975)
FLAC lossless | MP3 320

All Covers & Box Scans

Little Feat (1971)
FLAC lossless | MP3 320

Sailin' Shoes (1972)
FLAC lossless | MP3 320

Dixie Chicken (1973)
FLAC lossless | MP3 320

Feats Don't Fail Me Now (1974)
FLAC lossless | MP3 320

The Last Record Album (1975)
FLAC lossless | MP3 320

All Covers & Box Scans