Subcategories

Max Richter - Infra (2017) {Deutsche Grammophon 0289 479 7006 rec 2010 - bonus track}

Posted By: ruskaval
Max Richter - Infra (2017) {Deutsche Grammophon 0289 479 7006 rec 2010 - bonus track}

Max Richter - Infra (2017) {Deutsche Grammophon 0289 479 7006 rec 2010 - bonus track}
EAC rip (secure mode) | FLAC (tracks)+CUE+LOG -> 205 Mb | MP3 @320 -> 97 Mb
Artwork @ 300 dpi (png) -> 27 Mb | 5% repair rar
© 2010, 2017 Deutsche Grammophon | 0289 479 7006
Classical / Contemporary Classical / Post-minimalism / Ambient / Piano / Electronica

DG presents the third physical release from Max Richter's Retrospective catalog, Infra. Written for piano, electronics and string quartet, Infra is an expansion on Richter's score for Wayne McGregor's ballet of the same name that was created as a response to the London bombings on 7/7. Infra follows Richter's latest album, Three Worlds: music from Woolf Works, an album featuring his score for another McGregor ballet, Woolf Works. This CD version of Infra features the bonus track, "Sub Piano."

Max Richter embarks on many scoring projects – most prominently, his music for the award-winning Israeli film Waltz with Bashir – and it’s easy to hear why: albums such as The Blue Notebooks and Memoryhouse feel like, as the cliché about instrumental music goes, soundtracks for films that haven’t been made yet (though a piece from The Blue Notebooks was even used in the soundtrack to Martin Scorsese's Shutter Island). Like Bashir, an animated documentary about the 1982 Lebanon war, Infra is another high-concept project, a ballet inspired by T.S. Eliot's classic poem of yearning and regret, The Waste Land. In turn, Richter's score, which was originally 25 minutes but is expanded to 32 here, was influenced by Schubert's Winterreise. Even in its longer form, many of Infra's pieces are brief, recalling the brilliant miniatures of Richter's ringtone album 24 Postcards in Full Colour. Infra's palette is classic Richter, blending piano, brass, and a string quartet with electronic textures that span luminous washes to ghostly static that lends an alien quality, almost as if the listener is tuning into the score’s frequencies. Like The Waste Land, this music is subtle, its open-ended glimpses adding to its poignancy. Richter shows once again that he’s a master of conveying the maximum amount of emotions with the minimum amount of music: “Journey 4”'s melody teeters between despair and reassurance with almost every note. Despite – or perhaps because of – Infra's subtlety, it offers a wide-open backdrop for dancing. “Infra 8”'s tender swirls and “Infra 2”'s complementary arcs of strings and electronics suggest steps that flow or scuttle like a pair of ragged claws. Whether Richter explores abstract drones as on “Journey 3,” reminds listeners of what a sensitive player he is on piano-driven pieces such as “Journey 1” and “Infra 3,” or unites the work’s elements on major pieces like “Infra 5” and “Infra 7,” he does so with a masterful restraint that gives Infra's slate-gray moods maximum impact. This may be the most subdued of Richter's Fat Cat releases, but every nuance shows the care with which he crafts all of his music.
Max Richter - Infra (2017) {Deutsche Grammophon 0289 479 7006 rec 2010 - bonus track}


Deutsche Grammophon INFO

Musicians

Max Richter – composer, electronics, mixing, piano, primary artist

Nick Barr – viola
Natalia Bonner – violin
Ian Burdge – cello
Chris Worsey – cello
Louisa Fuller – violin

Track LIsting

01 - Infra 1
02 - Journey 1
03 - Infra 2
04 - Infra 3
05 - Journey 2
06 - Infra 4
07 - Journey 3
08 - Journey 4
09 - Journey 5
10 - Infra 5
11 - Infra 6
12 - Infra 7
13 - Infra 8
14 - Sub Piano (Bonus Track)

Exact Audio Copy V1.3 from 2. September 2016

EAC extraction logfile from 7. November 2017, 1:38

Max Richter / Infra

Used drive : ASUS DRW-24B1ST j Adapter: 1 ID: 0

Read mode : Secure
Utilize accurate stream : Yes
Defeat audio cache : Yes
Make use of C2 pointers : No

Read offset correction : 6
Overread into Lead-In and Lead-Out : No
Fill up missing offset samples with silence : Yes
Delete leading and trailing silent blocks : No
Null samples used in CRC calculations : Yes
Used interface : Native Win32 interface for Win NT & 2000
Gap handling : Appended to previous track

Used output format : User Defined Encoder
Selected bitrate : 128 kBit/s
Quality : High
Add ID3 tag : No
Command line compressor : C:\Program Files (x86)\Exact Audio Copy\Flac\flac.exe
Additional command line options : -8 -V -T "ARTIST=%artist%" -T "TITLE=%title%" -T "ALBUM=%albumtitle%" -T "DATE=%year%" -T "TRACKNUMBER=%tracknr%" -T "TOTALTRACKS=%numtracks%" -T "GENRE=%genre%" -T "ALBUMARTIST=%albumartist%" -T "ALBUM ARTIST=%albumartist%" -T "COMMENT=EAC Secure Mode, Test & Copy, AccurateRip, FLAC -8" %source%


TOC of the extracted CD

Track | Start | Length | Start sector | End sector
––––––––––––––––––––––––––––-
1 | 0:00.00 | 4:04.59 | 0 | 18358
2 | 4:04.59 | 2:09.74 | 18359 | 28107
3 | 6:14.58 | 4:27.28 | 28108 | 48160
4 | 10:42.11 | 3:01.46 | 48161 | 61781
5 | 13:43.57 | 2:13.17 | 61782 | 71773
6 | 15:56.74 | 2:45.64 | 71774 | 84212
7 | 18:42.63 | 2:50.56 | 84213 | 97018
8 | 21:33.44 | 4:39.56 | 97019 | 117999
9 | 26:13.25 | 1:13.08 | 118000 | 123482
10 | 27:26.33 | 5:16.31 | 123483 | 147213
11 | 32:42.64 | 2:52.59 | 147214 | 160172
12 | 35:35.48 | 1:45.62 | 160173 | 168109
13 | 37:21.35 | 3:27.72 | 168110 | 183706
14 | 40:49.32 | 0:49.49 | 183707 | 187430


Track 1

Filename D:\_Post2\Richter_Infra\01 - Infra 1.wav

Pre-gap length 0:00:02.00

Peak level 98.8 %
Extraction speed 5.1 X
Track quality 100.0 %
Test CRC 85E971D2
Copy CRC 85E971D2
Accurately ripped (confidence 3) [7E2A315E] (AR v2)
Copy OK

Track 2

Filename D:\_Post2\Richter_Infra\02 - Journey 1.wav

Peak level 80.7 %
Extraction speed 5.0 X
Track quality 100.0 %
Test CRC C2A0BDF9
Copy CRC C2A0BDF9
Accurately ripped (confidence 3) [FB685E4B] (AR v2)
Copy OK

Track 3

Filename D:\_Post2\Richter_Infra\03 - Infra 2.wav

Peak level 93.9 %
Extraction speed 6.0 X
Track quality 100.0 %
Test CRC CE9FA2BC
Copy CRC CE9FA2BC
Accurately ripped (confidence 3) [CC4E5033] (AR v2)
Copy OK

Track 4

Filename D:\_Post2\Richter_Infra\04 - Infra 3.wav

Peak level 98.8 %
Extraction speed 4.9 X
Track quality 99.9 %
Test CRC 4C162191
Copy CRC 4C162191
Accurately ripped (confidence 3) [1E80F14A] (AR v2)
Copy OK

Track 5

Filename D:\_Post2\Richter_Infra\05 - Journey 2.wav

Peak level 98.8 %
Extraction speed 6.0 X
Track quality 100.0 %
Test CRC 4CA2B853
Copy CRC 4CA2B853
Accurately ripped (confidence 3) [76782AB6] (AR v2)
Copy OK

Track 6

Filename D:\_Post2\Richter_Infra\06 - Infra 4.wav

Peak level 98.8 %
Extraction speed 6.6 X
Track quality 100.0 %
Test CRC 2269E7B7
Copy CRC 2269E7B7
Accurately ripped (confidence 3) [AB30603C] (AR v2)
Copy OK

Track 7

Filename D:\_Post2\Richter_Infra\07 - Journey 3.wav

Peak level 85.2 %
Extraction speed 6.8 X
Track quality 100.0 %
Test CRC C82E7B69
Copy CRC C82E7B69
Accurately ripped (confidence 3) [BA92CD00] (AR v2)
Copy OK

Track 8

Filename D:\_Post2\Richter_Infra\08 - Journey 4.wav

Peak level 98.8 %
Extraction speed 7.7 X
Track quality 100.0 %
Test CRC 065EDB9F
Copy CRC 065EDB9F
Accurately ripped (confidence 3) [0C6A018B] (AR v2)
Copy OK

Track 9

Filename D:\_Post2\Richter_Infra\09 - Journey 5.wav

Peak level 24.8 %
Extraction speed 6.1 X
Track quality 100.0 %
Test CRC 9A781C7F
Copy CRC 9A781C7F
Accurately ripped (confidence 3) [4F9822E6] (AR v2)
Copy OK

Track 10

Filename D:\_Post2\Richter_Infra\10 - Infra 5.wav

Peak level 98.8 %
Extraction speed 7.1 X
Track quality 99.9 %
Test CRC 8231080D
Copy CRC 8231080D
Accurately ripped (confidence 3) [D642ED81] (AR v2)
Copy OK

Track 11

Filename D:\_Post2\Richter_Infra\11 - Infra 6.wav

Peak level 79.4 %
Extraction speed 8.1 X
Track quality 100.0 %
Test CRC 5B744BA6
Copy CRC 5B744BA6
Accurately ripped (confidence 3) [9563C5AB] (AR v2)
Copy OK

Track 12

Filename D:\_Post2\Richter_Infra\12 - Infra 7.wav

Peak level 98.8 %
Extraction speed 7.4 X
Track quality 100.0 %
Test CRC 024F3AA0
Copy CRC 024F3AA0
Accurately ripped (confidence 3) [7075FF06] (AR v2)
Copy OK

Track 13

Filename D:\_Post2\Richter_Infra\13 - Infra 8.wav

Peak level 98.8 %
Extraction speed 8.5 X
Track quality 100.0 %
Test CRC 8AD780B9
Copy CRC 8AD780B9
Accurately ripped (confidence 3) [24122A3D] (AR v2)
Copy OK

Track 14

Filename D:\_Post2\Richter_Infra\14 - Sub Piano (Bonus Track).wav

Pre-gap length 0:00:06.00

Peak level 48.7 %
Extraction speed 5.8 X
Track quality 100.0 %
Test CRC 6AFD245B
Copy CRC 6AFD245B
Accurately ripped (confidence 3) [5AB5A158] (AR v2)
Copy OK


All tracks accurately ripped

No errors occurred

End of status report

–– CUETools DB Plugin V2.1.6

[CTDB TOCID: 9UzA9ridndkqQA9DnhpazxJhWOs-] found
Submit result: 9UzA9ridndkqQA9DnhpazxJhWOs- has been confirmed
Track | CTDB Status
1 | (50/50) Accurately ripped
2 | (50/50) Accurately ripped
3 | (50/50) Accurately ripped
4 | (50/50) Accurately ripped
5 | (49/50) Accurately ripped
6 | (50/50) Accurately ripped
7 | (50/50) Accurately ripped
8 | (50/50) Accurately ripped
9 | (50/50) Accurately ripped
10 | (50/50) Accurately ripped
11 | (50/50) Accurately ripped
12 | (50/50) Accurately ripped
13 | (50/50) Accurately ripped
14 | (50/50) Accurately ripped


==== Log checksum D11CEC5B9475B79EB51586B5E4C74AE07E69A1133A7D3EE598547A008A691C5A ====


Max Richter - Infra (2017) {Deutsche Grammophon 0289 479 7006 rec 2010 - bonus track}

Max Richter - Infra (2017) {Deutsche Grammophon 0289 479 7006 rec 2010 - bonus track}



===