Subcategories

Nick Curran - Fixin' Your Head (2000)

Posted By: Domestos
Nick Curran - Fixin' Your Head (2000)

Nick Curran - Fixin' Your Head (2000)
XLD Rip | FLAC (tracks+.cue, log) ~ 203.01 Mb | 40:49 | Covers
Modern Electric Blues, Rockabilly | Country: USA | Label: Texas Jamboree Records - TEXJAM0065

Recorded on vintage equipment in single takes, Nick Curran keeps things simple and swinging on his solo debut. Having played rockabilly with Kim Lenz set Curran's retro-twang cred in stone and the long-time blues aficionado strikes out on his own with the revelatory Fixin' Your Head. With a deep, ringing voice not unlike Amos Milburn or Lloyd Price, and a wide-open T-Bone Walker guitar style, Curran utterly embodies that period of time during the late '40s and early '50s just before the blues became rock & roll. Curran's impressive mix of lesser known cover tunes and originals – the up-tempo "She's Mine" especially – oozes with a genuine pomade and chicken wings mentality. More studied than punk, yet grittier than most contemporary blues releases, Curran has achieved an almost unimaginable "take no prisoners" aesthetic of retro-style absoluteness and modern blues urgency. ~ AllMusic Review by Matt Collar



Track List:
01. Women And Cadillacs (2:58)
02. Boogie With My Baby (3:11)
03. Just Love Me Baby (3:40)
04. I Want To Love You (3:07)
05. Good Rockin' Man (4:02)
06. Lonely Nights (3:56)
07. Loose Lip Mama (2:57)
08. It's My Life, Baby (2:37)
09. She's Mine (2:40)
10. Straighten Up (3:28)
11. Do You Wanna Be My Baby? (2:57)
12. I'm Waiting For Your Call (3:01)
13. Get Rich Quick (2:14)

Acoustic Bass – Eric Matthew Przygocki
Drums – Lisa Pankratz
Guitar, Lead Vocals – Nick Curran
Piano – Matt Farrell
Producer, Engineer – Billy Horton
Saxophone – Jim Trimmier, Murph Motycka

Nick Curran - Fixin' Your Head (2000)

X Lossless Decoder version 20161007 (149.3)

XLD extraction logfile from 2017-02-09 22:37:17 -0800

Nick Curran / Fixin' Your Head

Used drive : Optiarc BD ROM BC-5550H (revision B881)
Media type : Pressed CD

Ripper mode : XLD Secure Ripper
Disable audio cache : OK for the drive with a cache less than 1375KiB
Make use of C2 pointers : NO
Read offset correction : 48
Max retry count : 20
Gap status : Analyzed, Appended (except HTOA)

TOC of the extracted CD
Track | Start | Length | Start sector | End sector
––––––––––––––––––––––––––––-
1 | 00:00:00 | 02:57:48 | 0 | 13322
2 | 02:57:48 | 03:10:71 | 13323 | 27643
3 | 06:08:44 | 03:40:18 | 27644 | 44161
4 | 09:48:62 | 03:07:30 | 44162 | 58216
5 | 12:56:17 | 04:01:70 | 58217 | 76361
6 | 16:58:12 | 03:56:19 | 76362 | 94080
7 | 20:54:31 | 02:56:66 | 94081 | 107346
8 | 23:51:22 | 02:36:45 | 107347 | 119091
9 | 26:27:67 | 02:39:56 | 119092 | 131072
10 | 29:07:48 | 03:28:34 | 131073 | 146706
11 | 32:36:07 | 02:57:10 | 146707 | 159991
12 | 35:33:17 | 03:01:11 | 159992 | 173577
13 | 38:34:28 | 02:14:36 | 173578 | 183663

AccurateRip Summary (DiscID: 00145fca-00cae4ec-b709900d)
Track 01 : OK (v1+v2, confidence 2/3)
Track 02 : OK (v1+v2, confidence 2/3)
Track 03 : OK (v1+v2, confidence 2/3)
Track 04 : OK (v1+v2, confidence 2/3)
Track 05 : OK (v1+v2, confidence 2/3)
Track 06 : OK (v1+v2, confidence 2/3)
Track 07 : OK (v1+v2, confidence 2/3)
Track 08 : OK (v1+v2, confidence 2/3)
Track 09 : OK (v1+v2, confidence 2/3)
Track 10 : OK (v1+v2, confidence 2/3)
Track 11 : OK (v1+v2, confidence 2/3)
Track 12 : OK (v1+v2, confidence 2/3)
Track 13 : OK (v1+v2, confidence 2/3)
->All tracks accurately ripped.

All Tracks
Album gain : -8.01 dB
Peak : 0.988586
Statistics
Read error : 0
Jitter error (maybe fixed) : 0
Retry sector count : 0
Damaged sector count : 0

Track 01
Filename : /Volumes/Archive_01/CD Album Archive Files/FLAC Uploads/Nick Curran/Nick Curran - Fixin' Your Head (Unknown Year) [FLAC]/01-01 Women And Cadillacs.flac
/Volumes/Archive_01/CD Album Archive Files/FLAC Uploads/Nick Curran/Nick Curran - Fixin' Your Head (Unknown Year) [ALAC]/01-01 Women And Cadillacs.m4a
Pre-gap length : 00:02:00

Track gain : -7.55 dB
Peak : 0.988556
CRC32 hash (test run) : 215C81DB
CRC32 hash : 215C81DB
CRC32 hash (skip zero) : C28CF0AF
AccurateRip v1 signature : 2EC709C6
AccurateRip v2 signature : 89E3CDE2
->Accurately ripped (v1+v2, confidence 1+1/3)
Statistics
Read error : 0
Jitter error (maybe fixed) : 0
Retry sector count : 0
Damaged sector count : 0

Track 02
Filename : /Volumes/Archive_01/CD Album Archive Files/FLAC Uploads/Nick Curran/Nick Curran - Fixin' Your Head (Unknown Year) [FLAC]/01-02 Boogie With My Baby.flac
/Volumes/Archive_01/CD Album Archive Files/FLAC Uploads/Nick Curran/Nick Curran - Fixin' Your Head (Unknown Year) [ALAC]/01-02 Boogie With My Baby.m4a
Pre-gap length : 00:02:45

Track gain : -7.33 dB
Peak : 0.988556
CRC32 hash (test run) : 013D9A59
CRC32 hash : 013D9A59
CRC32 hash (skip zero) : 81EF206F
AccurateRip v1 signature : 233AF6A1
AccurateRip v2 signature : 77CF7CB6
->Accurately ripped (v1+v2, confidence 1+1/3)
Statistics
Read error : 0
Jitter error (maybe fixed) : 0
Retry sector count : 0
Damaged sector count : 0

Track 03
Filename : /Volumes/Archive_01/CD Album Archive Files/FLAC Uploads/Nick Curran/Nick Curran - Fixin' Your Head (Unknown Year) [FLAC]/01-03 Just Love Me Baby.flac
/Volumes/Archive_01/CD Album Archive Files/FLAC Uploads/Nick Curran/Nick Curran - Fixin' Your Head (Unknown Year) [ALAC]/01-03 Just Love Me Baby.m4a
Pre-gap length : 00:02:45

Track gain : -8.24 dB
Peak : 0.988556
CRC32 hash (test run) : DB1DED8B
CRC32 hash : DB1DED8B
CRC32 hash (skip zero) : 5FCA494F
AccurateRip v1 signature : 553DA4B4
AccurateRip v2 signature : B0818060
->Accurately ripped (v1+v2, confidence 1+1/3)
Statistics
Read error : 0
Jitter error (maybe fixed) : 0
Retry sector count : 0
Damaged sector count : 0

Track 04
Filename : /Volumes/Archive_01/CD Album Archive Files/FLAC Uploads/Nick Curran/Nick Curran - Fixin' Your Head (Unknown Year) [FLAC]/01-04 I Want To Love You.flac
/Volumes/Archive_01/CD Album Archive Files/FLAC Uploads/Nick Curran/Nick Curran - Fixin' Your Head (Unknown Year) [ALAC]/01-04 I Want To Love You.m4a
Pre-gap length : 00:02:45

Track gain : -7.31 dB
Peak : 0.988556
CRC32 hash (test run) : AA5BD275
CRC32 hash : AA5BD275
CRC32 hash (skip zero) : 89BFA429
AccurateRip v1 signature : D5B71F6D
AccurateRip v2 signature : B58FB37B
->Accurately ripped (v1+v2, confidence 1+1/3)
Statistics
Read error : 0
Jitter error (maybe fixed) : 0
Retry sector count : 0
Damaged sector count : 0

Track 05
Filename : /Volumes/Archive_01/CD Album Archive Files/FLAC Uploads/Nick Curran/Nick Curran - Fixin' Your Head (Unknown Year) [FLAC]/01-05 Good Rockin' Man.flac
/Volumes/Archive_01/CD Album Archive Files/FLAC Uploads/Nick Curran/Nick Curran - Fixin' Your Head (Unknown Year) [ALAC]/01-05 Good Rockin' Man.m4a
Pre-gap length : 00:02:45

Track gain : -8.42 dB
Peak : 0.988556
CRC32 hash (test run) : BC063876
CRC32 hash : BC063876
CRC32 hash (skip zero) : A649B150
AccurateRip v1 signature : 1C58BC28
AccurateRip v2 signature : C87AEF80
->Accurately ripped (v1+v2, confidence 1+1/3)
Statistics
Read error : 0
Jitter error (maybe fixed) : 0
Retry sector count : 0
Damaged sector count : 0

Track 06
Filename : /Volumes/Archive_01/CD Album Archive Files/FLAC Uploads/Nick Curran/Nick Curran - Fixin' Your Head (Unknown Year) [FLAC]/01-06 Lonely Nights.flac
/Volumes/Archive_01/CD Album Archive Files/FLAC Uploads/Nick Curran/Nick Curran - Fixin' Your Head (Unknown Year) [ALAC]/01-06 Lonely Nights.m4a
Pre-gap length : 00:02:45

Track gain : -8.05 dB
Peak : 0.988556
CRC32 hash (test run) : C7224C51
CRC32 hash : C7224C51
CRC32 hash (skip zero) : 18F6C8FD
AccurateRip v1 signature : 291E191B
AccurateRip v2 signature : 6A1967C3
->Accurately ripped (v1+v2, confidence 1+1/3)
Statistics
Read error : 0
Jitter error (maybe fixed) : 0
Retry sector count : 0
Damaged sector count : 0

Track 07
Filename : /Volumes/Archive_01/CD Album Archive Files/FLAC Uploads/Nick Curran/Nick Curran - Fixin' Your Head (Unknown Year) [FLAC]/01-07 Loose Lip Mama.flac
/Volumes/Archive_01/CD Album Archive Files/FLAC Uploads/Nick Curran/Nick Curran - Fixin' Your Head (Unknown Year) [ALAC]/01-07 Loose Lip Mama.m4a
Pre-gap length : 00:02:45

Track gain : -7.21 dB
Peak : 0.988556
CRC32 hash (test run) : DB6BA306
CRC32 hash : DB6BA306
CRC32 hash (skip zero) : F6665DC7
AccurateRip v1 signature : FF1766D3
AccurateRip v2 signature : 8D743BCE
->Accurately ripped (v1+v2, confidence 1+1/3)
Statistics
Read error : 0
Jitter error (maybe fixed) : 0
Retry sector count : 0
Damaged sector count : 0

Track 08
Filename : /Volumes/Archive_01/CD Album Archive Files/FLAC Uploads/Nick Curran/Nick Curran - Fixin' Your Head (Unknown Year) [FLAC]/01-08 It's My Life, Baby.flac
/Volumes/Archive_01/CD Album Archive Files/FLAC Uploads/Nick Curran/Nick Curran - Fixin' Your Head (Unknown Year) [ALAC]/01-08 It's My Life, Baby.m4a
Pre-gap length : 00:02:45

Track gain : -8.66 dB
Peak : 0.988556
CRC32 hash (test run) : 510AFC0D
CRC32 hash : 510AFC0D
CRC32 hash (skip zero) : 1173B0EC
AccurateRip v1 signature : 6F3052CE
AccurateRip v2 signature : CC3D1215
->Accurately ripped (v1+v2, confidence 1+1/3)
Statistics
Read error : 0
Jitter error (maybe fixed) : 0
Retry sector count : 0
Damaged sector count : 0

Track 09
Filename : /Volumes/Archive_01/CD Album Archive Files/FLAC Uploads/Nick Curran/Nick Curran - Fixin' Your Head (Unknown Year) [FLAC]/01-09 She's Mine.flac
/Volumes/Archive_01/CD Album Archive Files/FLAC Uploads/Nick Curran/Nick Curran - Fixin' Your Head (Unknown Year) [ALAC]/01-09 She's Mine.m4a
Pre-gap length : 00:02:45

Track gain : -7.93 dB
Peak : 0.988556
CRC32 hash (test run) : AFB2C11C
CRC32 hash : AFB2C11C
CRC32 hash (skip zero) : CE9C6AB2
AccurateRip v1 signature : 98C686D1
AccurateRip v2 signature : 801B29F3
->Accurately ripped (v1+v2, confidence 1+1/3)
Statistics
Read error : 0
Jitter error (maybe fixed) : 0
Retry sector count : 0
Damaged sector count : 0

Track 10
Filename : /Volumes/Archive_01/CD Album Archive Files/FLAC Uploads/Nick Curran/Nick Curran - Fixin' Your Head (Unknown Year) [FLAC]/01-10 Straighten Up.flac
/Volumes/Archive_01/CD Album Archive Files/FLAC Uploads/Nick Curran/Nick Curran - Fixin' Your Head (Unknown Year) [ALAC]/01-10 Straighten Up.m4a
Pre-gap length : 00:02:45

Track gain : -8.20 dB
Peak : 0.988556
CRC32 hash (test run) : 9B1429DC
CRC32 hash : 9B1429DC
CRC32 hash (skip zero) : 083690E4
AccurateRip v1 signature : EADEAF3E
AccurateRip v2 signature : 349705ED
->Accurately ripped (v1+v2, confidence 1+1/3)
Statistics
Read error : 0
Jitter error (maybe fixed) : 0
Retry sector count : 0
Damaged sector count : 0

Track 11
Filename : /Volumes/Archive_01/CD Album Archive Files/FLAC Uploads/Nick Curran/Nick Curran - Fixin' Your Head (Unknown Year) [FLAC]/01-11 Do You Wanna Be My Baby_.flac
/Volumes/Archive_01/CD Album Archive Files/FLAC Uploads/Nick Curran/Nick Curran - Fixin' Your Head (Unknown Year) [ALAC]/01-11 Do You Wanna Be My Baby_.m4a
Pre-gap length : 00:02:45

Track gain : -7.85 dB
Peak : 0.988586
CRC32 hash (test run) : 7864A230
CRC32 hash : 7864A230
CRC32 hash (skip zero) : DA449A48
AccurateRip v1 signature : 2ED99D84
AccurateRip v2 signature : 74A9AE4A
->Accurately ripped (v1+v2, confidence 1+1/3)
Statistics
Read error : 0
Jitter error (maybe fixed) : 0
Retry sector count : 0
Damaged sector count : 0

Track 12
Filename : /Volumes/Archive_01/CD Album Archive Files/FLAC Uploads/Nick Curran/Nick Curran - Fixin' Your Head (Unknown Year) [FLAC]/01-12 I'm Waiting For Your Call.flac
/Volumes/Archive_01/CD Album Archive Files/FLAC Uploads/Nick Curran/Nick Curran - Fixin' Your Head (Unknown Year) [ALAC]/01-12 I'm Waiting For Your Call.m4a
Pre-gap length : 00:02:45

Track gain : -6.82 dB
Peak : 0.988556
CRC32 hash (test run) : 427C8AAE
CRC32 hash : 427C8AAE
CRC32 hash (skip zero) : 2BD65A17
AccurateRip v1 signature : 2DCC754B
AccurateRip v2 signature : B9E3E413
->Accurately ripped (v1+v2, confidence 1+1/3)
Statistics
Read error : 0
Jitter error (maybe fixed) : 0
Retry sector count : 0
Damaged sector count : 0

Track 13
Filename : /Volumes/Archive_01/CD Album Archive Files/FLAC Uploads/Nick Curran/Nick Curran - Fixin' Your Head (Unknown Year) [FLAC]/01-13 Get Rich Quick.flac
/Volumes/Archive_01/CD Album Archive Files/FLAC Uploads/Nick Curran/Nick Curran - Fixin' Your Head (Unknown Year) [ALAC]/01-13 Get Rich Quick.m4a
Pre-gap length : 00:02:45

Track gain : -8.80 dB
Peak : 0.988556
CRC32 hash (test run) : 915AA97E
CRC32 hash : 915AA97E
CRC32 hash (skip zero) : B8712799
AccurateRip v1 signature : E108F8FB
AccurateRip v2 signature : 240336A4
->Accurately ripped (v1+v2, confidence 1+1/3)
Statistics
Read error : 0
Jitter error (maybe fixed) : 0
Retry sector count : 0
Damaged sector count : 0

No errors occurred

End of status report

––-BEGIN XLD SIGNATURE––-
92DFTXnKHYNZdzqoF.TAljQMGfON0PjoPKjp_slyIa6vEfB.9819WVJhIxu_ERPCz6MFDAhg3h_BcwbLCOX6227qGYZeLUyOEXTzg.K
––-END XLD SIGNATURE––-

All thanks go to the HALlowe2000

More Music in My Blog
Follow My RSS Channel