Prazak Quartet - Beethoven: The String Quartets (2006) (7CD box Set, SACD)

Posted By: shamanicus
Prazak Quartet - Beethoven: The String Quartets (2006) (7CD box Set, SACD)

Pražák Quartet - Beethoven: The String Quartets (2006)
EAC Rip | FLAC (tracks+.cue, log) | Covers (front, back) | 2.21 Gb | MP3 CBR 320kbps | RAR | 1.14 Gb
Classical | Label: Praga Digitals / PRD/DSD 350 013

Beethoven's String Quartets are well known for their inventiveness. The mold of the string quartet form, established by Haydn, was shattered by Beethoven's profound expression and expansion of the "rules." Between 1999 and 2003, the renowned Pražák Quartet recorded all of the Beethoven string quartets, and this match of program and performers is one made in heaven.

The Pražák ensemble approaches each quartet with a Bohemian flair for passion and perfection that must be heard to be believed. The interpretations are paradoxically respectful and irreverent, as if the ensemble was channeling the composer's desire to push the boundaries of the status quo while still remaining faithful to the spirit of what has been established. One of the many highlights of the set is the "Grosse Fuge Op.133" - written when the composer was completely deaf - which inspired Stravinsky to exclaim that the composition was "an absolutely contemporary piece of music that will be contemporary forever."

Praga Digitals has packaged together all of the quartet recordings in a box comprised of hybrid stereo/multi-channel SACDs. In fact, only three of the seven discs contain multi-channel mixes; nonetheless, the performances are so exceptional that the entire set is recommended. The sound quality on each disc is consistent and of very high quality, with only a tinge of edginess affecting the strings.

The hybrid discs include standard resolution layers for regular CD players, and the set also provides a english booklet liner notes analyzing each opus.
By Denis, Amazon.com



Tracklist:

Disc: 1
1. I. Allegro Ma Non Tanto
2. II. Scherzo. Andante Scherzoso Quasi Allegretto
3. III. Menuetto. Allegretto
4. IV. Allegro - Prestissimo
5. I. Allegro
6. II. Menuetto
7. III. Andante Cantabile. Thema - Variations I-IV. Coda. Poco Adagio
8. IV. Allegro
9. I. Allegro Con Brio
10. II. Adagio Affetuoso Ed Appassionato
11. III. Scherzo. Allegro Molto
12. IV. Allegro

Disc: 2
1. I. Allegro
2. II. Andante Con Moto
3. III. Allegretto
4. IV. Presto
5. I. Allegro
6. II. Adagio Cantabile - Allegro - Tempo Primo
7. III. Scherzo. Allegro
8. IV. Allegro Molto Quasi Presto
9. I. Allegro Con Brio
10. II. Adagio Ma Non Troppo
11. III. Scherzo. Allegro
12. IV. Adagio (La Malinconia) - Allegretto

Disc: 3
1. I. Allegro
2. II. Allegretto Vivace E Sempre Scherzando
3. III. Adagio Molto E Mesto - Attacca
4. IV. Theme Russe. Allegro
5. I. Allegro
6. II. Molto Adagio. Si Tratta Questo Pezzo Con Molto Sentimento
7. III. Allegretto
8. IV. Finale: Presto

Disc: 4
1. I. Introduzione. Andante Con Moto - Allegro Vivace
2. II. Andante Con Moto Quasi Allegretto
3. III. Menuetto. Grazioso - Attacca
4. IV. Finale: Allegro Molto
5. I. Poco Adagio - Allegro
6. II. Adagio Ma Non Troppo
7. III. Presto - Attacca
8. IV. Finale: Allegro Con Variazioni

Disc: 5
1. I. Allegro Con Brio
2. II. Allegretto Ma Non Troppo
3. III. Allegro Assai Vivace Ma Serioso
4. IV. Larghetto Espressivo - Allegro Agitato
5. I. Adagio Ma Non Troppo - Allegro
6. II. Presto
7. III. Andante Con Moto, Ma Non Troppo
8. IV. Alla Danza Tedesca : Allegro Assai
9. V. Cavatina : Adagio Molto Espressivo
10. Overtura: Allegro - Meno Mosso E Moderato - Allegro - Fuga: (Allegro) - Meno Mosso E Moderato - Allegro Molto E Con Brio - Allegro
11. Finale : Allegro (Op. 130) (Alternative Finale)

Disc: 6
1. I. Maestoso - Allegro Teneramente
2. II. Adagio, Ma Non Troppo E Molto Cantabile - Andante Con Moto - Adagio Molto Espressivo - Tempo Primo
3. III. Scherzando Vivace - Presto
4. IV. Finale
5. Adagio, Ma Non Troppo E Molto Espressivo - Attacca
6. Allegro Molto Vivace - Attacca
7. Allegro Moderato - Attacca
8. Andante, Ma Non Troppo E Molto Cantabile - Piu Mosso - Andante Moderato E Lusinghiero - Adagio - Allegretto - Adagio, Ma Non Troppo E Semplice - Allegretto
9. Presto - Molto Poco Adagio - Attacca
10. Adagio Quasi Un Poco Andante - Attacca
11. Allegro

Disc: 7
1. I. Assai Sostenuto - Allegro
2. II. Allegretto Ma Non Tanto
3. III. Heiliger Dankgesang Eines Genesenden An Die Gottheit, In Der Lydischen Tonart. Molto Adagio. Mit Innigster Empfindung
4. IV. Alla Marcia, Assai Vivace - Piu Allegro - Attacca
5. V. Allegro Appassionato
6. I. Allegretto
7. II. Vivace
8. III. Lente Assai E Cantante Tranquillo
9. Der Schwer Gefasste Entschluss. Grave (Muss Es Sein?) - Allegro (Es Muss Sein) - Grave, Ma Non Tratto - Allegro

Prazak Quartet - Beethoven: The String Quartets (2006) (7CD box Set, SACD)


Exact Audio Copy V1.3 from 2. September 2016

EAC extraction logfile from 5. November 2017, 0:11

Pražák Quartet / Beethoven - String Quartets

Used drive : HL-DT-STBD-RE BH08LS20 Adapter: 1 ID: 0

Read mode : Secure
Utilize accurate stream : Yes
Defeat audio cache : Yes
Make use of C2 pointers : No

Read offset correction : 667
Overread into Lead-In and Lead-Out : No
Fill up missing offset samples with silence : Yes
Delete leading and trailing silent blocks : No
Null samples used in CRC calculations : Yes
Used interface : Native Win32 interface for Win NT & 2000
Gap handling : Appended to previous track

Used output format : User Defined Encoder
Selected bitrate : 768 kBit/s
Quality : High
Add ID3 tag : No
Command line compressor : C:\Program Files (x86)\Exact Audio Copy\Flac\flac.exe
Additional command line options : -8 -V -T "ARTIST=%artist%" -T "TITLE=%title%" -T "ALBUM=%albumtitle%" -T "DATE=%year%" -T "TRACKNUMBER=%tracknr%" -T "GENRE=%genre%" -T "COMMENT=%comment%" -T "BAND=%albuminterpret%" -T "ALBUMARTIST=%albuminterpret%" -T "COMPOSER=%composer%" %haslyrics%–tag-from-file=LYRICS="%lyricsfile%"%haslyrics% -T "DISCNUMBER=%cdnumber%" -T "TOTALDISCS=%totalcds%" -T "TOTALTRACKS=%numtracks%" %hascover%–picture="%coverfile%"%hascover% %source% -o %dest%


TOC of the extracted CD

Track | Start | Length | Start sector | End sector
––––––––––––––––––––––––––––-
1 | 0:00.00 | 8:57.14 | 0 | 40288
2 | 8:57.14 | 5:44.25 | 40289 | 66113
3 | 14:41.39 | 4:12.61 | 66114 | 85074
4 | 18:54.25 | 4:27.01 | 85075 | 105100
5 | 23:21.26 | 6:50.58 | 105101 | 135908
6 | 30:12.09 | 4:53.23 | 135909 | 157906
7 | 35:05.32 | 9:18.19 | 157907 | 199775
8 | 44:23.51 | 6:33.62 | 199776 | 229312
9 | 50:57.38 | 9:13.07 | 229313 | 270794
10 | 60:10.45 | 9:34.46 | 270795 | 313890
11 | 69:45.16 | 3:18.28 | 313891 | 328768
12 | 73:03.44 | 6:28.32 | 328769 | 357900


Track 1

Filename C:\!M\Pražák Quartet - Beethoven String Quartets (2006)\DISC 1\01 - Beethoven Quartet Opus 18 no 4 ''Allegro ma non Tanto''.wav

Pre-gap length 0:00:02.00

Peak level 94.2 %
Extraction speed 1.3 X
Track quality 99.9 %
Test CRC 6B7CBE69
Copy CRC 6B7CBE69
Accurately ripped (confidence 8) [067146B9] (AR v2)
Copy OK

Track 2

Filename C:\!M\Pražák Quartet - Beethoven String Quartets (2006)\DISC 1\02 - Beethoven Quartet Opus 18 no 4 ''Scherzo''.wav

Peak level 77.9 %
Extraction speed 1.6 X
Track quality 100.0 %
Test CRC 4928FD41
Copy CRC 4928FD41
Accurately ripped (confidence 8) [5B3282E7] (AR v2)
Copy OK

Track 3

Filename C:\!M\Pražák Quartet - Beethoven String Quartets (2006)\DISC 1\03 - Beethoven Quartet Opus 18 no 4 ''Menuetto''.wav

Peak level 80.5 %
Extraction speed 1.6 X
Track quality 100.0 %
Test CRC 2D1344EB
Copy CRC 2D1344EB
Accurately ripped (confidence 8) [5FDBD210] (AR v2)
Copy OK

Track 4

Filename C:\!M\Pražák Quartet - Beethoven String Quartets (2006)\DISC 1\04 - Beethoven Quartet Opus 18 no 4 ''Allegro''.wav

Peak level 90.7 %
Extraction speed 1.7 X
Track quality 100.0 %
Test CRC 526EC117
Copy CRC 526EC117
Accurately ripped (confidence 7) [5576814E] (AR v2)
Copy OK

Track 5

Filename C:\!M\Pražák Quartet - Beethoven String Quartets (2006)\DISC 1\05 - Beethoven Quartet Opus 18 no 5 ''Allegro''.wav

Peak level 87.7 %
Extraction speed 2.0 X
Track quality 100.0 %
Test CRC D066555A
Copy CRC D066555A
Accurately ripped (confidence 7) [4E751A41] (AR v2)
Copy OK

Track 6

Filename C:\!M\Pražák Quartet - Beethoven String Quartets (2006)\DISC 1\06 - Beethoven Quartet Opus 18 no 5 ''Menuetto''.wav

Peak level 78.7 %
Extraction speed 2.0 X
Track quality 100.0 %
Test CRC C54240D5
Copy CRC C54240D5
Accurately ripped (confidence 7) [4BEEAC81] (AR v2)
Copy OK

Track 7

Filename C:\!M\Pražák Quartet - Beethoven String Quartets (2006)\DISC 1\07 - Beethoven Quartet Opus 18 no 5 ''Andante Cantabile''.wav

Peak level 84.3 %
Extraction speed 2.3 X
Track quality 100.0 %
Test CRC D2D21F11
Copy CRC D2D21F11
Accurately ripped (confidence 7) [605BF044] (AR v2)
Copy OK

Track 8

Filename C:\!M\Pražák Quartet - Beethoven String Quartets (2006)\DISC 1\08 - Beethoven Quartet Opus 18 no 5 ''Allegro''.wav

Peak level 70.7 %
Extraction speed 2.3 X
Track quality 100.0 %
Test CRC A9138AE5
Copy CRC A9138AE5
Accurately ripped (confidence 8) [21F2572D] (AR v2)
Copy OK

Track 9

Filename C:\!M\Pražák Quartet - Beethoven String Quartets (2006)\DISC 1\09 - Beethoven Quartet Opus 18 no 1 ''Allegro con Brio''.wav

Peak level 95.8 %
Extraction speed 2.4 X
Track quality 99.9 %
Test CRC C20121C7
Copy CRC C20121C7
Accurately ripped (confidence 8) [F8335D81] (AR v2)
Copy OK

Track 10

Filename C:\!M\Pražák Quartet - Beethoven String Quartets (2006)\DISC 1\10 - Beethoven Quartet Opus 18 no 1 ''Adagio Affetuoso ed Appasionato''.wav

Peak level 67.2 %
Extraction speed 2.7 X
Track quality 100.0 %
Test CRC 20F5B3D4
Copy CRC 20F5B3D4
Accurately ripped (confidence 8) [F64D684F] (AR v2)
Copy OK

Track 11

Filename C:\!M\Pražák Quartet - Beethoven String Quartets (2006)\DISC 1\11 - Beethoven Quartet Opus 18 no 1 ''Scherzo''.wav

Peak level 73.1 %
Extraction speed 2.5 X
Track quality 100.0 %
Test CRC F0EFA7FC
Copy CRC F0EFA7FC
Accurately ripped (confidence 8) [BAAEA8B6] (AR v2)
Copy OK

Track 12

Filename C:\!M\Pražák Quartet - Beethoven String Quartets (2006)\DISC 1\12 - Beethoven Quartet Opus 18 no 1 ''Allegro''.wav

Peak level 88.2 %
Extraction speed 2.6 X
Track quality 99.9 %
Test CRC 3EACE5E5
Copy CRC 3EACE5E5
Accurately ripped (confidence 8) [B4A45EC8] (AR v2)
Copy OK


All tracks accurately ripped

No errors occurred

End of status report

–– CUETools DB Plugin V2.1.6

[CTDB TOCID: ZV6nxb1Z6ul_NBhtr_Olp1TgzHQ-] found
Submit result: already submitted
Track | CTDB Status
1 | (9/9) Accurately ripped
2 | (9/9) Accurately ripped
3 | (9/9) Accurately ripped
4 | (9/9) Accurately ripped
5 | (9/9) Accurately ripped
6 | (9/9) Accurately ripped
7 | (9/9) Accurately ripped
8 | (9/9) Accurately ripped
9 | (9/9) Accurately ripped
10 | (9/9) Accurately ripped
11 | (9/9) Accurately ripped
12 | (9/9) Accurately ripped


==== Log checksum 77AF488D0531F53560B88BE935F9DBC027B8CF4F06B6239087D70083E3A587DD ====

Exact Audio Copy V1.3 from 2. September 2016

EAC extraction logfile from 4. November 2017, 21:22

Prazák Quartet / Beethoven - String Quartets Vol.2 Op.18 Nos. 3, 2, 6

Used drive : HL-DT-STBD-RE BH08LS20 Adapter: 1 ID: 0

Read mode : Secure
Utilize accurate stream : Yes
Defeat audio cache : Yes
Make use of C2 pointers : No

Read offset correction : 667
Overread into Lead-In and Lead-Out : No
Fill up missing offset samples with silence : Yes
Delete leading and trailing silent blocks : No
Null samples used in CRC calculations : Yes
Used interface : Native Win32 interface for Win NT & 2000
Gap handling : Appended to previous track

Used output format : User Defined Encoder
Selected bitrate : 768 kBit/s
Quality : High
Add ID3 tag : No
Command line compressor : C:\Program Files (x86)\Exact Audio Copy\Flac\flac.exe
Additional command line options : -8 -V -T "ARTIST=%artist%" -T "TITLE=%title%" -T "ALBUM=%albumtitle%" -T "DATE=%year%" -T "TRACKNUMBER=%tracknr%" -T "GENRE=%genre%" -T "COMMENT=%comment%" -T "BAND=%albuminterpret%" -T "ALBUMARTIST=%albuminterpret%" -T "COMPOSER=%composer%" %haslyrics%–tag-from-file=LYRICS="%lyricsfile%"%haslyrics% -T "DISCNUMBER=%cdnumber%" -T "TOTALDISCS=%totalcds%" -T "TOTALTRACKS=%numtracks%" %hascover%–picture="%coverfile%"%hascover% %source% -o %dest%


TOC of the extracted CD

Track | Start | Length | Start sector | End sector
––––––––––––––––––––––––––––-
1 | 0:00.00 | 7:41.35 | 0 | 34609
2 | 7:41.35 | 8:24.29 | 34610 | 72438
3 | 16:05.64 | 2:57.67 | 72439 | 85780
4 | 19:03.56 | 6:35.21 | 85781 | 115426
5 | 25:39.02 | 7:34.16 | 115427 | 149492
6 | 33:13.18 | 6:05.34 | 149493 | 176901
7 | 39:18.52 | 4:34.70 | 176902 | 197521
8 | 43:53.47 | 5:23.05 | 197522 | 221751
9 | 49:16.52 | 5:54.24 | 221752 | 248325
10 | 55:11.01 | 7:00.48 | 248326 | 279873
11 | 62:11.49 | 3:20.32 | 279874 | 294905
12 | 65:32.06 | 8:13.00 | 294906 | 331880


Track 1

Filename C:\!M\Pražák Quartet - Beethoven String Quartets (2006)\DISC 2\01 - Streichquartett Nr. 3 D-dur op.18 no.3 - I. Allegro.wav

Pre-gap length 0:00:02.00

Peak level 67.6 %
Extraction speed 1.3 X
Track quality 99.9 %
Test CRC DD1034D9
Copy CRC DD1034D9
Accurately ripped (confidence 8) [0F803E77] (AR v2)
Copy OK

Track 2

Filename C:\!M\Pražák Quartet - Beethoven String Quartets (2006)\DISC 2\02 - II. Andante con moto.wav

Peak level 86.5 %
Extraction speed 1.6 X
Track quality 100.0 %
Test CRC 2D641504
Copy CRC 2D641504
Accurately ripped (confidence 8) [152EDFF7] (AR v2)
Copy OK

Track 3

Filename C:\!M\Pražák Quartet - Beethoven String Quartets (2006)\DISC 2\03 - III. Allegro.wav

Peak level 63.7 %
Extraction speed 1.5 X
Track quality 100.0 %
Test CRC 64DFF458
Copy CRC 64DFF458
Accurately ripped (confidence 8) [9DC3D870] (AR v2)
Copy OK

Track 4

Filename C:\!M\Pražák Quartet - Beethoven String Quartets (2006)\DISC 2\04 - IV. Presto.wav

Peak level 70.2 %
Extraction speed 1.8 X
Track quality 100.0 %
Test CRC 791B50A1
Copy CRC 791B50A1
Accurately ripped (confidence 7) [9BDE4983] (AR v2)
Copy OK

Track 5

Filename C:\!M\Pražák Quartet - Beethoven String Quartets (2006)\DISC 2\05 - Streichquartett Nr. 2 G-dur op.18 no.2 - I. Allegro.wav

Pre-gap length 0:00:05.30

Peak level 74.3 %
Extraction speed 2.0 X
Track quality 100.0 %
Test CRC 018634EE
Copy CRC 018634EE
Accurately ripped (confidence 7) [65BEF2F0] (AR v2)
Copy OK

Track 6

Filename C:\!M\Pražák Quartet - Beethoven String Quartets (2006)\DISC 2\06 - II. Adagio.wav

Peak level 72.5 %
Extraction speed 2.1 X
Track quality 100.0 %
Test CRC 15FAE771
Copy CRC 15FAE771
Accurately ripped (confidence 7) [637908D4] (AR v2)
Copy OK

Track 7

Filename C:\!M\Pražák Quartet - Beethoven String Quartets (2006)\DISC 2\07 - III. Scherzo. Allegro.wav

Peak level 62.7 %
Extraction speed 2.1 X
Track quality 100.0 %
Test CRC 9C22092D
Copy CRC 9C22092D
Accurately ripped (confidence 8) [8E9DEFF3] (AR v2)
Copy OK

Track 8

Filename C:\!M\Pražák Quartet - Beethoven String Quartets (2006)\DISC 2\08 - IV. Allegro molto quasi Presto.wav

Peak level 81.3 %
Extraction speed 2.3 X
Track quality 100.0 %
Test CRC 3E37910B
Copy CRC 3E37910B
Accurately ripped (confidence 8) [13DE1761] (AR v2)
Copy OK

Track 9

Filename C:\!M\Pražák Quartet - Beethoven String Quartets (2006)\DISC 2\09 - Streichquartett Nr. 6 B-dur op.18 no.6 - I. Allegro con brio.wav

Pre-gap length 0:00:06.74

Peak level 87.5 %
Extraction speed 2.4 X
Track quality 100.0 %
Test CRC 570A7CA5
Copy CRC 570A7CA5
Accurately ripped (confidence 8) [C7CABC2B] (AR v2)
Copy OK

Track 10

Filename C:\!M\Pražák Quartet - Beethoven String Quartets (2006)\DISC 2\10 - II. Adagio ma non troppo.wav

Peak level 64.9 %
Extraction speed 2.3 X
Track quality 99.9 %
Test CRC D016B979
Copy CRC D016B979
Accurately ripped (confidence 8) [A365BC03] (AR v2)
Copy OK

Track 11

Filename C:\!M\Pražák Quartet - Beethoven String Quartets (2006)\DISC 2\11 - III. Scherzo. Allegro.wav

Peak level 77.4 %
Extraction speed 2.4 X
Track quality 100.0 %
Test CRC 3D8630A8
Copy CRC 3D8630A8
Accurately ripped (confidence 8) [41334459] (AR v2)
Copy OK

Track 12

Filename C:\!M\Pražák Quartet - Beethoven String Quartets (2006)\DISC 2\12 - IV. Adagio (La Malinconia) - Allegretto.wav

Peak level 76.7 %
Extraction speed 2.6 X
Track quality 99.9 %
Test CRC F4DF1D84
Copy CRC F4DF1D84
Accurately ripped (confidence 8) [748ABD41] (AR v2)
Copy OK


All tracks accurately ripped

No errors occurred

End of status report

–– CUETools DB Plugin V2.1.6

[CTDB TOCID: lSzxNDj3VpW_fz0x5b9CM8N21T4-] found
Submit result: lSzxNDj3VpW_fz0x5b9CM8N21T4- has been confirmed
Track | CTDB Status
1 | (11/11) Accurately ripped
2 | (11/11) Accurately ripped
3 | (11/11) Accurately ripped
4 | (11/11) Accurately ripped
5 | (11/11) Accurately ripped
6 | (11/11) Accurately ripped
7 | (11/11) Accurately ripped
8 | (11/11) Accurately ripped
9 | (11/11) Accurately ripped
10 | (11/11) Accurately ripped
11 | (11/11) Accurately ripped
12 | (11/11) Accurately ripped


==== Log checksum 2D5C227099686B75097D15A7FB04E116684E32F013AA87BC7ED4EB1B1B210989 ====

Exact Audio Copy V1.3 from 2. September 2016

EAC extraction logfile from 5. November 2017, 9:07

Pražák Quartet / Beethoven - String Quartets

Used drive : HL-DT-STBD-RE BH08LS20 Adapter: 1 ID: 0

Read mode : Secure
Utilize accurate stream : Yes
Defeat audio cache : Yes
Make use of C2 pointers : No

Read offset correction : 667
Overread into Lead-In and Lead-Out : No
Fill up missing offset samples with silence : Yes
Delete leading and trailing silent blocks : No
Null samples used in CRC calculations : Yes
Used interface : Native Win32 interface for Win NT & 2000
Gap handling : Appended to previous track

Used output format : User Defined Encoder
Selected bitrate : 768 kBit/s
Quality : High
Add ID3 tag : No
Command line compressor : C:\Program Files (x86)\Exact Audio Copy\Flac\flac.exe
Additional command line options : -8 -V -T "ARTIST=%artist%" -T "TITLE=%title%" -T "ALBUM=%albumtitle%" -T "DATE=%year%" -T "TRACKNUMBER=%tracknr%" -T "GENRE=%genre%" -T "COMMENT=%comment%" -T "BAND=%albuminterpret%" -T "ALBUMARTIST=%albuminterpret%" -T "COMPOSER=%composer%" %haslyrics%–tag-from-file=LYRICS="%lyricsfile%"%haslyrics% -T "DISCNUMBER=%cdnumber%" -T "TOTALDISCS=%totalcds%" -T "TOTALTRACKS=%numtracks%" %hascover%–picture="%coverfile%"%hascover% %source% -o %dest%


TOC of the extracted CD

Track | Start | Length | Start sector | End sector
––––––––––––––––––––––––––––-
1 | 0:00.00 | 10:36.07 | 0 | 47706
2 | 10:36.07 | 9:32.65 | 47707 | 90671
3 | 20:08.72 | 12:05.50 | 90672 | 145096
4 | 32:14.47 | 7:44.38 | 145097 | 179934
5 | 39:59.10 | 9:59.10 | 179935 | 224869
6 | 49:58.20 | 13:25.25 | 224870 | 285269
7 | 63:23.45 | 6:58.22 | 285270 | 316641
8 | 70:21.67 | 5:21.05 | 316642 | 340721


Track 1

Filename C:\!M\Pražák Quartet - Beethoven String Quartets (2006)\DISC 3\01 - Beethoven Quartet Opus 59 no.1 ''Allegro''.wav

Pre-gap length 0:00:02.00

Peak level 74.3 %
Extraction speed 1.4 X
Track quality 99.9 %
Test CRC 345B8D74
Copy CRC 345B8D74
Accurately ripped (confidence 10) [F64AA90B] (AR v2)
Copy OK

Track 2

Filename C:\!M\Pražák Quartet - Beethoven String Quartets (2006)\DISC 3\02 - Beethoven Quartet Opus 59 no.1 ''Allegretto Vivace e sempre Scherzando''.wav

Peak level 81.4 %
Extraction speed 1.7 X
Track quality 100.0 %
Test CRC E1D5A1BD
Copy CRC E1D5A1BD
Accurately ripped (confidence 10) [2C2842C1] (AR v2)
Copy OK

Track 3

Filename C:\!M\Pražák Quartet - Beethoven String Quartets (2006)\DISC 3\03 - Beethoven Quartet Opus 59 no.1 ''Adagio molto e mesto''.wav

Peak level 54.4 %
Extraction speed 2.0 X
Track quality 100.0 %
Test CRC E73BF50C
Copy CRC E73BF50C
Accurately ripped (confidence 9) [56238B47] (AR v2)
Copy OK

Track 4

Filename C:\!M\Pražák Quartet - Beethoven String Quartets (2006)\DISC 3\04 - Beethoven Quartet Opus 59 no.1 ''Theme Russe''.wav

Peak level 79.4 %
Extraction speed 2.1 X
Track quality 100.0 %
Test CRC CC82DD07
Copy CRC CC82DD07
Accurately ripped (confidence 9) [516B569F] (AR v2)
Copy OK

Track 5

Filename C:\!M\Pražák Quartet - Beethoven String Quartets (2006)\DISC 3\05 - Beethoven Quartet Opus 59 no.2 ''Allegro''.wav

Pre-gap length 0:00:07.90

Peak level 82.7 %
Extraction speed 2.4 X
Track quality 100.0 %
Test CRC 333F320A
Copy CRC 333F320A
Accurately ripped (confidence 10) [5C700F42] (AR v2)
Copy OK

Track 6

Filename C:\!M\Pražák Quartet - Beethoven String Quartets (2006)\DISC 3\06 - Beethoven Quartet Opus 59 no.2 ''Molto Adagio''.wav

Peak level 72.5 %
Extraction speed 2.6 X
Track quality 100.0 %
Test CRC E4FE0FEA
Copy CRC E4FE0FEA
Accurately ripped (confidence 10) [7B777494] (AR v2)
Copy OK

Track 7

Filename C:\!M\Pražák Quartet - Beethoven String Quartets (2006)\DISC 3\07 - Beethoven Quartet Opus 59 no.2 ''Allegretto''.wav

Peak level 80.0 %
Extraction speed 2.5 X
Track quality 99.9 %
Test CRC 630D5845
Copy CRC 630D5845
Accurately ripped (confidence 9) [4D77C0AC] (AR v2)
Copy OK

Track 8

Filename C:\!M\Pražák Quartet - Beethoven String Quartets (2006)\DISC 3\08 - Beethoven Quartet Opus 59 no.2 ''Finale- Presto''.wav

Peak level 88.5 %
Extraction speed 2.4 X
Track quality 99.9 %
Test CRC B363CDA5
Copy CRC B363CDA5
Accurately ripped (confidence 9) [2D741F95] (AR v2)
Copy OK


All tracks accurately ripped

No errors occurred

End of status report

–– CUETools DB Plugin V2.1.6

[CTDB TOCID: 0O0Yc705vOY3gd.7d0bDaI60ww4-] found
Submit result: 0O0Yc705vOY3gd.7d0bDaI60ww4- has been confirmed
Track | CTDB Status
1 | (10/10) Accurately ripped
2 | (10/10) Accurately ripped
3 | (10/10) Accurately ripped
4 | (10/10) Accurately ripped
5 | (10/10) Accurately ripped
6 | (10/10) Accurately ripped
7 | (10/10) Accurately ripped
8 | (10/10) Accurately ripped


==== Log checksum D038173A1BB4F24E499960BBED715297727B658B2AF455D8E67B6B137F4C9E23 ====

Exact Audio Copy V1.3 from 2. September 2016

EAC extraction logfile from 5. November 2017, 10:35

Pražák Quartet / Beethoven - String Quartets

Used drive : HL-DT-STBD-RE BH08LS20 Adapter: 1 ID: 0

Read mode : Secure
Utilize accurate stream : Yes
Defeat audio cache : Yes
Make use of C2 pointers : No

Read offset correction : 667
Overread into Lead-In and Lead-Out : No
Fill up missing offset samples with silence : Yes
Delete leading and trailing silent blocks : No
Null samples used in CRC calculations : Yes
Used interface : Native Win32 interface for Win NT & 2000
Gap handling : Appended to previous track

Used output format : User Defined Encoder
Selected bitrate : 768 kBit/s
Quality : High
Add ID3 tag : No
Command line compressor : C:\Program Files (x86)\Exact Audio Copy\Flac\flac.exe
Additional command line options : -8 -V -T "ARTIST=%artist%" -T "TITLE=%title%" -T "ALBUM=%albumtitle%" -T "DATE=%year%" -T "TRACKNUMBER=%tracknr%" -T "GENRE=%genre%" -T "COMMENT=%comment%" -T "BAND=%albuminterpret%" -T "ALBUMARTIST=%albuminterpret%" -T "COMPOSER=%composer%" %haslyrics%–tag-from-file=LYRICS="%lyricsfile%"%haslyrics% -T "DISCNUMBER=%cdnumber%" -T "TOTALDISCS=%totalcds%" -T "TOTALTRACKS=%numtracks%" %hascover%–picture="%coverfile%"%hascover% %source% -o %dest%


TOC of the extracted CD

Track | Start | Length | Start sector | End sector
––––––––––––––––––––––––––––-
1 | 0:00.00 | 10:11.43 | 0 | 45867
2 | 10:11.43 | 9:28.23 | 45868 | 88490
3 | 19:39.66 | 4:57.25 | 88491 | 110790
4 | 24:37.16 | 6:00.44 | 110791 | 137834
5 | 30:37.60 | 9:32.68 | 137835 | 180802
6 | 40:10.53 | 9:31.45 | 180803 | 223672
7 | 49:42.23 | 5:07.06 | 223673 | 246703
8 | 54:49.29 | 6:48.05 | 246704 | 277308


Track 1

Filename C:\!M\Pražák Quartet - Beethoven String Quartets (2006)\DISC 4\01 - Beethoven Quartet Opus 59 no 3 ''Andante con moto-Allegro vivace''.wav

Pre-gap length 0:00:02.00

Peak level 81.7 %
Extraction speed 1.3 X
Track quality 100.0 %
Test CRC 64DA35F3
Copy CRC 64DA35F3
Accurately ripped (confidence 8) [BCF1560F] (AR v2)
Copy OK

Track 2

Filename C:\!M\Pražák Quartet - Beethoven String Quartets (2006)\DISC 4\02 - Beethoven Quartet Opus 59 no 3 ''Andante con moto quasi allegretto''.wav

Peak level 57.1 %
Extraction speed 1.6 X
Track quality 100.0 %
Test CRC 2AD51C8B
Copy CRC 2AD51C8B
Accurately ripped (confidence 9) [57815E76] (AR v2)
Copy OK

Track 3

Filename C:\!M\Pražák Quartet - Beethoven String Quartets (2006)\DISC 4\03 - Beethoven Quartet Opus 59 no 3 ''Menuetto Grazioso & Trio''.wav

Peak level 74.4 %
Extraction speed 1.7 X
Track quality 100.0 %
Test CRC AF3AB6DC
Copy CRC AF3AB6DC
Accurately ripped (confidence 9) [6D7C05B2] (AR v2)
Copy OK

Track 4

Filename C:\!M\Pražák Quartet - Beethoven String Quartets (2006)\DISC 4\04 - Beethoven Quartet Opus 59 no 3 ''Allegro Molto''.wav

Peak level 86.4 %
Extraction speed 1.8 X
Track quality 100.0 %
Test CRC D0C3CD96
Copy CRC D0C3CD96
Accurately ripped (confidence 8) [51BE94EB] (AR v2)
Copy OK

Track 5

Filename C:\!M\Pražák Quartet - Beethoven String Quartets (2006)\DISC 4\05 - Beethoven Quartet Opus 74 ''Poco Adagio''.wav

Pre-gap length 0:00:06.98

Peak level 80.7 %
Extraction speed 2.1 X
Track quality 100.0 %
Test CRC 85BAE556
Copy CRC 85BAE556
Accurately ripped (confidence 8) [2D6624F3] (AR v2)
Copy OK

Track 6

Filename C:\!M\Pražák Quartet - Beethoven String Quartets (2006)\DISC 4\06 - Beethoven Quartet Opus 74 ''Adagio ma non Troppo''.wav

Peak level 57.9 %
Extraction speed 2.2 X
Track quality 100.0 %
Test CRC 5933CD5E
Copy CRC 5933CD5E
Accurately ripped (confidence 8) [1D8E1B07] (AR v2)
Copy OK

Track 7

Filename C:\!M\Pražák Quartet - Beethoven String Quartets (2006)\DISC 4\07 - Beethoven Quartet Opus 74 ''Presto''.wav

Peak level 68.4 %
Extraction speed 2.0 X
Track quality 99.9 %
Test CRC 4099BAFC
Copy CRC 4099BAFC
Accurately ripped (confidence 8) [A8FF0394] (AR v2)
Copy OK

Track 8

Filename C:\!M\Pražák Quartet - Beethoven String Quartets (2006)\DISC 4\08 - Beethoven Quartet Opus 74 ''Allegretto con Variazioni''.wav

Peak level 72.5 %
Extraction speed 2.2 X
Track quality 99.9 %
Test CRC 57D1881A
Copy CRC 57D1881A
Accurately ripped (confidence 8) [A6D22525] (AR v2)
Copy OK


All tracks accurately ripped

No errors occurred

End of status report

–– CUETools DB Plugin V2.1.6

[CTDB TOCID: G11aebKhlIduwj8yQIWD.zeZIf4-] found
Submit result: G11aebKhlIduwj8yQIWD.zeZIf4- has been confirmed
Track | CTDB Status
1 | (7/7) Accurately ripped
2 | (7/7) Accurately ripped
3 | (7/7) Accurately ripped
4 | (7/7) Accurately ripped
5 | (7/7) Accurately ripped
6 | (7/7) Accurately ripped
7 | (7/7) Accurately ripped
8 | (7/7) Accurately ripped


==== Log checksum 70D09815F76F23975E52E442189A04D701E6F1AA91FCFFFCF8885D3A344A3FD5 ====

Exact Audio Copy V1.3 from 2. September 2016

EAC extraction logfile from 5. November 2017, 12:06

Prazak Quartet / Beethoven - String Quartets

Used drive : HL-DT-STBD-RE BH08LS20 Adapter: 1 ID: 0

Read mode : Secure
Utilize accurate stream : Yes
Defeat audio cache : Yes
Make use of C2 pointers : No

Read offset correction : 667
Overread into Lead-In and Lead-Out : No
Fill up missing offset samples with silence : Yes
Delete leading and trailing silent blocks : No
Null samples used in CRC calculations : Yes
Used interface : Native Win32 interface for Win NT & 2000
Gap handling : Appended to previous track

Used output format : User Defined Encoder
Selected bitrate : 768 kBit/s
Quality : High
Add ID3 tag : No
Command line compressor : C:\Program Files (x86)\Exact Audio Copy\Flac\flac.exe
Additional command line options : -8 -V -T "ARTIST=%artist%" -T "TITLE=%title%" -T "ALBUM=%albumtitle%" -T "DATE=%year%" -T "TRACKNUMBER=%tracknr%" -T "GENRE=%genre%" -T "COMMENT=%comment%" -T "BAND=%albuminterpret%" -T "ALBUMARTIST=%albuminterpret%" -T "COMPOSER=%composer%" %haslyrics%–tag-from-file=LYRICS="%lyricsfile%"%haslyrics% -T "DISCNUMBER=%cdnumber%" -T "TOTALDISCS=%totalcds%" -T "TOTALTRACKS=%numtracks%" %hascover%–picture="%coverfile%"%hascover% %source% -o %dest%


TOC of the extracted CD

Track | Start | Length | Start sector | End sector
––––––––––––––––––––––––––––-
1 | 0:00.00 | 4:40.33 | 0 | 21032
2 | 4:40.33 | 6:49.50 | 21033 | 51757
3 | 11:30.08 | 4:41.35 | 51758 | 72867
4 | 16:11.43 | 4:52.55 | 72868 | 94822
5 | 21:04.23 | 12:42.64 | 94823 | 152036
6 | 33:47.12 | 1:56.39 | 152037 | 160775
7 | 35:43.51 | 6:21.13 | 160776 | 189363
8 | 42:04.64 | 3:01.33 | 189364 | 202971
9 | 45:06.22 | 6:19.69 | 202972 | 231465
10 | 51:26.16 | 15:41.27 | 231466 | 302067
11 | 67:07.43 | 9:16.57 | 302068 | 343824


Track 1

Filename C:\!M\Pražák Quartet - Beethoven String Quartets (2006)\DISC 5\01 - Beethoven Quartet Opus 95 ''Allegro con Brio''.wav

Pre-gap length 0:00:02.00

Peak level 69.8 %
Extraction speed 1.2 X
Track quality 100.0 %
Test CRC 1E705B41
Copy CRC 1E705B41
Accurately ripped (confidence 7) [6999E1A5] (AR v2)
Copy OK

Track 2

Filename C:\!M\Pražák Quartet - Beethoven String Quartets (2006)\DISC 5\02 - Beethoven Quartet Opus 95 ''Allegretto ma non troppo''.wav

Peak level 72.4 %
Extraction speed 1.4 X
Track quality 99.9 %
Test CRC B60EB681
Copy CRC B60EB681
Accurately ripped (confidence 7) [5F7FC46A] (AR v2)
Copy OK

Track 3

Filename C:\!M\Pražák Quartet - Beethoven String Quartets (2006)\DISC 5\03 - Beethoven Quartet Opus 95 ''Allergo assai vivace ma serioso''.wav

Peak level 86.3 %
Extraction speed 1.6 X
Track quality 100.0 %
Test CRC 9779A590
Copy CRC 9779A590
Accurately ripped (confidence 7) [0FD107CE] (AR v2)
Copy OK

Track 4

Filename C:\!M\Pražák Quartet - Beethoven String Quartets (2006)\DISC 5\04 - Beethoven Quartet Opus 95 ''Larghetto espressivo''.wav

Peak level 67.7 %
Extraction speed 1.7 X
Track quality 100.0 %
Test CRC 902C7201
Copy CRC 902C7201
Accurately ripped (confidence 6) [37976404] (AR v2)
Copy OK

Track 5

Filename C:\!M\Pražák Quartet - Beethoven String Quartets (2006)\DISC 5\05 - Beethoven Quartet Opus 130 ''Adagio ma non troppo''.wav

Pre-gap length 0:00:08.02

Peak level 82.9 %
Extraction speed 2.0 X
Track quality 100.0 %
Test CRC 079B74AA
Copy CRC 079B74AA
Accurately ripped (confidence 7) [66F67A18] (AR v2)
Copy OK

Track 6

Filename C:\!M\Pražák Quartet - Beethoven String Quartets (2006)\DISC 5\06 - Beethoven Quartet Opus 130 ''Presto''.wav

Peak level 88.3 %
Extraction speed 1.4 X
Track quality 99.9 %
Test CRC 7C729AC6
Copy CRC 7C729AC6
Accurately ripped (confidence 7) [B8BDC9EA] (AR v2)
Copy OK

Track 7

Filename C:\!M\Pražák Quartet - Beethoven String Quartets (2006)\DISC 5\07 - Beethoven Quartet Opus 130 ''Andante''.wav

Peak level 49.8 %
Extraction speed 2.2 X
Track quality 100.0 %
Test CRC 91D7D402
Copy CRC 91D7D402
Accurately ripped (confidence 7) [B5BD9E3A] (AR v2)
Copy OK

Track 8

Filename C:\!M\Pražák Quartet - Beethoven String Quartets (2006)\DISC 5\08 - Beethoven Quartet Opus 130 ''Alla danza tedesca''.wav

Peak level 58.9 %
Extraction speed 2.0 X
Track quality 100.0 %
Test CRC BE45D53C
Copy CRC BE45D53C
Accurately ripped (confidence 8) [B2DAC366] (AR v2)
Copy OK

Track 9

Filename C:\!M\Pražák Quartet - Beethoven String Quartets (2006)\DISC 5\09 - Beethoven Quartet Opus 130 ''Cavatina''.wav

Peak level 36.9 %
Extraction speed 2.3 X
Track quality 100.0 %
Test CRC 7A3EB055
Copy CRC 7A3EB055
Accurately ripped (confidence 8) [34529118] (AR v2)
Copy OK

Track 10

Filename C:\!M\Pražák Quartet - Beethoven String Quartets (2006)\DISC 5\10 - Beethoven Quartet Opus 133 ''Grande Fuge''.wav

Peak level 82.7 %
Extraction speed 2.7 X
Track quality 100.0 %
Test CRC DF77295E
Copy CRC DF77295E
Accurately ripped (confidence 8) [0182873C] (AR v2)
Copy OK

Track 11

Filename C:\!M\Pražák Quartet - Beethoven String Quartets (2006)\DISC 5\11 - Beethoven Quartet Opus 130 ''Alternative Finale''.wav

Peak level 81.3 %
Extraction speed 2.6 X
Track quality 99.9 %
Test CRC B8E472E9
Copy CRC B8E472E9
Accurately ripped (confidence 8) [A68D6994] (AR v2)
Copy OK


All tracks accurately ripped

No errors occurred

End of status report

–– CUETools DB Plugin V2.1.6

[CTDB TOCID: 7OAu3_qO0oRBKc6RSz1XVBHMKYE-] found
Submit result: 7OAu3_qO0oRBKc6RSz1XVBHMKYE- has been confirmed
Track | CTDB Status
1 | (6/6) Accurately ripped
2 | (6/6) Accurately ripped
3 | (6/6) Accurately ripped
4 | (6/6) Accurately ripped
5 | (6/6) Accurately ripped
6 | (6/6) Accurately ripped
7 | (6/6) Accurately ripped
8 | (6/6) Accurately ripped
9 | (6/6) Accurately ripped
10 | (6/6) Accurately ripped
11 | (6/6) Accurately ripped


==== Log checksum D2877EEB62717CFC6CE7904859D8410B72A025B5C01625D41372F80DCBD0A348 ====

Exact Audio Copy V1.3 from 2. September 2016

EAC extraction logfile from 5. November 2017, 13:40

Pražák Quartet / Beethoven - String Quartets Vol.5

Used drive : HL-DT-STBD-RE BH08LS20 Adapter: 1 ID: 0

Read mode : Secure
Utilize accurate stream : Yes
Defeat audio cache : Yes
Make use of C2 pointers : No

Read offset correction : 667
Overread into Lead-In and Lead-Out : No
Fill up missing offset samples with silence : Yes
Delete leading and trailing silent blocks : No
Null samples used in CRC calculations : Yes
Used interface : Native Win32 interface for Win NT & 2000
Gap handling : Appended to previous track

Used output format : User Defined Encoder
Selected bitrate : 768 kBit/s
Quality : High
Add ID3 tag : No
Command line compressor : C:\Program Files (x86)\Exact Audio Copy\Flac\flac.exe
Additional command line options : -8 -V -T "ARTIST=%artist%" -T "TITLE=%title%" -T "ALBUM=%albumtitle%" -T "DATE=%year%" -T "TRACKNUMBER=%tracknr%" -T "GENRE=%genre%" -T "COMMENT=%comment%" -T "BAND=%albuminterpret%" -T "ALBUMARTIST=%albuminterpret%" -T "COMPOSER=%composer%" %haslyrics%–tag-from-file=LYRICS="%lyricsfile%"%haslyrics% -T "DISCNUMBER=%cdnumber%" -T "TOTALDISCS=%totalcds%" -T "TOTALTRACKS=%numtracks%" %hascover%–picture="%coverfile%"%hascover% %source% -o %dest%


TOC of the extracted CD

Track | Start | Length | Start sector | End sector
––––––––––––––––––––––––––––-
1 | 0:00.00 | 6:33.28 | 0 | 29502
2 | 6:33.28 | 16:29.17 | 29503 | 103694
3 | 23:02.45 | 8:04.12 | 103695 | 140006
4 | 31:06.57 | 6:25.69 | 140007 | 168950
5 | 37:32.51 | 6:55.08 | 168951 | 200083
6 | 44:27.59 | 3:13.69 | 200084 | 214627
7 | 47:41.53 | 0:49.69 | 214628 | 218371
8 | 48:31.47 | 13:59.06 | 218372 | 281302
9 | 62:30.53 | 5:27.26 | 281303 | 305853
10 | 67:58.04 | 1:49.48 | 305854 | 314076
11 | 69:47.52 | 6:08.12 | 314077 | 341688


Track 1

Filename C:\!M\Pražák Quartet - Beethoven String Quartets (2006)\CD6\01 - Streichquartett Nr.12 Es-dur op.127- 1. Maestoso - Allegro teneramente.wav

Pre-gap length 0:00:02.00

Peak level 79.4 %
Extraction speed 1.2 X
Track quality 99.9 %
Test CRC 6A9EE052
Copy CRC 6A9EE052
Accurately ripped (confidence 9) [9455F6C1] (AR v2)
Copy OK

Track 2

Filename C:\!M\Pražák Quartet - Beethoven String Quartets (2006)\CD6\02 - Streichquartett Nr.12 Es-dur op.127- 2. Adagio ma non troppo e molto cantabile - Andante con moto - Adagio molto espressivo.wav

Pre-gap length 0:00:03.29

Peak level 82.9 %
Extraction speed 1.7 X
Track quality 100.0 %
Test CRC A537A9A5
Copy CRC A537A9A5
Accurately ripped (confidence 8) [74E78F5A] (AR v2)
Copy OK

Track 3

Filename C:\!M\Pražák Quartet - Beethoven String Quartets (2006)\CD6\03 - Streichquartett Nr.12 Es-dur op.127- 3. Scherzando vivace - Presto.wav

Pre-gap length 0:00:03.52

Peak level 80.7 %
Extraction speed 2.0 X
Track quality 100.0 %
Test CRC 0B717DFC
Copy CRC 0B717DFC
Accurately ripped (confidence 8) [AB01424F] (AR v2)
Copy OK

Track 4

Filename C:\!M\Pražák Quartet - Beethoven String Quartets (2006)\CD6\04 - Streichquartett Nr.12 Es-dur op.127- 4. Finale.wav

Peak level 79.4 %
Extraction speed 2.1 X
Track quality 100.0 %
Test CRC 088A3278
Copy CRC 088A3278
Accurately ripped (confidence 8) [8A59C67D] (AR v2)
Copy OK

Track 5

Filename C:\!M\Pražák Quartet - Beethoven String Quartets (2006)\CD6\05 - Streichquartett Nr.14 cis-moll op.131- 1. Adagio ma non troppo e molto espressivo.wav

Pre-gap length 0:00:05.97

Peak level 86.5 %
Extraction speed 2.2 X
Track quality 100.0 %
Test CRC 66A60AAE
Copy CRC 66A60AAE
Accurately ripped (confidence 8) [9A22D56D] (AR v2)
Copy OK

Track 6

Filename C:\!M\Pražák Quartet - Beethoven String Quartets (2006)\CD6\06 - Streichquartett Nr.14 cis-moll op.131- 2. Allegro molto vivace.wav

Peak level 86.6 %
Extraction speed 2.1 X
Track quality 100.0 %
Test CRC 69D7EDDA
Copy CRC 69D7EDDA
Accurately ripped (confidence 9) [5D1DFB18] (AR v2)
Copy OK

Track 7

Filename C:\!M\Pražák Quartet - Beethoven String Quartets (2006)\CD6\07 - Streichquartett Nr.14 cis-moll op.131- 3. Allegro moderato.wav

Peak level 54.0 %
Extraction speed 1.4 X
Track quality 100.0 %
Test CRC FE415109
Copy CRC FE415109
Accurately ripped (confidence 9) [CE7E122D] (AR v2)
Copy OK

Track 8

Filename C:\!M\Pražák Quartet - Beethoven String Quartets (2006)\CD6\08 - Streichquartett Nr.14 cis-moll op.131- 4. Andante ma non troppo e molto cantabile.wav

Peak level 76.7 %
Extraction speed 2.6 X
Track quality 100.0 %
Test CRC 5F7EDD43
Copy CRC 5F7EDD43
Accurately ripped (confidence 9) [D8C14D4B] (AR v2)
Copy OK

Track 9

Filename C:\!M\Pražák Quartet - Beethoven String Quartets (2006)\CD6\09 - Streichquartett Nr.14 cis-moll op.131- 5. Presto - molto poco adagio.wav

Peak level 86.8 %
Extraction speed 2.4 X
Track quality 99.9 %
Test CRC 2A01B28E
Copy CRC 2A01B28E
Accurately ripped (confidence 9) [ABEF2469] (AR v2)
Copy OK

Track 10

Filename C:\!M\Pražák Quartet - Beethoven String Quartets (2006)\CD6\10 - Streichquartett Nr.14 cis-moll op.131- 6. Adagio quasi un poco Andante.wav

Peak level 44.5 %
Extraction speed 2.2 X
Track quality 100.0 %
Test CRC BB6C7B5B
Copy CRC BB6C7B5B
Accurately ripped (confidence 9) [1E8407DB] (AR v2)
Copy OK

Track 11

Filename C:\!M\Pražák Quartet - Beethoven String Quartets (2006)\CD6\11 - Streichquartett Nr.14 cis-moll op.131- 7. Allegro.wav

Peak level 87.6 %
Extraction speed 2.7 X
Track quality 100.0 %
Test CRC 312EA712
Copy CRC 312EA712
Accurately ripped (confidence 8) [BACEF802] (AR v2)
Copy OK


All tracks accurately ripped

No errors occurred

End of status report

–– CUETools DB Plugin V2.1.6

[CTDB TOCID: Aj9CYYlvDOgltwTWmI3X8l2VN54-] found
Submit result: Aj9CYYlvDOgltwTWmI3X8l2VN54- has been confirmed
Track | CTDB Status
1 | (6/6) Accurately ripped
2 | (6/6) Accurately ripped
3 | (6/6) Accurately ripped
4 | (6/6) Accurately ripped
5 | (6/6) Accurately ripped
6 | (6/6) Accurately ripped
7 | (6/6) Accurately ripped
8 | (6/6) Accurately ripped
9 | (6/6) Accurately ripped
10 | (6/6) Accurately ripped
11 | (6/6) Accurately ripped


==== Log checksum FEE80F58803EB36691514254255C8F70BED683EB420EC975702E45D416523005 ====

Exact Audio Copy V1.3 from 2. September 2016

EAC extraction logfile from 5. November 2017, 15:01

Prazak Quartet / Beethoven String Quartets

Used drive : HL-DT-STBD-RE BH08LS20 Adapter: 1 ID: 0

Read mode : Secure
Utilize accurate stream : Yes
Defeat audio cache : Yes
Make use of C2 pointers : No

Read offset correction : 667
Overread into Lead-In and Lead-Out : No
Fill up missing offset samples with silence : Yes
Delete leading and trailing silent blocks : No
Null samples used in CRC calculations : Yes
Used interface : Native Win32 interface for Win NT & 2000
Gap handling : Appended to previous track

Used output format : User Defined Encoder
Selected bitrate : 768 kBit/s
Quality : High
Add ID3 tag : No
Command line compressor : C:\Program Files (x86)\Exact Audio Copy\Flac\flac.exe
Additional command line options : -8 -V -T "ARTIST=%artist%" -T "TITLE=%title%" -T "ALBUM=%albumtitle%" -T "DATE=%year%" -T "TRACKNUMBER=%tracknr%" -T "GENRE=%genre%" -T "COMMENT=%comment%" -T "BAND=%albuminterpret%" -T "ALBUMARTIST=%albuminterpret%" -T "COMPOSER=%composer%" %haslyrics%–tag-from-file=LYRICS="%lyricsfile%"%haslyrics% -T "DISCNUMBER=%cdnumber%" -T "TOTALDISCS=%totalcds%" -T "TOTALTRACKS=%numtracks%" %hascover%–picture="%coverfile%"%hascover% %source% -o %dest%


TOC of the extracted CD

Track | Start | Length | Start sector | End sector
––––––––––––––––––––––––––––-
1 | 0:00.00 | 9:32.07 | 0 | 42906
2 | 9:32.07 | 8:59.50 | 42907 | 83381
3 | 18:31.57 | 16:10.30 | 83382 | 156161
4 | 34:42.12 | 2:10.53 | 156162 | 165964
5 | 36:52.65 | 6:34.72 | 165965 | 195586
6 | 43:27.62 | 6:22.53 | 195587 | 224289
7 | 49:50.40 | 3:13.72 | 224290 | 238836
8 | 53:04.37 | 7:25.43 | 238837 | 272254
9 | 60:30.05 | 7:16.05 | 272255 | 304959


Track 1

Filename C:\!M\Pražák Quartet - Beethoven String Quartets (2006)\CD7\01 - Streichquartett Nr.15 a-moll op.132- 1. Assai sostenuto - Allegro.wav

Pre-gap length 0:00:02.00

Peak level 64.7 %
Extraction speed 1.3 X
Track quality 100.0 %
Test CRC 9831B716
Copy CRC 9831B716
Accurately ripped (confidence 9) [B50AE435] (AR v2)
Copy OK

Track 2

Filename C:\!M\Pražák Quartet - Beethoven String Quartets (2006)\CD7\02 - Streichquartett Nr.15 a-moll op.132- 2. Allegretto ma non tanto.wav

Peak level 55.7 %
Extraction speed 1.6 X
Track quality 100.0 %
Test CRC 6EF6879D
Copy CRC 6EF6879D
Accurately ripped (confidence 8) [AD86DB40] (AR v2)
Copy OK

Track 3

Filename C:\!M\Pražák Quartet - Beethoven String Quartets (2006)\CD7\03 - Streichquartett Nr.15 a-moll op.132- 3. Molto Adagio.wav

Peak level 49.4 %
Extraction speed 1.8 X
Track quality 99.9 %
Test CRC 72886172
Copy CRC 72886172
Accurately ripped (confidence 8) [FFE893EA] (AR v2)
Copy OK

Track 4

Filename C:\!M\Pražák Quartet - Beethoven String Quartets (2006)\CD7\04 - Streichquartett Nr.15 a-moll op.132- 4. Alla marcia, assai vivace - Piu allegro - attacca-.wav

Peak level 57.4 %
Extraction speed 1.7 X
Track quality 100.0 %
Test CRC BA47B2A5
Copy CRC BA47B2A5
Accurately ripped (confidence 8) [9AAC860D] (AR v2)
Copy OK

Track 5

Filename C:\!M\Pražák Quartet - Beethoven String Quartets (2006)\CD7\05 - Streichquartett Nr.15 a-moll op.132- 5. Allegro appassionato.wav

Peak level 68.1 %
Extraction speed 2.1 X
Track quality 100.0 %
Test CRC 6F7ACB0F
Copy CRC 6F7ACB0F
Accurately ripped (confidence 9) [D57A2498] (AR v2)
Copy OK

Track 6

Filename C:\!M\Pražák Quartet - Beethoven String Quartets (2006)\CD7\06 - Streichquartett Nr.16 F-dur op.135- 1. Allegretto.wav

Pre-gap length 0:00:06.42

Peak level 78.4 %
Extraction speed 2.2 X
Track quality 100.0 %
Test CRC 3FB54C1C
Copy CRC 3FB54C1C
Accurately ripped (confidence 9) [61273D44] (AR v2)
Copy OK

Track 7

Filename C:\!M\Pražák Quartet - Beethoven String Quartets (2006)\CD7\07 - Streichquartett Nr.16 F-dur op.135- 2. Vivace.wav

Peak level 70.0 %
Extraction speed 2.1 X
Track quality 100.0 %
Test CRC 48097E3B
Copy CRC 48097E3B
Accurately ripped (confidence 9) [2F2AB1F1] (AR v2)
Copy OK

Track 8

Filename C:\!M\Pražák Quartet - Beethoven String Quartets (2006)\CD7\08 - Streichquartett Nr.16 F-dur op.135- 3. Lento assai cantabile e tranquillo.wav

Peak level 33.0 %
Extraction speed 2.4 X
Track quality 100.0 %
Test CRC 1B801F27
Copy CRC 1B801F27
Accurately ripped (confidence 9) [C33B0A7F] (AR v2)
Copy OK

Track 9

Filename C:\!M\Pražák Quartet - Beethoven String Quartets (2006)\CD7\09 - Streichquartett Nr.16 F-dur op.135- 4. Grave - Allegro - Grave, ma non tratto - Allegro.wav

Peak level 86.7 %
Extraction speed 2.5 X
Track quality 100.0 %
Test CRC D38DF44B
Copy CRC D38DF44B
Accurately ripped (confidence 9) [C0E23392] (AR v2)
Copy OK


All tracks accurately ripped

No errors occurred

End of status report

–– CUETools DB Plugin V2.1.6

[CTDB TOCID: S5s9ozyslYqvngrPC59LmISbIqA-] found
Submit result: S5s9ozyslYqvngrPC59LmISbIqA- has been confirmed
Track | CTDB Status
1 | (11/11) Accurately ripped
2 | (11/11) Accurately ripped
3 | (11/11) Accurately ripped
4 | (11/11) Accurately ripped
5 | (11/11) Accurately ripped
6 | (11/11) Accurately ripped
7 | (11/11) Accurately ripped
8 | (11/11) Accurately ripped
9 | (11/11) Accurately ripped


==== Log checksum 024DB266D81F73609E5EBCC4EB0BE5147B94A7012E024C77E6889386E6560446 ====


Thanks to the Original customer.