Subcategories

Ransom - Soul Asylum (1992)

Posted By: Domestos
Ransom - Soul Asylum (1992)

Ransom - Soul Asylum (1992)
EAC Rip | FLAC (image+.cue, log) ~ 289.75 Mb + 23.34 Mb (Scans) | 43:20
Hard Rock, Heavy Metal | Country: USA | Label: Intense Records - FLD9280

The second and last album from the Lita Ford clone of Christian metal / hard rock outfit Ransom. Personally, I like this album better than their debut, as it’s a bit beefier both in sound and production. Credit producer / guitarist Lanny Cordola for that. As always, Lisa Faxom’s vocals are amazing, and will appeal to fans of Lita Ford and Vixen…

Track List:
01. Soul Hymn (4:31)
02. Exit (Euthanasia) (4:37)
03. Windows Of My Heart (4:25)
04. The Lies (3:20)
05. Prayer Asylum (4:38)
06. Only The Just Let Go (4:14)
07. Not That Kind Of Girl (4:20)
08. Watching Over Me (4:42)
09. Higher Ground (4:15)
10. Sister Blue (4:16)

Lisa Faxon - Vocals
Tony Ortiz - Guitar
Michael Preciado - Bass

Additional Musicians
Roger Mielke - Keyboards
Joe Galletta - Drums And Percussion

Produced by Lanny Cordola

Ransom - Soul Asylum (1992)

Exact Audio Copy V1.1 from 23. June 2015

Отчёт EAC об извлечении, выполненном 7. апреля 2018, 16:00

Ransom / Soul Asylum (FLD9280)

Дисковод: PLEXTOR BD-R PX-B950SA Adapter: 1 ID: 0

Режим чтения : Достоверность
Использование точного потока : Да
Отключение кэша аудио : Да
Использование указателей C2 : Нет

Коррекция смещения при чтении : 6
Способность читать области Lead-in и Lead-out : Нет
Заполнение пропущенных сэмплов тишиной : Да
Удаление блоков с тишиной в начале и конце : Нет
При вычислениях CRC использовались нулевые сэмплы : Да
Интерфейс : Встроенный Win32-интерфейс для Win NT/2000

Выходной формат : Пользовательский кодировщик
Выбранный битрейт : 1024 kBit/s
Качество : Высокий
Добавление ID3-тега : Нет
Утилита сжатия : C:\Program Files (x86)\Exact Audio Copy\FLAC\FLAC.EXE
Дополнительные параметры : -6 -V -T "ARTIST=%artist%" -T "TITLE=%title%" -T "ALBUM=%albumtitle%" -T "DATE=%year%" -T "TRACKNUMBER=%tracknr%" -T "GENRE=%genre%" -T "COMMENT=%comment%" -T "BAND=%albuminterpret%" -T "ALBUMARTIST=%albuminterpret%" -T "COMPOSER=%composer%" %haslyrics%–tag-from-file=LYRICS="%lyricsfile%"%haslyrics% -T "DISCNUMBER=%cdnumber%" -T "TOTALDISCS=%totalcds%" -T "TOTALTRACKS=%numtracks%" %hascover%–picture="%coverfile%"%hascover% %source% -o %dest%

TOC извлечённого CD

Трек | Старт | Длительность | Начальный сектор | Конечный сектор
––––––––––––––––––––––––––––––––––-
1 | 0:00.50 | 4:31.25 | 50 | 20399
2 | 4:32.00 | 4:37.00 | 20400 | 41174
3 | 9:09.00 | 4:25.00 | 41175 | 61049
4 | 13:34.00 | 3:20.17 | 61050 | 76066
5 | 16:54.17 | 4:37.63 | 76067 | 96904
6 | 21:32.05 | 4:14.15 | 96905 | 115969
7 | 25:46.20 | 4:19.72 | 115970 | 135466
8 | 30:06.17 | 4:42.10 | 135467 | 156626
9 | 34:48.27 | 4:14.65 | 156627 | 175741
10 | 39:03.17 | 4:16.35 | 175742 | 194976

Характеристики диапазона извлечения и сообщения об ошибках

Выбранный диапазон

Имя файла G:\RIP\Ransom 1992 FLAC by alzal\Ransom - Soul Asylum (FLD9280).wav

Пиковый уровень 100.0 %
Скорость извлечения 8.0 X
Качество диапазона 100.0 %
CRC теста 27FC3E3F
CRC копии 27FC3E3F
Копирование… OK

Ошибок не произошло

AccurateRip: сводка

Трек 1 : извлечено точно (доверие 2) [9DE659A4] (AR v1)
Трек 2 : извлечено точно (доверие 2) [B3001749] (AR v2)
Трек 3 : извлечено точно (доверие 2) [C612C7A3] (AR v2)
Трек 4 : извлечено точно (доверие 2) [F6896498] (AR v2)
Трек 5 : извлечено точно (доверие 2) [75AB62F1] (AR v2)
Трек 6 : извлечено точно (доверие 2) [D0D75286] (AR v2)
Трек 7 : извлечено точно (доверие 2) [9A3313BF] (AR v1)
Трек 8 : извлечено точно (доверие 2) [176BAFE2] (AR v2)
Трек 9 : извлечено точно (доверие 2) [E9EC8604] (AR v2)
Трек 10 : извлечено точно (доверие 2) [74528E36] (AR v2)

Все треки извлечены точно

Конец отчёта

–– CUETools DB Plugin V2.1.6

[CTDB TOCID: wnbIkd4qS_resXp.isLfQWANwJ4-] disk not present in database
Submit result: wnbIkd4qS_resXp.isLfQWANwJ4- has been uploaded

==== Контрольная сумма отчёта 469CA74D1D3D268A6FD4FC9FEB37D50B70C58C6AFDDEF146FA9A73CB855C775F ====

All thanks go to the alzal

More Music in My Blog
Follow My RSS Channel