Subcategories

Robert Walter - Super Heavy Organ (2005) {Magnatude MA-2309-2}

Posted By: ruskaval
Robert Walter - Super Heavy Organ (2005) {Magnatude MA-2309-2}

Robert Walter - Super Heavy Organ (2005) {Magnatude MA-2309-2}
EAC rip (secure mode) | FLAC (tracks)+CUE+LOG -> 370 Mb | MP3 @320 -> 149 Mb
Full Artwork @ 300 dpi (jpg) -> 14 Mb | 5% repair rar
© 2005 Magnatude | MA-2309-2
Jazz / Soul Jazz / Jazz Funk / Organ

Robert Walter calls his instrumental heavy organ music "soul-jazz," but that ignores the strong funk element ever-present on all of his albums. This one is no exception, as the opening track, "Adelita," charges out with Walter's Jimmy Smith/Jack McDuff-styled keyboards, driving saxophonist Tim Green into a roaring solo. For this recording, made live in a New Orleans studio with crisp sound, Walter chose top musicians to help the vibe, such as drummers Johnny Vidacovich and Galactic's Stanton Moore, along with bassist James Singleton. The music is baked in the New Orleans groove, with doses of the Meters, Galactic, and Dr. John mixed in. Walter pushes the sonic envelope by shifting into slightly experimental waters during parts of "(Smells Like) Dad's Drunk Again," but he never strays too far afield.

The Medeski, Martin & Wood similarities remain present, but Green's sax helps distinguish the sound, which is less acid-styled and generally funkier than MM&W. The songs shift from shorter, tightly wound three- and four-minute nuggets to extended, jam-heavy pieces. The rhythms and tempos change enough so that the album never stagnates, although it does wind down in its final quarter, with the closing nine-minute "Cabrillo" making the disc probably one track too long. Vidacovich's always inventive percussion is never less than sensational, and even when Walter's keyboards become a bit repetitious, the drumming is propulsive enough to pull the listener through the few rough spots. There are many highlights, but "Criminals Have a Name for It," which rides on a bed of stark, offbeat handclaps, is an ear-catching example of this combo at its most inventive. Walter's B-3 playing is indeed heavy, but never heavy-handed, a distinction that makes this one of his most successful releases.

Musicians
Organ Robert Walter
Saxophone Tim Green
Drums, Percussion Stanton Moore
Drums Johnny Vidacovich
Bass James Singleton
Vocals Anthony Farrell

tracklist:
01 Adelita 05:27
02 Kickin' Up Dust 03:14
03 Spell 02:34
04 El Cuervo 07:31
05 Criminals Have A Name For It 05:13
06 34 Small 07:15
07 Don't Hate, Congratulate 03:38
08 Poor Tom 02:56
09 Smells Like Dad's Drunk Again 06:05
10 Big Dummy 04:57
11 Hardware 05:01
12 Cabrillo 09:02

Exact Audio Copy V1.0 beta 3 from 29. August 2011

EAC extraction logfile from 27. November 2013, 19:20

Robert Walter / Super Heavy Organ

Used drive : SONY DVD RW DRU-810A Adapter: 1 ID: 0

Read mode : Secure
Utilize accurate stream : Yes
Defeat audio cache : Yes
Make use of C2 pointers : No

Read offset correction : 618
Overread into Lead-In and Lead-Out : No
Fill up missing offset samples with silence : Yes
Delete leading and trailing silent blocks : No
Null samples used in CRC calculations : Yes
Used interface : Native Win32 interface for Win NT & 2000
Gap handling : Appended to previous track

Used output format : User Defined Encoder
Selected bitrate : 128 kBit/s
Quality : High
Add ID3 tag : No
Command line compressor : C:\Program Files (x86)\Exact Audio Copy\Flac\flac.exe
Additional command line options : -8 -V -T "ARTIST=%artist%" -T "TITLE=%title%" -T "ALBUM=%albumtitle%" -T "DATE=%year%" -T "TRACKNUMBER=%tracknr%" -T "TOTALTRACKS=%numtracks%" -T "GENRE=%genre%" -T "ALBUMARTIST=%albumartist%" -T "ALBUM ARTIST=%albumartist%" -T "COMMENT=EAC Secure Mode, Test & Copy, AccurateRip, FLAC -8" %source%


TOC of the extracted CD

Track | Start | Length | Start sector | End sector
––––––––––––––––––––––––––––-
1 | 0:00.00 | 5:27.04 | 0 | 24528
2 | 5:27.04 | 3:14.12 | 24529 | 39090
3 | 8:41.16 | 2:33.60 | 39091 | 50625
4 | 11:15.01 | 7:30.57 | 50626 | 84432
5 | 18:45.58 | 5:12.38 | 84433 | 107870
6 | 23:58.21 | 7:15.15 | 107871 | 140510
7 | 31:13.36 | 3:38.13 | 140511 | 156873
8 | 34:51.49 | 2:56.07 | 156874 | 170080
9 | 37:47.56 | 6:05.10 | 170081 | 197465
10 | 43:52.66 | 4:57.26 | 197466 | 219766
11 | 48:50.17 | 5:01.14 | 219767 | 242355
12 | 53:51.31 | 9:02.00 | 242356 | 283005
13 | 65:25.31 | 3:59.07 | 294406 | 312337


Track 1

Filename F:\New Rips\Robert Walter - Super Heavy Organ (2005) [FLAC]\01 - Adelita.wav

Pre-gap length 0:00:02.00

Peak level 96.7 %
Extraction speed 4.7 X
Track quality 100.0 %
Test CRC E1526A66
Copy CRC E1526A66
Accurately ripped (confidence 4) [8BF0F54E] (AR v2)
Copy OK

Track 2

Filename F:\New Rips\Robert Walter - Super Heavy Organ (2005) [FLAC]\02 - Kickin' Up Dust.wav

Peak level 98.8 %
Extraction speed 4.8 X
Track quality 100.0 %
Test CRC A5391CD9
Copy CRC A5391CD9
Accurately ripped (confidence 4) [DA0EB80F] (AR v2)
Copy OK

Track 3

Filename F:\New Rips\Robert Walter - Super Heavy Organ (2005) [FLAC]\03 - Spell.wav

Peak level 98.8 %
Extraction speed 4.9 X
Track quality 100.0 %
Test CRC 5300014A
Copy CRC 5300014A
Accurately ripped (confidence 4) [C5BD6594] (AR v2)
Copy OK

Track 4

Filename F:\New Rips\Robert Walter - Super Heavy Organ (2005) [FLAC]\04 - El Cuervo.wav

Peak level 98.3 %
Extraction speed 6.1 X
Track quality 100.0 %
Test CRC BAFBADDC
Copy CRC BAFBADDC
Accurately ripped (confidence 4) [6D67948C] (AR v2)
Copy OK

Track 5

Filename F:\New Rips\Robert Walter - Super Heavy Organ (2005) [FLAC]\05 - Criminals Have A Name For It.wav

Peak level 98.8 %
Extraction speed 6.4 X
Track quality 100.0 %
Test CRC 083F296B
Copy CRC 083F296B
Accurately ripped (confidence 4) [EEFB8659] (AR v2)
Copy OK

Track 6

Filename F:\New Rips\Robert Walter - Super Heavy Organ (2005) [FLAC]\06 - 34 Small.wav

Peak level 98.8 %
Extraction speed 7.1 X
Track quality 100.0 %
Test CRC CFBB9066
Copy CRC CFBB9066
Accurately ripped (confidence 4) [C757ADC8] (AR v2)
Copy OK

Track 7

Filename F:\New Rips\Robert Walter - Super Heavy Organ (2005) [FLAC]\07 - Don't Hate Congratulate.wav

Peak level 98.8 %
Extraction speed 7.0 X
Track quality 100.0 %
Test CRC 3F888DA4
Copy CRC 3F888DA4
Accurately ripped (confidence 4) [D75509C9] (AR v2)
Copy OK

Track 8

Filename F:\New Rips\Robert Walter - Super Heavy Organ (2005) [FLAC]\08 - Poor Tom.wav

Peak level 98.5 %
Extraction speed 6.9 X
Track quality 100.0 %
Test CRC 7C3CE66B
Copy CRC 7C3CE66B
Accurately ripped (confidence 4) [204BEF06] (AR v2)
Copy OK

Track 9

Filename F:\New Rips\Robert Walter - Super Heavy Organ (2005) [FLAC]\09 - Dad's Drunk Again.wav

Peak level 98.8 %
Extraction speed 7.9 X
Track quality 100.0 %
Test CRC BFF9EBD7
Copy CRC BFF9EBD7
Accurately ripped (confidence 4) [611670E9] (AR v2)
Copy OK

Track 10

Filename F:\New Rips\Robert Walter - Super Heavy Organ (2005) [FLAC]\10 - Big Dummy.wav

Peak level 98.8 %
Extraction speed 8.1 X
Track quality 100.0 %
Test CRC 7D1987B9
Copy CRC 7D1987B9
Accurately ripped (confidence 4) [CCCB4381] (AR v2)
Copy OK

Track 11

Filename F:\New Rips\Robert Walter - Super Heavy Organ (2005) [FLAC]\11 - Hardware.wav

Peak level 98.8 %
Extraction speed 8.4 X
Track quality 100.0 %
Test CRC 5ABEECA2
Copy CRC 5ABEECA2
Accurately ripped (confidence 4) [AFECBABD] (AR v2)
Copy OK

Track 12

Filename F:\New Rips\Robert Walter - Super Heavy Organ (2005) [FLAC]\12 - Cabrillo.wav

Peak level 98.8 %
Extraction speed 9.2 X
Track quality 100.0 %
Test CRC F2BCB65F
Copy CRC F2BCB65F
Accurately ripped (confidence 4) [02126599] (AR v2)
Copy OK


All tracks accurately ripped

No errors occurred

End of status report

–– CUETools DB Plugin V2.1.3

[CTDB TOCID: 02LtGGRqU40SWqr4JACBDiqpXPc-] found, Submit result: 02LtGGRqU40SWqr4JACBDiqpXPc- has been confirmed
[4f1c1799] (1/1) Accurately ripped


==== Log checksum 8E4DBEA2774312C7C882014189C03CBD2085F38088131274B0D71B37E7409C09 ====


Robert Walter - Super Heavy Organ (2005) {Magnatude MA-2309-2}

Robert Walter - Super Heavy Organ (2005) {Magnatude MA-2309-2}


see more Robert Walter…


===