Subcategories

Robin Black - Instant Classic (2005)

Posted By: Domestos
Robin Black - Instant Classic (2005)

Robin Black - Instant Classic (2005)
XLD Rip | FLAC (tracks+.cue, log) ~ 290.12 Mb | 39:43 | Cover
Glam Rock | Country: Canada | Label: Venus Records - 18505 20001 2 0

Robin Black is a Canadian glam rock band, originally known as Robin Black and the Intergalactic Rock Stars, formed in 1998. The band's lead singer also uses Robin Black as his stage name. Robin Black the frontman has previously lived in Pinawa, Manitoba, performing with the band Ballroom Zombies. He moved to Toronto in 1998 to form Robin Black and the Intergalactic Rock Stars.

One of the band members he would find was Killer Ky (Ky Anto); a Canadian guitarist who had played with the band Sassy Scarlet as well as performing with Sylvain Sylvain (New York Dolls) and Michael Monroe's (Hanoi Rocks) solo groups. Killer Ky joined the band as bass player after the departure of original but short lived member Jackie Duncan. The band also included guitarist/ keyboard player Chris Cunnane aka Starboy, guitarist Stacy Stray and drummer Kevin Taylor. Stacy and Kevin joined the band when they left their previous Toronto group, The Conscience Pilate, in 1998. In 2002 Stacy Stray left the band. Killer Ky switched to lead guitar and B.B. Mcqueen was added on bass.

The band released their first recording, a novelty CD single cut in the shape of a star, in 2000. The album Planet Fame, produced by Moe Berg and Garth Richardson, followed on February 14, 2002. It was filled with glam rock tracks, led by the single "So Sick of You". A video for the single was also released.

Prior to the release of their second album, the band brought in two new members; Chris "The Kidd" Avolos on drums and John "The Creep" Kerns on bass. The 2005 album was named Instant Classic, and was produced by Bob Ezrin along with Garth Richardson. For this release the band's name was shortened to just Robin Black.

They toured extensively for this release, including the UK.

Frontman Robin also made an appearance on Showcase's TV series KinK. Black was also a judge on the 2006 Much Music VJ Search. He holds a second degree black belt in Tae Kwon Do. Robin also won the 2008 NAGA World Championships. He now trains at Xtreme Couture in Toronto alongside other fighters such as Mark Hominick, Mark Bocek, and Rob Di Censo.

Robin Black toured the UK again across July and August 2008 with support from German glam rock band The Pleasures and British based Patchwork Grace. This tour culminated in a headline show at Trash Stock festival, Nottingham.

He now is a Canadian MMA reporter and color commentator on The Score and the face of the Fight Network.

Track List:
01. Why Don't You Love Me? (2:50)
02. We Saw Right Thru Ya (3:20)
03. Hellraiser (3:10)
04. Better Off That Way (3:17)
05. Over You (3:48)
06. Seventeen (4:48)
07. Feel (Something So Real) (3:50)
08. This One's Gonna Hurt You Bad (3:20)
09. Shoot 'em Up Now (3:16)
10. Outta the City (3:53)
11. Lullaby (4:11)

X Lossless Decoder version 20161007 (149.3)

XLD extraction logfile from 2017-07-02 16:46:53 -0400

Robin Black / Instant Classic

Used drive : ASUS SDRW-08D2S-U (revision B901)
Media type : Pressed CD

Ripper mode : XLD Secure Ripper
Disable audio cache : OK for the drive with a cache less than 1375KiB
Make use of C2 pointers : NO
Read offset correction : 6
Max retry count : 20
Gap status : Analyzed, Appended (except HTOA)

TOC of the extracted CD
Track | Start | Length | Start sector | End sector
––––––––––––––––––––––––––––-
1 | 00:01:00 | 02:50:04 | 75 | 12828
2 | 02:51:04 | 03:20:01 | 12829 | 27829
3 | 06:11:05 | 03:09:53 | 27830 | 42057
4 | 09:20:58 | 03:16:73 | 42058 | 56830
5 | 12:37:56 | 03:47:38 | 56831 | 73893
6 | 16:25:19 | 04:47:68 | 73894 | 95486
7 | 21:13:12 | 03:49:40 | 95487 | 112701
8 | 25:02:52 | 03:19:65 | 112702 | 127691
9 | 28:22:42 | 03:16:30 | 127692 | 142421
10 | 31:38:72 | 03:52:71 | 142422 | 159892
11 | 35:31:68 | 04:10:63 | 159893 | 178705

AccurateRip Summary (DiscID: 000fb913-008a1e5e-8d094d0b)
Track 01 : OK (v1+v2, confidence 4/4)
Track 02 : OK (v1+v2, confidence 4/4)
Track 03 : OK (v1+v2, confidence 4/4)
Track 04 : OK (v1+v2, confidence 4/4)
Track 05 : OK (v1+v2, confidence 4/4)
Track 06 : OK (v2, confidence 2/2)
Track 07 : OK (v2, confidence 2/2)
Track 08 : OK (v2, confidence 2/2)
Track 09 : OK (v2, confidence 2/2)
Track 10 : OK (v1+v2, confidence 2/4)
Track 11 : OK (v1+v2, confidence 2/4)
->All tracks accurately ripped.

All Tracks
Album gain : -10.34 dB
Peak : 0.999268
Statistics
Read error : 0
Jitter error (maybe fixed) : 0
Retry sector count : 0
Damaged sector count : 0

Track 01
Filename : /Users/davidapap/Music/RIPS/Robin Black - Instant Classic (2005) [FLAC]/01 Why Don't You Love Me?.flac
Pre-gap length : 00:03:00

Track gain : -10.83 dB
Peak : 0.999084
CRC32 hash (test run) : A2FCBA3D
CRC32 hash : A2FCBA3D
CRC32 hash (skip zero) : 64583CDE
AccurateRip v1 signature : 8F1B5CAB
AccurateRip v2 signature : 6F7E5BBF
->Accurately ripped (v1+v2, confidence 2+2/4)
Statistics
Read error : 0
Jitter error (maybe fixed) : 0
Retry sector count : 0
Damaged sector count : 0

Track 02
Filename : /Users/davidapap/Music/RIPS/Robin Black - Instant Classic (2005) [FLAC]/02 We Saw Right Thru Ya.flac

Track gain : -10.49 dB
Peak : 0.999176
CRC32 hash (test run) : D109C82E
CRC32 hash : D109C82E
CRC32 hash (skip zero) : 36B84433
AccurateRip v1 signature : 0F9E2C92
AccurateRip v2 signature : 8B470489
->Accurately ripped (v1+v2, confidence 2+2/4)
Statistics
Read error : 0
Jitter error (maybe fixed) : 0
Retry sector count : 0
Damaged sector count : 0

Track 03
Filename : /Users/davidapap/Music/RIPS/Robin Black - Instant Classic (2005) [FLAC]/03 Hellraiser.flac

Track gain : -10.56 dB
Peak : 0.999176
CRC32 hash (test run) : 539B9879
CRC32 hash : 539B9879
CRC32 hash (skip zero) : 75E15DFD
AccurateRip v1 signature : C9D29993
AccurateRip v2 signature : FC4C539C
->Accurately ripped (v1+v2, confidence 2+2/4)
Statistics
Read error : 0
Jitter error (maybe fixed) : 0
Retry sector count : 0
Damaged sector count : 0

Track 04
Filename : /Users/davidapap/Music/RIPS/Robin Black - Instant Classic (2005) [FLAC]/04 Better Off That Way.flac

Track gain : -10.07 dB
Peak : 0.999237
CRC32 hash (test run) : 4FAA806B
CRC32 hash : 4FAA806B
CRC32 hash (skip zero) : 59346E1D
AccurateRip v1 signature : 7A2C2E79
AccurateRip v2 signature : C8592109
->Accurately ripped (v1+v2, confidence 2+2/4)
Statistics
Read error : 0
Jitter error (maybe fixed) : 0
Retry sector count : 0
Damaged sector count : 0

Track 05
Filename : /Users/davidapap/Music/RIPS/Robin Black - Instant Classic (2005) [FLAC]/05 Over You.flac

Track gain : -10.73 dB
Peak : 0.999268
CRC32 hash (test run) : 3E3AC6FA
CRC32 hash : 3E3AC6FA
CRC32 hash (skip zero) : 76373A9A
AccurateRip v1 signature : 0C455BF9
AccurateRip v2 signature : 69616E21
->Accurately ripped (v1+v2, confidence 2+2/4)
Statistics
Read error : 0
Jitter error (maybe fixed) : 0
Retry sector count : 0
Damaged sector count : 0

Track 06
Filename : /Users/davidapap/Music/RIPS/Robin Black - Instant Classic (2005) [FLAC]/06 Seventeen.flac

Track gain : -9.50 dB
Peak : 0.999207
CRC32 hash (test run) : 981CAD2F
CRC32 hash : 981CAD2F
CRC32 hash (skip zero) : A11954D0
AccurateRip v1 signature : B48244D4
AccurateRip v2 signature : 4FE72D11
->Accurately ripped (v2, confidence 2/2)
Statistics
Read error : 0
Jitter error (maybe fixed) : 0
Retry sector count : 0
Damaged sector count : 0

Track 07
Filename : /Users/davidapap/Music/RIPS/Robin Black - Instant Classic (2005) [FLAC]/07 Feel (Something So Real).flac

Track gain : -10.31 dB
Peak : 0.999237
CRC32 hash (test run) : F57473D5
CRC32 hash : F57473D5
CRC32 hash (skip zero) : 77C2921E
AccurateRip v1 signature : 24B80C49
AccurateRip v2 signature : D39F37B7
->Accurately ripped (v2, confidence 2/2)
Statistics
Read error : 0
Jitter error (maybe fixed) : 0
Retry sector count : 0
Damaged sector count : 0

Track 08
Filename : /Users/davidapap/Music/RIPS/Robin Black - Instant Classic (2005) [FLAC]/08 This One's Gonna Hurt You Bad.flac

Track gain : -10.63 dB
Peak : 0.999237
CRC32 hash (test run) : E2F8CB9B
CRC32 hash : E2F8CB9B
CRC32 hash (skip zero) : 373F1CA7
AccurateRip v1 signature : F7A9A17F
AccurateRip v2 signature : 166FBE77
->Accurately ripped (v2, confidence 2/2)
Statistics
Read error : 0
Jitter error (maybe fixed) : 0
Retry sector count : 0
Damaged sector count : 0

Track 09
Filename : /Users/davidapap/Music/RIPS/Robin Black - Instant Classic (2005) [FLAC]/09 Shoot 'em Up Now.flac

Track gain : -9.62 dB
Peak : 0.999176
CRC32 hash (test run) : 43B25175
CRC32 hash : 43B25175
CRC32 hash (skip zero) : B0CC11D3
AccurateRip v1 signature : 0B63EDD9
AccurateRip v2 signature : 462B12C8
->Accurately ripped (v2, confidence 2/2)
Statistics
Read error : 0
Jitter error (maybe fixed) : 0
Retry sector count : 0
Damaged sector count : 0

Track 10
Filename : /Users/davidapap/Music/RIPS/Robin Black - Instant Classic (2005) [FLAC]/10 Outta the City.flac

Track gain : -10.63 dB
Peak : 0.997894
CRC32 hash (test run) : A2CAE9F5
CRC32 hash : A2CAE9F5
CRC32 hash (skip zero) : 54659A61
AccurateRip v1 signature : 8414ED33
AccurateRip v2 signature : 43F1123D
->Accurately ripped (v1+v2, confidence 1+1/4)
Statistics
Read error : 0
Jitter error (maybe fixed) : 0
Retry sector count : 0
Damaged sector count : 0

Track 11
Filename : /Users/davidapap/Music/RIPS/Robin Black - Instant Classic (2005) [FLAC]/11 Lullaby.flac

Track gain : -6.78 dB
Peak : 0.997528
CRC32 hash (test run) : 9FA4D83E
CRC32 hash : 9FA4D83E
CRC32 hash (skip zero) : 57AFA514
AccurateRip v1 signature : 52D4A132
AccurateRip v2 signature : 3C6E2238
->Accurately ripped (v1+v2, confidence 1+1/4)
Statistics
Read error : 0
Jitter error (maybe fixed) : 0
Retry sector count : 0
Damaged sector count : 0

No errors occurred

End of status report

––-BEGIN XLD SIGNATURE––-
16cZ.gJK8YvwrCqPBHyk_QVR66hTkjdOvDjSx66N9j0OKJlHstryf5Nj0lvOmG7bXd8bio4qdHq7V4AmgmXZig2FHZdNcsKwAx6VI1C
––-END XLD SIGNATURE––-

All thanks go to the Tsao

More Music in My Blog
Follow My RSS Channel